Звёздные войны: Музыкальное путешествие (видео) / Star Wars: A Musical Journey (2005) DVD5

 
 Статистика раздачи 
Размер: 4.01 ГБ   |  Зарегистрирован: 03 янв 2016, 22:50   |   .torrent скачан: 0 раз
Сидеров: 1  [ 0 байт/сек ]     Личеров: 0  [ 0 байт/сек ]  
  

Звёздные войны: Музыкальное путешествие (видео) / Star Wars: A Musical Journey (2005) DVD5

Сообщение Seepas » 03 янв 2016, 22:50

Звёздные войны: Музыкальное путешествие (видео) / Star Wars: A Musical Journey (2005) DVD5

Производство: США
Жанр: Музыка

Режиссер: Типпи Бушкин
Актеры: Иен МакДермид (Ian McDiarmid)

Описание:
Иэн МакДайармид показывает клипы из 6 эпизодов легендарной фантастики компании «ЛукасАртс», сопровождённые музыкой Королевского филармонического оркестра и хора.



Продолжительность: 01:11:32
Качество видео: DVD5
Перевод: Отсутствует
Язык: Английский

Видео: MPEG-2, 720x480, ~7000 kbps
Аудио #1: AC3, 6 ch, 448 kbps, CBR
Аудио #2: PCM, 2 ch, 1536 kbps, CBR
Код:
Код: Выделить всё
Формат                                   : MPEG-PS
Размер файла                             : 1024 Мбайт
Продолжительность                        : 18 м.
Режим общего битрейта                    : Переменный
Общий поток                              : 7758 Кбит/сек

Видео
Идентификатор                            : 224 (0xE0)
Формат                                   : MPEG Video
Версия формата                           : Version 2
Профиль формата                          : Main@Main
Параметр BVOP формата                    : Да
Параметр матрицы формата                 : Выборочная
Параметр GOP формата                     : M=3, N=15
Структура изображения                    : Frame
Продолжительность                        : 18 м.
Вид битрейта                             : Переменный
Битрейт                                  : 5620 Кбит/сек
Максимальный битрейт                     : 7000 Кбит/сек
Ширина                                   : 720 пикселей
Высота                                   : 480 пикселей
Соотношение сторон                       : 16:9
Частота кадров                           : 29,970 (30000/1001) кадров/сек
Стандарт вещания                         : NTSC
Цветовое пространство                    : YUV
Субдискретизация насыщенности            : 4:2:0
Битовая глубина                          : 8 бит
Тип развёртки                            : Чересстрочная
Порядок развёртки                        : Верхнее поле первое
Метод сжатия                             : С потерями
Бит/(Пиксели*Кадры)                      : 0.543
Временной код первого кадра              : 00:59:59:00
Оригинал временного кода                 : Group of pictures header
GOP, открыто/закрыто                     : Закрыто
Размер потока                            : 742 Мбайт (72%)

Аудио #1
Идентификатор                            : 189 (0xBD)-129 (0x81)
Формат                                   : AC-3
Формат/Информация                        : Audio Coding 3
Расширение режима                        : CM (complete main)
Параметр Endianness формата              : Big
Режим смешивания                         : DVD-Video
Продолжительность                        : 18 м.
Вид битрейта                             : Постоянный
Битрейт                                  : 448 Кбит/сек
Каналы                                   : 6 каналов
Расположение каналов                     : Front: L C R, Side: L R, LFE
Частота                                  : 48,0 КГц
Частота кадров                           : 31,250 кадров/сек (1536 spf)
Метод сжатия                             : С потерями
Размер потока                            : 59,1 Мбайт (6%)

Аудио #2
Идентификатор                            : 189 (0xBD)-160 (0xA0)
Формат                                   : PCM
Параметр Endianness формата              : Big
Параметр Sign формата                    : Signed
Режим смешивания                         : DVD-Video
Продолжительность                        : 18 м.
Вид битрейта                             : Постоянный
Битрейт                                  : 1536 Кбит/сек
Каналы                                   : 2 канала
Частота                                  : 48,0 КГц
Битовая глубина                          : 24 бит
Размер потока                            : 203 Мбайт (20%)

Скриншоты:



Время раздачи: c 17:00 до 21:00 мск
 
Не забывайте говорить Спасибо. Не уходите с раздачи!   
Торрент: Зарегистрирован [03 янв 2016, 22:50] Скачать торрент
Скачать торрент
[ Размер 11.95 КБ / Просмотров 28 ]
Статус:
Проверен
 
.torrent скачан: 0 раз
Хэш: d8a798faa59bb73d9dcf4fb8c73dc60b63cfbd33
Размер: 4.01 ГБ (4 303 253 489 байт)
Стать Автором раздачи
 
 
Раздал: 0 байт
Скачал: 0 байт
Ратио: Inf.
Сообщения: 188877
Зарегистрирован: 14 июн 2014, 20:46


  • Похожие торренты
    Ответы
    Просмотры
    Последнее сообщение

Вернуться в Музыкальные клипы (транзит)

Ресурс не предоставляет электронные версии произведений, а занимается лишь коллекционированием и каталогизацией ссылок, присылаемых и публикуемых на форуме нашими читателями. Если вы являетесь правообладателем какого-либо представленного материала и не желаете чтобы ссылка на него находилась в нашем каталоге, свяжитесь с нами и мы незамедлительно удалим её. Файлы для обмена на трекере предоставлены пользователями сайта, и администрация не несёт ответственности за их содержание. Просьба не заливать файлы, защищенные авторскими правами, а также файлы нелегального содержания!
cron