VA - Anjunadeep 07 (Mixed by Jody Wisternoff & James Grant) (2015) [FLAC|Lossless|tracks + .cue] <Electronic, Deep House>

 
 Статистика раздачи 
Размер: 991.57 МБ   |  Зарегистрирован: 28 дек 2015, 03:47   |   .torrent скачан: 2 раз
Сидеров: 1  [ 0 байт/сек ]     Личеров: 0  [ 0 байт/сек ]  
  

VA - Anjunadeep 07 (Mixed by Jody Wisternoff & James Grant) (2015) [FLAC|Lossless|tracks + .cue] <Electronic, Deep House>

Сообщение Seepas » 28 дек 2015, 03:47

VA - Anjunadeep 07 (Mixed by Jody Wisternoff & James Grant) (2015)

Производство: Anjunadeep – ANJCD045
Год: 2015
Жанр: Electronic, Deep House
Продолжительность: 02:36:56

Кодек: FLAC
Битрейт: Lossless
Тип рипа: tracks + .cue
Продoлжительность: 01:17:33
Треклист:
01. Esteble – Passage (2:14)
02. Solomon Grey – Miradors (Jody Wisternoff & James Grant Remix) (4:41)
03. 16 Bit Lolitas – More Than Music (feat. Lucy Iris) (4:18)
04. DEMS – Never Have, Never Will (2:53)
05. Downtown Party Network – Space Me Out (Jody Wisternoff & James Grant Edit) (4:24)
06. Thomas Schwartz & Fausto Fanizza – Dawn To Dusk (3:50)
07. Yotto – Slowly (5:04)
08. Lane 8 – Rise (6:15)
09. 16 Bit Lolitas – Love Left (7:09)
10. Vincenzo & Florian Kruse – All About You (Seb Dhajje Remix) (feat. Lisa Shaw) (5:05)
11. 16 Bit Lolitas – Sediment (6:51)
12. Lancelot – Glass Voices (feat. Laura Jae) (4:30)
13. Solomon Grey – Twilight (John Monkman Remix) (6:18)
14. 16 Bit Lolitas – Stardust (feat. Lucy Iris) (6:04)
15. Yotto – Wondering (feat. CAPS) (5:45)
16. Kahwe – Prophets (Outro Edit) (2:12)
Код:
Код: Выделить всё
Exact Audio Copy V1.0 beta 3 from 29. August 2011

EAC extraction logfile from 19. September 2015, 21:18

Jody Wisternoff & James Grant / Anjunadeep 07

Used drive  : ASUS    DRW-24B1ST   c   Adapter: 5  ID: 0

Read mode               : Secure
Utilize accurate stream : Yes
Defeat audio cache      : Yes
Make use of C2 pointers : No

Read offset correction                      : 6
Overread into Lead-In and Lead-Out          : No
Fill up missing offset samples with silence : Yes
Delete leading and trailing silent blocks   : No
Null samples used in CRC calculations       : Yes
Used interface                              : Native Win32 interface for Win NT & 2000
Gap handling                                : Appended to previous track

Used output format              : User Defined Encoder
Selected bitrate                : 1024 kBit/s
Quality                         : High
Add ID3 tag                     : No
Command line compressor         : C:\Program Files (x86)\FLAC\flac.exe
Additional command line options :  -8 -V -T "ARTIST=%artist%" -T "TITLE=%title%" -T "ALBUM=%albumtitle%" -T "DATE=%year%" -T "TRACKNUMBER=%tracknr%" -T "GENRE=%genre%" -T "PERFORMER=%albuminterpret%" -T "COMPOSER=%composer%" %haslyrics%--tag-from-file=LYRICS="%lyricsfile%"%haslyrics% -T "ALBUMARTIST=%albumartist%" -T "DISCNUMBER=%cdnumber%" -T "TOTALDISCS=%totalcds%" -T "TOTALTRACKS=%numtracks%" -T "COMMENT=%comment%" %source% -o %dest%

TOC of the extracted CD

     Track |   Start  |  Length  | Start sector | End sector
    ---------------------------------------------------------
        1  |  0:00.00 |  2:14.15 |         0    |    10064
        2  |  2:14.15 |  4:41.36 |     10065    |    31175
        3  |  6:55.51 |  4:17.50 |     31176    |    50500
        4  | 11:13.26 |  2:52.54 |     50501    |    63454
        5  | 14:06.05 |  4:24.29 |     63455    |    83283
        6  | 18:30.34 |  3:49.45 |     83284    |   100503
        7  | 22:20.04 |  5:03.38 |    100504    |   123266
        8  | 27:23.42 |  6:14.61 |    123267    |   151377
        9  | 33:38.28 |  7:08.60 |    151378    |   183537
       10  | 40:47.13 |  5:05.06 |    183538    |   206418
       11  | 45:52.19 |  6:50.72 |    206419    |   237240
       12  | 52:43.16 |  4:29.39 |    237241    |   257454
       13  | 57:12.55 |  6:17.53 |    257455    |   285782
       14  | 63:30.33 |  6:04.05 |    285783    |   313087
       15  | 69:34.38 |  5:45.21 |    313088    |   338983
       16  | 75:19.59 |  2:12.03 |    338984    |   348886

Track  1

     Filename C:\EAC Rips\[ANJCD045D] James Grant & Jody Wistenoff - Anjunadeep 07 (2015) [FLAC]\Disc 1\01. Passage.wav

     Pre-gap length  0:00:02.00

     Peak level 98.8 %
     Extraction speed 1.8 X
     Track quality 100.0 %
     Test CRC D754A4FB
     Copy CRC D754A4FB
     Track not present in AccurateRip database
     Copy OK

Track  2

     Filename C:\EAC Rips\[ANJCD045D] James Grant & Jody Wistenoff - Anjunadeep 07 (2015) [FLAC]\Disc 1\02. Miradors (Jody Wisternoff & James Grant Remix).wav

     Peak level 98.8 %
     Extraction speed 2.2 X
     Track quality 100.0 %
     Test CRC 8AFF1C98
     Copy CRC 8AFF1C98
     Track not present in AccurateRip database
     Copy OK

Track  3

     Filename C:\EAC Rips\[ANJCD045D] James Grant & Jody Wistenoff - Anjunadeep 07 (2015) [FLAC]\Disc 1\03. More than Music.wav

     Peak level 98.8 %
     Extraction speed 2.4 X
     Track quality 100.0 %
     Test CRC 87675C5F
     Copy CRC 87675C5F
     Track not present in AccurateRip database
     Copy OK

Track  4

     Filename C:\EAC Rips\[ANJCD045D] James Grant & Jody Wistenoff - Anjunadeep 07 (2015) [FLAC]\Disc 1\04. Never Have, Never Will.wav

     Peak level 98.8 %
     Extraction speed 2.4 X
     Track quality 100.0 %
     Test CRC 2BE32655
     Copy CRC 2BE32655
     Track not present in AccurateRip database
     Copy OK

Track  5

     Filename C:\EAC Rips\[ANJCD045D] James Grant & Jody Wistenoff - Anjunadeep 07 (2015) [FLAC]\Disc 1\05. Space Me Out (Jody Wisternoff & James Grant Edit).wav

     Peak level 98.8 %
     Extraction speed 2.7 X
     Track quality 100.0 %
     Test CRC A8738904
     Copy CRC A8738904
     Track not present in AccurateRip database
     Copy OK

Track  6

     Filename C:\EAC Rips\[ANJCD045D] James Grant & Jody Wistenoff - Anjunadeep 07 (2015) [FLAC]\Disc 1\06. Dawn to Dusk.wav

     Peak level 98.8 %
     Extraction speed 2.8 X
     Track quality 100.0 %
     Test CRC B9101A13
     Copy CRC B9101A13
     Track not present in AccurateRip database
     Copy OK

Track  7

     Filename C:\EAC Rips\[ANJCD045D] James Grant & Jody Wistenoff - Anjunadeep 07 (2015) [FLAC]\Disc 1\07. Slowly.wav

     Peak level 98.8 %
     Extraction speed 3.1 X
     Track quality 100.0 %
     Test CRC 43C2CF27
     Copy CRC 43C2CF27
     Track not present in AccurateRip database
     Copy OK

Track  8

     Filename C:\EAC Rips\[ANJCD045D] James Grant & Jody Wistenoff - Anjunadeep 07 (2015) [FLAC]\Disc 1\08. Rise.wav

     Peak level 98.8 %
     Extraction speed 2.7 X
     Track quality 99.9 %
     Test CRC 544424C7
     Copy CRC 544424C7
     Track not present in AccurateRip database
     Copy OK

Track  9

     Filename C:\EAC Rips\[ANJCD045D] James Grant & Jody Wistenoff - Anjunadeep 07 (2015) [FLAC]\Disc 1\09. Love Left.wav

     Peak level 98.8 %
     Extraction speed 3.6 X
     Track quality 100.0 %
     Test CRC 190F07DA
     Copy CRC 190F07DA
     Track not present in AccurateRip database
     Copy OK

Track 10

     Filename C:\EAC Rips\[ANJCD045D] James Grant & Jody Wistenoff - Anjunadeep 07 (2015) [FLAC]\Disc 1\10. All About You (Seb Dhajje Remix).wav

     Peak level 98.8 %
     Extraction speed 2.8 X
     Track quality 99.9 %
     Test CRC 49CF30D6
     Copy CRC 49CF30D6
     Track not present in AccurateRip database
     Copy OK

Track 11

     Filename C:\EAC Rips\[ANJCD045D] James Grant & Jody Wistenoff - Anjunadeep 07 (2015) [FLAC]\Disc 1\11. Sediment.wav

     Peak level 98.8 %
     Extraction speed 3.9 X
     Track quality 100.0 %
     Test CRC 99B3B160
     Copy CRC 99B3B160
     Track not present in AccurateRip database
     Copy OK

Track 12

     Filename C:\EAC Rips\[ANJCD045D] James Grant & Jody Wistenoff - Anjunadeep 07 (2015) [FLAC]\Disc 1\12. Glass Voices.wav

     Peak level 98.8 %
     Extraction speed 3.9 X
     Track quality 100.0 %
     Test CRC E6C7C851
     Copy CRC E6C7C851
     Track not present in AccurateRip database
     Copy OK

Track 13

     Filename C:\EAC Rips\[ANJCD045D] James Grant & Jody Wistenoff - Anjunadeep 07 (2015) [FLAC]\Disc 1\13. Twilight (John Monkman Remix).wav

     Peak level 98.8 %
     Extraction speed 4.2 X
     Track quality 100.0 %
     Test CRC 4CB797E6
     Copy CRC 4CB797E6
     Track not present in AccurateRip database
     Copy OK

Track 14

     Filename C:\EAC Rips\[ANJCD045D] James Grant & Jody Wistenoff - Anjunadeep 07 (2015) [FLAC]\Disc 1\14. Stardust.wav

     Peak level 98.8 %
     Extraction speed 4.4 X
     Track quality 100.0 %
     Test CRC 09EEF357
     Copy CRC 09EEF357
     Track not present in AccurateRip database
     Copy OK

Track 15

     Filename C:\EAC Rips\[ANJCD045D] James Grant & Jody Wistenoff - Anjunadeep 07 (2015) [FLAC]\Disc 1\15. Wondering.wav

     Peak level 98.8 %
     Extraction speed 3.5 X
     Track quality 99.9 %
     Test CRC 699B01EE
     Copy CRC 699B01EE
     Track not present in AccurateRip database
     Copy OK

Track 16

     Filename C:\EAC Rips\[ANJCD045D] James Grant & Jody Wistenoff - Anjunadeep 07 (2015) [FLAC]\Disc 1\16. Prophets (Outro Edit).wav

     Peak level 97.6 %
     Extraction speed 3.9 X
     Track quality 100.0 %
     Test CRC C38C0509
     Copy CRC C38C0509
     Track not present in AccurateRip database
     Copy OK

None of the tracks are present in the AccurateRip database

No errors occurred

End of status report

---- CUETools DB Plugin V2.1.3

[CTDB TOCID: RHfdj6o.CRnFeeMk8UOtsjLXNFs-] found, Submit result: RHfdj6o.CRnFeeMk8UOtsjLXNFs- has been confirmed
[87670a0b] (5/5) Accurately ripped

==== Log checksum 6524961713A4401F07D2D944E6590BCFCB8B8E83F52B0E248073FA444153E334 ====
Код:
Код: Выделить всё
-----------------------

DON'T MODIFY THIS FILE

-----------------------

PERFORMER: auCDtect Task Manager, ver. 1.6.0 RC1 build 1.6.0.1
Copyright (c) 2008-2010 y-soft. All rights reserved
http:/y-soft.org

ANALYZER: auCDtect: CD records authenticity detector, version 0.8.2
Copyright (c) 2004 Oleg Berngardt. All rights reserved.
Copyright (c) 2004 Alexander Djourik. All rights reserved.

FILE: 16. Prophets (Outro Edit).flac
  Size: 12754570 Hash: 1E9E5F7D3395523F4F23A2023BCD4FE9 Accuracy: -m0
  Conclusion: CDDA 100%
  Signature: FF42BDDB22F45FF982C8A08F35F243B4D77F0BBA
FILE: 15. Wondering.flac
  Size: 37201706 Hash: E6A0C858DA77BDDA6FD68E76B88738A9 Accuracy: -m0
  Conclusion: CDDA 100%
  Signature: CCF8195A4DB27A8FA40E1476A0A8DB22B365AC97
FILE: 14. Stardust.flac
  Size: 39549674 Hash: 165F4D6B9648747EAD6650AE0085EBDA Accuracy: -m0
  Conclusion: CDDA 100%
  Signature: 9295674A44D2D6DED24E745A46476C39A5B890A5
FILE: 13. Twilight (John Monkman Remix).flac
  Size: 44691108 Hash: AF37740B0AF86CBFEE465798D8663133 Accuracy: -m0
  Conclusion: CDDA 100%
  Signature: 3E98F66DC9B4C6FC2953673242FDF6B7F4504402
FILE: 12. Glass Voices.flac
  Size: 29295730 Hash: E450262E393CDB249A85F1713CD67081 Accuracy: -m0
  Conclusion: CDDA 100%
  Signature: 6F5149DD9561F5790E60E783967059C9B60B4743
FILE: 11. Sediment.flac
  Size: 44076414 Hash: 24FBE647E1B18AA83705019F403A61A1 Accuracy: -m0
  Conclusion: CDDA 100%
  Signature: 1BF0614FC864CDC42D6A294300D1561C5F903134
FILE: 10. All About You (Seb Dhajje Remix).flac
  Size: 33934108 Hash: 7C2479A5FDAE421F508BD84DD98E447F Accuracy: -m0
  Conclusion: CDDA 100%
  Signature: 822065E5F700F732892D411DDE3266F6FB1DB0E5
FILE: 09. Love Left.flac
  Size: 45655042 Hash: E8BEAC26E3FCE068D49E54EB46E5E383 Accuracy: -m0
  Conclusion: CDDA 100%
  Signature: 0799560CAA9C68B940F781986DC268D7E90EE8EF
FILE: 08. Rise.flac
  Size: 45871674 Hash: 9197DEC182A09C74AA532F3DACF91C1D Accuracy: -m0
  Conclusion: CDDA 100%
  Signature: EA48250573904769A616B73599926AA2566CB25B
FILE: 07. Slowly.flac
  Size: 35410411 Hash: 37DB0846B1D65B5525F8F38A9E1E4041 Accuracy: -m0
  Conclusion: CDDA 100%
  Signature: B9DE521A93C308611D31E981BB840752BA67081E
FILE: 06. Dawn to Dusk.flac
  Size: 28641877 Hash: 0DBDCDCDAAC68ADF244EC609419DD57E Accuracy: -m0
  Conclusion: CDDA 99%
  Signature: D27491CFB5359E90E5D4D70570004CACE9956E3F
FILE: 05. Space Me Out (Jody Wisternoff & James Grant Edit).flac
  Size: 30657837 Hash: B299BDB9FC1E502C2D61CB63BE1C78AD Accuracy: -m0
  Conclusion: CDDA 100%
  Signature: 5D8104BEB1CD1C1307DE116B78B57DF66424E0AB
FILE: 04. Never Have, Never Will.flac
  Size: 15271441 Hash: F7274F05C063A8C84204FFAB65652F5D Accuracy: -m0
  Conclusion: CDDA 100%
  Signature: 932398ACD3CFC4319D1B488F842BC321BD8A2EA8
FILE: 03. More than Music.flac
  Size: 27180249 Hash: 2A2A2E4EEDFBA1E32BF73193A4EF8672 Accuracy: -m0
  Conclusion: CDDA 100%
  Signature: 1FF380671A0AB52425760CCAD5E76543A8576D08
FILE: 02. Miradors (Jody Wisternoff & James Grant Remix).flac
  Size: 29165908 Hash: CBE3A2B14F09EF96366A7C217427111E Accuracy: -m0
  Conclusion: CDDA 100%
  Signature: EE9F41FA55A066D4002921C1FF0EA3ACE8245608
FILE: 01. Passage.flac
  Size: 12358403 Hash: 170E7CED77E89BD0D5254F57801C632C Accuracy: -m0
  Conclusion: CDDA 100%
  Signature: 02FE6D8D24218C47550C2218AE2CD8D381DE7080
Код:
Код: Выделить всё
REM GENRE Electronic
REM DATE 2015
REM DISCID CF122B10
REM COMMENT "ExactAudioCopy v1.0b3"
CATALOG 5039060232125
PERFORMER "Jody Wisternoff & James Grant"
TITLE "Anjunadeep07"
FILE "01. Passage.wav" WAVE
  TRACK 01 AUDIO
    TITLE "Passage"
    PERFORMER "Esteble"
    INDEX 01 00:00:00
FILE "02. Miradors (Jody Wisternoff & James Grant Remix).wav" WAVE
  TRACK 02 AUDIO
    TITLE "Miradors (Jody Wisternoff & James Grant Remix)"
    PERFORMER "Solomon Grey"
    INDEX 01 00:00:00
FILE "03. More than Music.wav" WAVE
  TRACK 03 AUDIO
    TITLE "More than Music"
    PERFORMER "16 Bit Lolitas feat. Lucy Iris"
    INDEX 01 00:00:00
FILE "04. Never Have, Never Will.wav" WAVE
  TRACK 04 AUDIO
    TITLE "Never Have, Never Will"
    PERFORMER "DEMS"
    INDEX 01 00:00:00
FILE "05. Space Me Out (Jody Wisternoff & James Grant Edit).wav" WAVE
  TRACK 05 AUDIO
    TITLE "Space Me Out (Jody Wisternoff & James Grant Edit)"
    PERFORMER "Downtown Party Network"
    INDEX 01 00:00:00
FILE "06. Dawn to Dusk.wav" WAVE
  TRACK 06 AUDIO
    TITLE "Dawn to Dusk"
    PERFORMER "Thomas Schwartz &  Fausto Fanizza"
    INDEX 01 00:00:00
FILE "07. Slowly.wav" WAVE
  TRACK 07 AUDIO
    TITLE "Slowly"
    PERFORMER "Yotto"
    INDEX 01 00:00:00
FILE "08. Rise.wav" WAVE
  TRACK 08 AUDIO
    TITLE "Rise"
    PERFORMER "Lane 8"
    INDEX 01 00:00:00
FILE "09. Love Left.wav" WAVE
  TRACK 09 AUDIO
    TITLE "Love Left"
    PERFORMER "16 Bit Lolitas"
    INDEX 01 00:00:00
FILE "10. All About You (Seb Dhajje Remix).wav" WAVE
  TRACK 10 AUDIO
    TITLE "All About You (Seb Dhajje Remix)"
    PERFORMER "Vincenzo & Florian Kruse feat. Lisa Shaw"
    INDEX 01 00:00:00
FILE "11. Sediment.wav" WAVE
  TRACK 11 AUDIO
    TITLE "Sediment"
    PERFORMER "16 Bit Lolitas"
    INDEX 01 00:00:00
FILE "12. Glass Voices.wav" WAVE
  TRACK 12 AUDIO
    TITLE "Glass Voices"
    PERFORMER "Lancelot feat. Laura Jae"
    INDEX 01 00:00:00
FILE "13. Twilight (John Monkman Remix).wav" WAVE
  TRACK 13 AUDIO
    TITLE "Twilight (John Monkman Remix)"
    PERFORMER "Solomon Grey"
    INDEX 01 00:00:00
FILE "14. Stardust.wav" WAVE
  TRACK 14 AUDIO
    TITLE "Stardust"
    PERFORMER "16 Bit Lolitas feat. Lucy Iris"
    INDEX 01 00:00:00
FILE "15. Wondering.wav" WAVE
  TRACK 15 AUDIO
    TITLE "Wondering"
    PERFORMER "Yotto feat. CAPS"
    INDEX 01 00:00:00
FILE "16. Prophets (Outro Edit).wav" WAVE
  TRACK 16 AUDIO
    TITLE "Prophets (Outro Edit)"
    PERFORMER "Kahwe"
    INDEX 01 00:00:00
Продoлжительность: 01:19:23
Трeклист:
01. Croquet Club – Go Slow (3:55)
02. Ryan Davis – Burn (3:02)
03. Cubicolor – Enigma (5:56)
04. Martin Roth – Have You Ever (4:25)
05. Universal Solution – Cordoba (5:07)
06. 16 Bit Lolitas – Not The Only One (Anjunadeep 07 Mix) (5:20)
07. Dave DK – Whitehill (feat. Piper Davis) (3:26)
08. Maribou State – Rituals (MS Edit) (4:02)
09. Matthias Vogt – Seven Summits (4:53)
10. Lancelot – Mover (4:29)
11. DEMS – Made For Myself (Jody Wisternoff & James Grant Remix) (5:02)
12. Moon Boots – Red Sky (4:30)
13. Jody Wisternoff – The Bridge (Anjunadeep 07 Mix) (feat. Sian Evans) (6:50)
14. Meramek – Know Me (5:12)
15. Way Out West – Tuesday Maybe (6:46)
16. Dusky – Skin Deep (Global Communication Remix) (6:28)
Код:
Код: Выделить всё
Exact Audio Copy V1.0 beta 3 from 29. August 2011

EAC extraction logfile from 20. September 2015, 1:06

Jody Wisternoff & James Gratn / Anjunadeep 07

Used drive  : ASUS    DRW-24B1ST   c   Adapter: 5  ID: 0

Read mode               : Secure
Utilize accurate stream : Yes
Defeat audio cache      : Yes
Make use of C2 pointers : No

Read offset correction                      : 6
Overread into Lead-In and Lead-Out          : No
Fill up missing offset samples with silence : Yes
Delete leading and trailing silent blocks   : No
Null samples used in CRC calculations       : Yes
Used interface                              : Native Win32 interface for Win NT & 2000
Gap handling                                : Appended to previous track

Used output format              : User Defined Encoder
Selected bitrate                : 1024 kBit/s
Quality                         : High
Add ID3 tag                     : No
Command line compressor         : C:\Program Files (x86)\FLAC\flac.exe
Additional command line options :  -8 -V -T "ARTIST=%artist%" -T "TITLE=%title%" -T "ALBUM=%albumtitle%" -T "DATE=%year%" -T "TRACKNUMBER=%tracknr%" -T "GENRE=%genre%" -T "PERFORMER=%albuminterpret%" -T "COMPOSER=%composer%" %haslyrics%--tag-from-file=LYRICS="%lyricsfile%"%haslyrics% -T "ALBUMARTIST=%albumartist%" -T "DISCNUMBER=%cdnumber%" -T "TOTALDISCS=%totalcds%" -T "TOTALTRACKS=%numtracks%" -T "COMMENT=%comment%" %source% -o %dest%

TOC of the extracted CD

     Track |   Start  |  Length  | Start sector | End sector
    ---------------------------------------------------------
        1  |  0:00.00 |  3:54.48 |         0    |    17597
        2  |  3:54.48 |  3:02.01 |     17598    |    31248
        3  |  6:56.49 |  5:55.63 |     31249    |    57936
        4  | 12:52.37 |  4:24.46 |     57937    |    77782
        5  | 17:17.08 |  5:06.48 |     77783    |   100780
        6  | 22:23.56 |  5:19.70 |    100781    |   124775
        7  | 27:43.51 |  3:26.19 |    124776    |   140244
        8  | 31:09.70 |  4:02.00 |    140245    |   158394
        9  | 35:11.70 |  4:53.35 |    158395    |   180404
       10  | 40:05.30 |  4:29.27 |    180405    |   200606
       11  | 44:34.57 |  5:01.74 |    200607    |   223255
       12  | 49:36.56 |  4:29.73 |    223256    |   243503
       13  | 54:06.54 |  6:50.18 |    243504    |   274271
       14  | 60:56.72 |  5:12.17 |    274272    |   297688
       15  | 66:09.14 |  6:45.63 |    297689    |   328126
       16  | 72:55.02 |  6:28.03 |    328127    |   357229

Track  1

     Filename C:\EAC Rips\[ANJCD045D] James Grant & Jody Wistenoff - Anjunadeep 07 (2015) [FLAC]\Disc 2\01. Go Slow.wav

     Pre-gap length  0:00:02.00

     Peak level 99.9 %
     Extraction speed 5.7 X
     Track quality 100.0 %
     Test CRC F841D214
     Copy CRC F841D214
     Track not present in AccurateRip database
     Copy OK

Track  2

     Filename C:\EAC Rips\[ANJCD045D] James Grant & Jody Wistenoff - Anjunadeep 07 (2015) [FLAC]\Disc 2\02. Brun.wav

     Peak level 99.9 %
     Extraction speed 5.9 X
     Track quality 100.0 %
     Test CRC 60148983
     Copy CRC 60148983
     Track not present in AccurateRip database
     Copy OK

Track  3

     Filename C:\EAC Rips\[ANJCD045D] James Grant & Jody Wistenoff - Anjunadeep 07 (2015) [FLAC]\Disc 2\03. Enigma.wav

     Peak level 99.9 %
     Extraction speed 7.0 X
     Track quality 100.0 %
     Test CRC B0901AF6
     Copy CRC B0901AF6
     Track not present in AccurateRip database
     Copy OK

Track  4

     Filename C:\EAC Rips\[ANJCD045D] James Grant & Jody Wistenoff - Anjunadeep 07 (2015) [FLAC]\Disc 2\04. Have You Ever.wav

     Peak level 99.9 %
     Extraction speed 6.1 X
     Track quality 99.9 %
     Test CRC D72A6968
     Copy CRC D72A6968
     Track not present in AccurateRip database
     Copy OK

Track  5

     Filename C:\EAC Rips\[ANJCD045D] James Grant & Jody Wistenoff - Anjunadeep 07 (2015) [FLAC]\Disc 2\05. Cordoba.wav

     Peak level 99.9 %
     Extraction speed 7.9 X
     Track quality 100.0 %
     Test CRC 28437259
     Copy CRC 28437259
     Track not present in AccurateRip database
     Copy OK

Track  6

     Filename C:\EAC Rips\[ANJCD045D] James Grant & Jody Wistenoff - Anjunadeep 07 (2015) [FLAC]\Disc 2\06. Not The Only One (Anjunadeep 07 Mix).wav

     Peak level 99.9 %
     Extraction speed 8.4 X
     Track quality 100.0 %
     Test CRC C7674FEB
     Copy CRC C7674FEB
     Track not present in AccurateRip database
     Copy OK

Track  7

     Filename C:\EAC Rips\[ANJCD045D] James Grant & Jody Wistenoff - Anjunadeep 07 (2015) [FLAC]\Disc 2\07. Whitehill.wav

     Peak level 99.9 %
     Extraction speed 8.3 X
     Track quality 100.0 %
     Test CRC A7DFCD82
     Copy CRC A7DFCD82
     Track not present in AccurateRip database
     Copy OK

Track  8

     Filename C:\EAC Rips\[ANJCD045D] James Grant & Jody Wistenoff - Anjunadeep 07 (2015) [FLAC]\Disc 2\08. Rituals (MS Edit).wav

     Peak level 99.9 %
     Extraction speed 7.1 X
     Track quality 99.9 %
     Test CRC 7D467EC5
     Copy CRC 7D467EC5
     Track not present in AccurateRip database
     Copy OK

Track  9

     Filename C:\EAC Rips\[ANJCD045D] James Grant & Jody Wistenoff - Anjunadeep 07 (2015) [FLAC]\Disc 2\09. Seven Summits.wav

     Peak level 99.9 %
     Extraction speed 7.9 X
     Track quality 99.9 %
     Test CRC D54D1280
     Copy CRC D54D1280
     Track not present in AccurateRip database
     Copy OK

Track 10

     Filename C:\EAC Rips\[ANJCD045D] James Grant & Jody Wistenoff - Anjunadeep 07 (2015) [FLAC]\Disc 2\10. Mover.wav

     Peak level 99.9 %
     Extraction speed 9.8 X
     Track quality 100.0 %
     Test CRC 8DAD6899
     Copy CRC 8DAD6899
     Track not present in AccurateRip database
     Copy OK

Track 11

     Filename C:\EAC Rips\[ANJCD045D] James Grant & Jody Wistenoff - Anjunadeep 07 (2015) [FLAC]\Disc 2\11. Made For Myself (Jody Wisternoff & James Grant Remix).wav

     Peak level 99.9 %
     Extraction speed 10.3 X
     Track quality 100.0 %
     Test CRC 357F5823
     Copy CRC 357F5823
     Track not present in AccurateRip database
     Copy OK

Track 12

     Filename C:\EAC Rips\[ANJCD045D] James Grant & Jody Wistenoff - Anjunadeep 07 (2015) [FLAC]\Disc 2\12. Red Sky.wav

     Peak level 99.9 %
     Extraction speed 10.5 X
     Track quality 100.0 %
     Test CRC 8E55CF65
     Copy CRC 8E55CF65
     Track not present in AccurateRip database
     Copy OK

Track 13

     Filename C:\EAC Rips\[ANJCD045D] James Grant & Jody Wistenoff - Anjunadeep 07 (2015) [FLAC]\Disc 2\13. The Bridge (Anjunadeep 07 Mix).wav

     Peak level 99.9 %
     Extraction speed 11.4 X
     Track quality 100.0 %
     Test CRC 7BD61704
     Copy CRC 7BD61704
     Track not present in AccurateRip database
     Copy OK

Track 14

     Filename C:\EAC Rips\[ANJCD045D] James Grant & Jody Wistenoff - Anjunadeep 07 (2015) [FLAC]\Disc 2\14. Know Me.wav

     Peak level 99.9 %
     Extraction speed 2.7 X
     Track quality 99.5 %
     Test CRC EAED74BC
     Copy CRC EAED74BC
     Track not present in AccurateRip database
     Copy OK

Track 15

     Filename C:\EAC Rips\[ANJCD045D] James Grant & Jody Wistenoff - Anjunadeep 07 (2015) [FLAC]\Disc 2\15. Tuesday Maybe.wav

     Peak level 99.9 %
     Extraction speed 5.4 X
     Track quality 99.9 %
     Test CRC DA00BEDC
     Copy CRC DA00BEDC
     Track not present in AccurateRip database
     Copy OK

Track 16

     Filename C:\EAC Rips\[ANJCD045D] James Grant & Jody Wistenoff - Anjunadeep 07 (2015) [FLAC]\Disc 2\16. Skin Deep (Global Communication Remix).wav

     Peak level 99.9 %
     Extraction speed 2.2 X
     Track quality 99.6 %
     Test CRC 524A7DA6
     Copy CRC 524A7DA6
     Track not present in AccurateRip database
     Copy OK

None of the tracks are present in the AccurateRip database

No errors occurred

End of status report

---- CUETools DB Plugin V2.1.3

[CTDB TOCID: WJZHMz7yBxAPgNKFldqRHXMxSFo-] found, Submit result: WJZHMz7yBxAPgNKFldqRHXMxSFo- has been confirmed
[26e582cf] (5/5) Accurately ripped

==== Log checksum 4F07DBC22B9470BE84DC52B767CEAA961E2D91A014189813759DE1162A1974C1 ====
Код:
Код: Выделить всё
-----------------------

DON'T MODIFY THIS FILE

-----------------------

PERFORMER: auCDtect Task Manager, ver. 1.6.0 RC1 build 1.6.0.1
Copyright (c) 2008-2010 y-soft. All rights reserved
http:/y-soft.org

ANALYZER: auCDtect: CD records authenticity detector, version 0.8.2
Copyright (c) 2004 Oleg Berngardt. All rights reserved.
Copyright (c) 2004 Alexander Djourik. All rights reserved.

FILE: 16. Skin Deep (Global Communication Remix).flac
  Size: 37843984 Hash: F0D409FF03D826BA3C945FE9079EF081 Accuracy: -m0
  Conclusion: CDDA 100%
  Signature: 296539406CEFFEFC78EA620E67FD1A38C7E0C7BC
FILE: 15. Tuesday Maybe.flac
  Size: 47360599 Hash: BF11E4BF7CB132A46F1A801F90668C6D Accuracy: -m0
  Conclusion: CDDA 99%
  Signature: D48CB447F57BDF74374787D2B2C976928AAEB80D
FILE: 14. Know Me.flac
  Size: 37984756 Hash: 7A8B3D2F815FC80E0AB78646A1E26FC7 Accuracy: -m0
  Conclusion: CDDA 100%
  Signature: 3772EF654E5171F3C1EAED62F5D3133483B2457F
FILE: 13. The Bridge (Anjunadeep 07 Mix).flac
  Size: 50086096 Hash: A1CB66860C63F3B7FE7ECF44FF90148C Accuracy: -m0
  Conclusion: CDDA 100%
  Signature: 0510CCB008C725E7BBB126C45352CFAD2BA79159
FILE: 12. Red Sky.flac
  Size: 28429208 Hash: E7B6B6CD57C4BE1FC6321E2ECD7CEDF0 Accuracy: -m0
  Conclusion: CDDA 100%
  Signature: 1634FD02E2805316A52646F1AA827CAB70564945
FILE: 11. Made For Myself (Jody Wisternoff & James Grant Remix).flac
  Size: 33882866 Hash: 8D08B75E8F397A3DA6A043159E82A258 Accuracy: -m0
  Conclusion: CDDA 100%
  Signature: 350EE6383A369F826E450B5A09A86000DC173E33
FILE: 10. Mover.flac
  Size: 29506239 Hash: 70C60E87DCBAC6FB7494B438C819B4A4 Accuracy: -m0
  Conclusion: CDDA 100%
  Signature: A2C01EC99AF63D218085E64CD3301E5CCFEEFC29
FILE: 09. Seven Summits.flac
  Size: 29119158 Hash: E8126B1B5FE770859BC71A0262EF7678 Accuracy: -m0
  Conclusion: CDDA 99%
  Signature: 739CC314EA066A1B61C822DAE6DE5146B50B3004
FILE: 08. Rituals (MS Edit).flac
  Size: 27980564 Hash: CF8E3BEC476B24F182C5B19BE9D78D2B Accuracy: -m0
  Conclusion: CDDA 100%
  Signature: C81D38172B97D1C3E8705EE11FD1BC044F64C56B
FILE: 07. Whitehill.flac
  Size: 25692049 Hash: 388BE06C33B5249AD3D94C6C65A7172C Accuracy: -m0
  Conclusion: CDDA 100%
  Signature: AEE60E24401C67222146A73524DDCCE469D5006E
FILE: 06. Not The Only One (Anjunadeep 07 Mix).flac
  Size: 32939453 Hash: 1F9D373B417BF6239F13527A5AD98732 Accuracy: -m0
  Conclusion: CDDA 99%
  Signature: 5ECA9DB3D6B75F138A4B1A7928D1EBC20FABD029
FILE: 05. Cordoba.flac
  Size: 36032628 Hash: 12A502D4EBA1FBBC45915768730AB71B Accuracy: -m0
  Conclusion: CDDA 100%
  Signature: EA443D90C6AC2C215492D2B0531F9A6DA033DEDC
FILE: 04. Have You Ever.flac
  Size: 32356240 Hash: 8DD3362C54B06FEA2A158CDC9741A02A Accuracy: -m0
  Conclusion: CDDA 100%
  Signature: FE767025258C1802EAE570DF1ACADC8586401B0C
FILE: 03. Enigma.flac
  Size: 40411120 Hash: 1E3D98A38E0F3E4A9C1AF94A35B7FDD6 Accuracy: -m0
  Conclusion: CDDA 100%
  Signature: 30E205F36C04740F78E74B24113F3A8A42EE0660
FILE: 02. Brun.flac
  Size: 18795757 Hash: 0653F0D9AF0CF18C39E8E581A1FFAA7F Accuracy: -m0
  Conclusion: CDDA 100%
  Signature: 54E8F0DE92F50E2384790B75DC771405AA712958
FILE: 01. Go Slow.flac
  Size: 19322758 Hash: AFF7703DD9201402BBE3053F66C60022 Accuracy: -m0
  Conclusion: CDDA 100%
  Signature: 982B655F4219375F99437A098A29CD277FD5061E
Код:
Код: Выделить всё
REM GENRE Electronic
REM DATE 2015
REM DISCID FC129B10
REM COMMENT "ExactAudioCopy v1.0b3"
CATALOG 5039060232125
PERFORMER "Jody Wisternoff & James Gratn"
TITLE "Anjunadeep 07"
FILE "01. Go Slow.wav" WAVE
  TRACK 01 AUDIO
    TITLE "Go Slow"
    PERFORMER "Croquet Club"
    INDEX 01 00:00:00
FILE "02. Brun.wav" WAVE
  TRACK 02 AUDIO
    TITLE "Brun"
    PERFORMER "Ryan Davis"
    INDEX 01 00:00:00
FILE "03. Enigma.wav" WAVE
  TRACK 03 AUDIO
    TITLE "Enigma"
    PERFORMER "Cubicolor"
    INDEX 01 00:00:00
FILE "04. Have You Ever.wav" WAVE
  TRACK 04 AUDIO
    TITLE "Have You Ever"
    PERFORMER "Martin Roth"
    INDEX 01 00:00:00
FILE "05. Cordoba.wav" WAVE
  TRACK 05 AUDIO
    TITLE "Cordoba"
    PERFORMER "Universal Solution"
    INDEX 01 00:00:00
FILE "06. Not The Only One (Anjunadeep 07 Mix).wav" WAVE
  TRACK 06 AUDIO
    TITLE "Not The Only One (Anjunadeep 07 Mix)"
    PERFORMER "16 Bit Lolitas"
    INDEX 01 00:00:00
FILE "07. Whitehill.wav" WAVE
  TRACK 07 AUDIO
    TITLE "Whitehill"
    PERFORMER "Dave DK feat. Piper Davis"
    INDEX 01 00:00:00
FILE "08. Rituals (MS Edit).wav" WAVE
  TRACK 08 AUDIO
    TITLE "Rituals (MS Edit)"
    PERFORMER "Maribou State"
    INDEX 01 00:00:00
FILE "09. Seven Summits.wav" WAVE
  TRACK 09 AUDIO
    TITLE "Seven Summits"
    PERFORMER "Matthias Vogt"
    INDEX 01 00:00:00
FILE "10. Mover.wav" WAVE
  TRACK 10 AUDIO
    TITLE "Mover"
    PERFORMER "Lancelot"
    INDEX 01 00:00:00
FILE "11. Made For Myself (Jody Wisternoff & James Grant Remix).wav" WAVE
  TRACK 11 AUDIO
    TITLE "Made For Myself (Jody Wisternoff & James Grant Remix)"
    PERFORMER "DEMS"
    INDEX 01 00:00:00
FILE "12. Red Sky.wav" WAVE
  TRACK 12 AUDIO
    TITLE "Red Sky"
    PERFORMER "Moon Boots"
    INDEX 01 00:00:00
FILE "13. The Bridge (Anjunadeep 07 Mix).wav" WAVE
  TRACK 13 AUDIO
    TITLE "The Bridge (Anjunadeep 07 Mix)"
    PERFORMER "Jody Wisternoff feat. Sian Evans"
    INDEX 01 00:00:00
FILE "14. Know Me.wav" WAVE
  TRACK 14 AUDIO
    TITLE "Know Me"
    PERFORMER "Meramek"
    INDEX 01 00:00:00
FILE "15. Tuesday Maybe.wav" WAVE
  TRACK 15 AUDIO
    TITLE "Tuesday Maybe"
    PERFORMER "Way Out West"
    INDEX 01 00:00:00
FILE "16. Skin Deep (Global Communication Remix).wav" WAVE
  TRACK 16 AUDIO
    TITLE "Skin Deep (Global Communication Remix)"
    PERFORMER "Dusky"
    INDEX 01 00:00:00
Время раздачи: с 9-00 до 23-00 (по Москве)
Оформлено с помощью: Быстрое оформление релиза в разделе "Музыка".
 
Не забывайте говорить Спасибо. Не уходите с раздачи!   
Торрент: Зарегистрирован [28 дек 2015, 03:47] Скачать торрент
Скачать торрент
[ Размер 22.54 КБ / Просмотров 33 ]
Статус:
Проверен
 
.torrent скачан: 2 раз
Хэш: 60a0503a116bb07ecabea41dfb295fb9252b2697
Размер: 991.57 МБ (1 039 732 542 байт)
Стать Автором раздачи
 
 
Раздал: 0 байт
Скачал: 0 байт
Ратио: Inf.
Сообщения: 188877
Зарегистрирован: 14 июн 2014, 20:46


  • Похожие торренты
    Ответы
    Просмотры
    Последнее сообщение

Вернуться в House, Techno, Electro, Minimal (транзит Lossless)

Ресурс не предоставляет электронные версии произведений, а занимается лишь коллекционированием и каталогизацией ссылок, присылаемых и публикуемых на форуме нашими читателями. Если вы являетесь правообладателем какого-либо представленного материала и не желаете чтобы ссылка на него находилась в нашем каталоге, свяжитесь с нами и мы незамедлительно удалим её. Файлы для обмена на трекере предоставлены пользователями сайта, и администрация не несёт ответственности за их содержание. Просьба не заливать файлы, защищенные авторскими правами, а также файлы нелегального содержания!
cron