VA - Зимний марафон № 215: Новогоднее Веселье (2015) WEBRip [H.264/1080p-LQ]

 
 Статистика раздачи 
Размер: 2.95 ГБ   |  Зарегистрирован: 27 дек 2015, 06:13   |   .torrent скачан: 0 раз
Сидеров: 1  [ 0 байт/сек ]     Личеров: 0  [ 0 байт/сек ]  
  

VA - Зимний марафон № 215: Новогоднее Веселье (2015) WEBRip [H.264/1080p-LQ]

Сообщение Seepas » 27 дек 2015, 06:13

VA - Зимний марафон № 215: Новогоднее Веселье (2015) WEBRip

Жанр: Pop, Dance, Electronic

Описание:
Зимние (26.12.2015) поп. новинки зарубежной и русской эстрады. Не пропустите, держите новые треки.
В этом сборнике, Вашему вниманию предоставлены только Новогодние видео клипы.

Кол-во клипов: 25
Продолжительность: 01:26:22
Качество видео: WEBRip

Видео: AVC/H.264, 1920x1080 (16:9), 25.000 fps, ~ 4780 kbps
Аудио: AAC, 2 ch, 111 - 152 Kbps avg, VBR
Треклист:
01. A`Studio — «Две половинки» (Новый год 2015 на РТР) (Новогодний клип!) (00:03:04)
02. Ariana Grande - Santa Tell Me (Новогодний клип!) (00:05:41)
03. Artur Mazzakyan ft. Vlad2k - Новогодняя (Новогодний клип!) (00:03:22)
04. Boulev4rd - Weekend (Official Video) (Новогодний клип!) (00:02:57)
05. DJ Fenix ft. Маша Кольцова - Зимняя (Новогодний клип!) (00:03:16)
06. Seal - This Christmas (Новогодний клип!) (00:03:26)
07. Джам Булатов и Алим Урусов - Новогодняя (Новогодний клип!) (00:03:35)
08. Диана Шарапова и Сергей Зверев - Новогодний Бал (Новогодний клип!) (00:05:04)
09. Игорь Николаев и Юлия Проскурякова - Новый год без тебя (Новогодний клип!) (00:02:36)
10. Илья Гуров - Новогодняя (автор-исполнитель) (Новогодний клип!) (00:03:10)
11. Катерина Красильникова и Александр Рипчанский - Новогодняя сказка (Новогодний клип!) (00:03:33)
12. Колдстрим - Пока не тает снег (Новогодний клип!) (00:03:00)
13. Лера Массква - Навсегда (Новогодний клип!) (00:03:13)
14. Лера Туманова - Новогодняя (Новогодний клип!) (00:03:08)
15. Мармелад шоу группа - Новый год (Новогодний клип!) (00:03:22)
16. Меломаны - Новогодняя (Новогодний клип!) (00:04:13)
17. Миша ТаланТ и StoDva ft. Saiton - Новогодняя (Новогодний клип!) (00:03:42)
18. Нюша - Это Новый Год (Новогодний клип!) (00:03:35)
19. Олег Яковлев - Новогодняя (Новогодний клип!) (00:03:17)
20. Ольга Маковецкая - Снег (Новогодний клип!) (00:03:50)
21. Пающие трусы - Новогодняя (ничего не помню.) (Новогодний клип!) (00:03:28)
22. Руки Вверх - Я тебя люблю (Новогодний Club Mix) (00:05:00)
23. Секрет - На любой стороне Земли (OST Ёлки 3) (Новогодний клип!) (00:03:26)
24. Фристайл и Сергей Кузнецов ft. Нина Кирсо - Белая вьюга (Новогодний клип!) (00:03:51)
25. Шахзода - Моё чудо (Новогодний клип!) (00:03:33)
Код:
Код: Выделить всё
Общее
Полное имя                               : E:\VA - Зимний марафон № 215 (Новогоднее Веселье)\01. A`Studio — «Две половинки» (Новый год 2015 на РТР) (Новогодний клип!).mp4
Формат                                   : MPEG-4
Профиль формата                          : Base Media
Идентификатор кодека                     : isom
Размер файла                             : 102 Мбайт
Продолжительность                        : 3 м. 4 с.
Режим общего битрейта                    : Переменный
Общий поток                              : 4614 Кбит/сек
Дата кодирования                         : UTC 2015-04-04 04:42:40
Дата пометки                             : UTC 2015-04-04 04:42:40
Программа кодирования                    : Lavf54.63.104

Видео
Идентификатор                            : 1
Формат                                   : AVC
Формат/Информация                        : Advanced Video Codec
Профиль формата                          : Main@L4
Параметр CABAC формата                   : Да
Параметр ReFrames формата                : 1 кадр
Идентификатор кодека                     : avc1
Идентификатор кодека/Информация          : Advanced Video Coding
Продолжительность                        : 3 м. 4 с.
Битрейт                                  : 4496 Кбит/сек
Ширина                                   : 1920 пикселей
Высота                                   : 1080 пикселей
Соотношение сторон                       : 16:9
Режим частоты кадров                     : Постоянный
Частота кадров                           : 25,000 кадров/сек
Цветовое пространство                    : YUV
Субдискретизация насыщенности            : 4:2:0
Битовая глубина                          : 8 бит
Тип развёртки                            : Прогрессивная
Бит/(Пиксели*Кадры)                      : 0.087
Размер потока                            : 98,2 Мбайт (97%)
Библиотека кодирования                   : x264 core 129
Настройки программы                      : cabac=1 / ref=1 / deblock=1:0:0 / analyse=0x1:0x131 / me=dia / subme=2 / psy=1 / psy_rd=1.00:0.00 / mixed_ref=0 / me_range=16 / chroma_me=1 / trellis=0 / 8x8dct=0 / cqm=0 / deadzone=21,11 / fast_pskip=1 / chroma_qp_offset=0 / threads=2 / lookahead_threads=1 / sliced_threads=0 / nr=0 / decimate=1 / interlaced=0 / bluray_compat=0 / constrained_intra=0 / bframes=0 / weightp=2 / keyint=250 / keyint_min=25 / scenecut=40 / intra_refresh=0 / rc_lookahead=40 / rc=abr / mbtree=1 / bitrate=4496 / ratetol=1.0 / qcomp=0.60 / qpmin=10 / qpmax=51 / qpstep=4 / ip_ratio=1.41 / aq=1:1.00
Дата кодирования                         : UTC 2015-04-04 04:42:40
Дата пометки                             : UTC 2015-04-04 04:42:40

Аудио
Идентификатор                            : 2
Формат                                   : AAC
Формат/Информация                        : Advanced Audio Codec
Профиль формата                          : LC
Идентификатор кодека                     : 40
Продолжительность                        : 3 м. 4 с.
Duration_FirstFrame                      : 70 мс.
Вид битрейта                             : Переменный
Битрейт                                  : 152 Кбит/сек
Максимальный битрейт                     : 176 Кбит/сек
Каналы                                   : 2 канала
Расположение каналов                     : Front: L R
Частота                                  : 44,1 КГц
Метод сжатия                             : С потерями
Размер потока                            : 3,35 Мбайт (3%)
Дата кодирования                         : UTC 2015-04-04 04:42:40
Дата пометки                             : UTC 2015-04-04 04:42:40
Общее
Полное имя                               : E:\VA - Зимний марафон № 215 (Новогоднее Веселье)\02. Ariana Grande - Santa Tell Me (Новогодний клип!).mp4
Формат                                   : MPEG-4
Профиль формата                          : Base Media
Идентификатор кодека                     : isom
Размер файла                             : 185 Мбайт
Продолжительность                        : 5 м. 41 с.
Режим общего битрейта                    : Переменный
Общий поток                              : 4547 Кбит/сек
Дата кодирования                         : UTC 2015-04-20 10:32:20
Дата пометки                             : UTC 2015-04-20 10:32:20
Программа кодирования                    : Lavf54.63.104

Видео
Идентификатор                            : 1
Формат                                   : AVC
Формат/Информация                        : Advanced Video Codec
Профиль формата                          : Main@L4
Параметр CABAC формата                   : Да
Параметр ReFrames формата                : 1 кадр
Идентификатор кодека                     : avc1
Идентификатор кодека/Информация          : Advanced Video Coding
Продолжительность                        : 5 м. 41 с.
Битрейт                                  : 4496 Кбит/сек
Ширина                                   : 1920 пикселей
Высота                                   : 1080 пикселей
Соотношение сторон                       : 16:9
Режим частоты кадров                     : Постоянный
Частота кадров                           : 25,000 кадров/сек
Цветовое пространство                    : YUV
Субдискретизация насыщенности            : 4:2:0
Битовая глубина                          : 8 бит
Тип развёртки                            : Прогрессивная
Бит/(Пиксели*Кадры)                      : 0.087
Размер потока                            : 180 Мбайт (97%)
Библиотека кодирования                   : x264 core 129
Настройки программы                      : cabac=1 / ref=1 / deblock=1:0:0 / analyse=0x1:0x131 / me=dia / subme=2 / psy=1 / psy_rd=1.00:0.00 / mixed_ref=0 / me_range=16 / chroma_me=1 / trellis=0 / 8x8dct=0 / cqm=0 / deadzone=21,11 / fast_pskip=1 / chroma_qp_offset=0 / threads=2 / lookahead_threads=1 / sliced_threads=0 / nr=0 / decimate=1 / interlaced=0 / bluray_compat=0 / constrained_intra=0 / bframes=0 / weightp=2 / keyint=250 / keyint_min=25 / scenecut=40 / intra_refresh=0 / rc_lookahead=40 / rc=abr / mbtree=1 / bitrate=4496 / ratetol=1.0 / qcomp=0.60 / qpmin=10 / qpmax=51 / qpstep=4 / ip_ratio=1.41 / aq=1:1.00
Дата кодирования                         : UTC 2015-04-20 10:32:20
Дата пометки                             : UTC 2015-04-20 10:32:20

Аудио
Идентификатор                            : 2
Формат                                   : AAC
Формат/Информация                        : Advanced Audio Codec
Профиль формата                          : LC
Идентификатор кодека                     : 40
Продолжительность                        : 5 м. 41 с.
Duration_FirstFrame                      : 70 мс.
Вид битрейта                             : Переменный
Битрейт                                  : 132 Кбит/сек
Максимальный битрейт                     : 176 Кбит/сек
Каналы                                   : 2 канала
Расположение каналов                     : Front: L R
Частота                                  : 44,1 КГц
Метод сжатия                             : С потерями
Размер потока                            : 5,31 Мбайт (3%)
Дата кодирования                         : UTC 2015-04-20 10:32:20
Дата пометки                             : UTC 2015-04-20 10:32:20
Общее
Полное имя                               : E:\VA - Зимний марафон № 215 (Новогоднее Веселье)\03. Artur Mazzakyan ft. Vlad2k - Новогодняя (Новогодний клип!).mp4
Формат                                   : MPEG-4
Профиль формата                          : Base Media
Идентификатор кодека                     : isom
Размер файла                             : 95,3 Мбайт
Продолжительность                        : 3 м. 22 с.
Режим общего битрейта                    : Переменный
Общий поток                              : 3943 Кбит/сек
Дата кодирования                         : UTC 2015-01-14 06:05:44
Дата пометки                             : UTC 2015-01-14 06:05:44
Программа кодирования                    : Lavf54.63.104

Видео
Идентификатор                            : 1
Формат                                   : AVC
Формат/Информация                        : Advanced Video Codec
Профиль формата                          : Main@L4
Параметр CABAC формата                   : Да
Параметр ReFrames формата                : 1 кадр
Идентификатор кодека                     : avc1
Идентификатор кодека/Информация          : Advanced Video Coding
Продолжительность                        : 3 м. 22 с.
Битрейт                                  : 3786 Кбит/сек
Номинальный битрейт                      : 4496 Кбит/сек
Ширина                                   : 1920 пикселей
Высота                                   : 1080 пикселей
Соотношение сторон                       : 16:9
Режим частоты кадров                     : Постоянный
Частота кадров                           : 25,000 кадров/сек
Цветовое пространство                    : YUV
Субдискретизация насыщенности            : 4:2:0
Битовая глубина                          : 8 бит
Тип развёртки                            : Прогрессивная
Бит/(Пиксели*Кадры)                      : 0.073
Размер потока                            : 91,5 Мбайт (96%)
Библиотека кодирования                   : x264 core 129
Настройки программы                      : cabac=1 / ref=1 / deblock=1:0:0 / analyse=0x1:0x131 / me=dia / subme=2 / psy=1 / psy_rd=1.00:0.00 / mixed_ref=0 / me_range=16 / chroma_me=1 / trellis=0 / 8x8dct=0 / cqm=0 / deadzone=21,11 / fast_pskip=1 / chroma_qp_offset=0 / threads=2 / lookahead_threads=1 / sliced_threads=0 / nr=0 / decimate=1 / interlaced=0 / bluray_compat=0 / constrained_intra=0 / bframes=0 / weightp=2 / keyint=250 / keyint_min=25 / scenecut=40 / intra_refresh=0 / rc_lookahead=40 / rc=abr / mbtree=1 / bitrate=4496 / ratetol=1.0 / qcomp=0.60 / qpmin=10 / qpmax=51 / qpstep=4 / ip_ratio=1.41 / aq=1:1.00
Дата кодирования                         : UTC 2015-01-14 06:05:44
Дата пометки                             : UTC 2015-01-14 06:05:44

Аудио
Идентификатор                            : 2
Формат                                   : AAC
Формат/Информация                        : Advanced Audio Codec
Профиль формата                          : LC
Идентификатор кодека                     : 40
Продолжительность                        : 3 м. 22 с.
Duration_FirstFrame                      : 70 мс.
Вид битрейта                             : Переменный
Битрейт                                  : 152 Кбит/сек
Максимальный битрейт                     : 176 Кбит/сек
Каналы                                   : 2 канала
Расположение каналов                     : Front: L R
Частота                                  : 44,1 КГц
Метод сжатия                             : С потерями
Размер потока                            : 3,67 Мбайт (4%)
Дата кодирования                         : UTC 2015-01-14 06:05:44
Дата пометки                             : UTC 2015-01-14 06:05:44
Общее
Полное имя                               : E:\VA - Зимний марафон № 215 (Новогоднее Веселье)\04. Boulev4rd - Weekend (Official Video) (Новогодний клип!).mp4
Формат                                   : MPEG-4
Профиль формата                          : Base Media
Идентификатор кодека                     : isom
Размер файла                             : 104 Мбайт
Продолжительность                        : 2 м. 57 с.
Режим общего битрейта                    : Переменный
Общий поток                              : 4913 Кбит/сек
Дата кодирования                         : UTC 2015-12-24 12:46:23
Дата пометки                             : UTC 2015-12-24 12:46:23
Программа кодирования                    : Lavf54.63.104

Видео
Идентификатор                            : 1
Формат                                   : AVC
Формат/Информация                        : Advanced Video Codec
Профиль формата                          : Main@L4
Параметр CABAC формата                   : Да
Параметр ReFrames формата                : 1 кадр
Идентификатор кодека                     : avc1
Идентификатор кодека/Информация          : Advanced Video Coding
Продолжительность                        : 2 м. 57 с.
Битрейт                                  : 4756 Кбит/сек
Номинальный битрейт                      : 4496 Кбит/сек
Ширина                                   : 1920 пикселей
Высота                                   : 1080 пикселей
Соотношение сторон                       : 16:9
Режим частоты кадров                     : Постоянный
Частота кадров                           : 25,000 кадров/сек
Цветовое пространство                    : YUV
Субдискретизация насыщенности            : 4:2:0
Битовая глубина                          : 8 бит
Тип развёртки                            : Прогрессивная
Бит/(Пиксели*Кадры)                      : 0.092
Размер потока                            : 101 Мбайт (97%)
Библиотека кодирования                   : x264 core 129
Настройки программы                      : cabac=1 / ref=1 / deblock=1:0:0 / analyse=0x1:0x131 / me=dia / subme=2 / psy=1 / psy_rd=1.00:0.00 / mixed_ref=0 / me_range=16 / chroma_me=1 / trellis=0 / 8x8dct=0 / cqm=0 / deadzone=21,11 / fast_pskip=1 / chroma_qp_offset=0 / threads=2 / lookahead_threads=1 / sliced_threads=0 / nr=0 / decimate=1 / interlaced=0 / bluray_compat=0 / constrained_intra=0 / bframes=0 / weightp=2 / keyint=250 / keyint_min=25 / scenecut=40 / intra_refresh=0 / rc_lookahead=40 / rc=abr / mbtree=1 / bitrate=4496 / ratetol=1.0 / qcomp=0.60 / qpmin=10 / qpmax=51 / qpstep=4 / ip_ratio=1.41 / aq=1:1.00
Дата кодирования                         : UTC 2015-12-24 12:46:23
Дата пометки                             : UTC 2015-12-24 12:46:23

Аудио
Идентификатор                            : 2
Формат                                   : AAC
Формат/Информация                        : Advanced Audio Codec
Профиль формата                          : LC
Идентификатор кодека                     : 40
Продолжительность                        : 2 м. 57 с.
Duration_FirstFrame                      : 70 мс.
Вид битрейта                             : Переменный
Битрейт                                  : 152 Кбит/сек
Максимальный битрейт                     : 176 Кбит/сек
Каналы                                   : 2 канала
Расположение каналов                     : Front: L R
Частота                                  : 44,1 КГц
Метод сжатия                             : С потерями
Размер потока                            : 3,22 Мбайт (3%)
Дата кодирования                         : UTC 2015-12-24 12:46:23
Дата пометки                             : UTC 2015-12-24 12:46:23
Общее
Полное имя                               : E:\VA - Зимний марафон № 215 (Новогоднее Веселье)\05. DJ Fenix ft. Маша Кольцова - Зимняя (Новогодний клип!).mp4
Формат                                   : MPEG-4
Профиль формата                          : Base Media
Идентификатор кодека                     : isom
Размер файла                             : 109 Мбайт
Продолжительность                        : 3 м. 16 с.
Режим общего битрейта                    : Переменный
Общий поток                              : 4654 Кбит/сек
Дата кодирования                         : UTC 2015-12-18 11:28:46
Дата пометки                             : UTC 2015-12-18 11:28:46
Программа кодирования                    : Lavf54.63.104

Видео
Идентификатор                            : 1
Формат                                   : AVC
Формат/Информация                        : Advanced Video Codec
Профиль формата                          : Main@L4
Параметр CABAC формата                   : Да
Параметр ReFrames формата                : 1 кадр
Идентификатор кодека                     : avc1
Идентификатор кодека/Информация          : Advanced Video Coding
Продолжительность                        : 3 м. 16 с.
Битрейт                                  : 4496 Кбит/сек
Ширина                                   : 1920 пикселей
Высота                                   : 1080 пикселей
Соотношение сторон                       : 16:9
Режим частоты кадров                     : Постоянный
Частота кадров                           : 25,000 кадров/сек
Цветовое пространство                    : YUV
Субдискретизация насыщенности            : 4:2:0
Битовая глубина                          : 8 бит
Тип развёртки                            : Прогрессивная
Бит/(Пиксели*Кадры)                      : 0.087
Размер потока                            : 105 Мбайт (97%)
Библиотека кодирования                   : x264 core 129
Настройки программы                      : cabac=1 / ref=1 / deblock=1:0:0 / analyse=0x1:0x131 / me=dia / subme=2 / psy=1 / psy_rd=1.00:0.00 / mixed_ref=0 / me_range=16 / chroma_me=1 / trellis=0 / 8x8dct=0 / cqm=0 / deadzone=21,11 / fast_pskip=1 / chroma_qp_offset=0 / threads=2 / lookahead_threads=1 / sliced_threads=0 / nr=0 / decimate=1 / interlaced=0 / bluray_compat=0 / constrained_intra=0 / bframes=0 / weightp=2 / keyint=250 / keyint_min=25 / scenecut=40 / intra_refresh=0 / rc_lookahead=40 / rc=abr / mbtree=1 / bitrate=4496 / ratetol=1.0 / qcomp=0.60 / qpmin=10 / qpmax=51 / qpstep=4 / ip_ratio=1.41 / aq=1:1.00
Дата кодирования                         : UTC 2015-12-18 11:28:46
Дата пометки                             : UTC 2015-12-18 11:28:46

Аудио
Идентификатор                            : 2
Формат                                   : AAC
Формат/Информация                        : Advanced Audio Codec
Профиль формата                          : LC
Идентификатор кодека                     : 40
Продолжительность                        : 3 м. 16 с.
Duration_FirstFrame                      : 70 мс.
Вид битрейта                             : Переменный
Битрейт                                  : 151 Кбит/сек
Максимальный битрейт                     : 176 Кбит/сек
Каналы                                   : 2 канала
Расположение каналов                     : Front: L R
Частота                                  : 44,1 КГц
Метод сжатия                             : С потерями
Размер потока                            : 3,54 Мбайт (3%)
Дата кодирования                         : UTC 2015-12-18 11:28:46
Дата пометки                             : UTC 2015-12-18 11:28:46
Общее
Полное имя                               : E:\VA - Зимний марафон № 215 (Новогоднее Веселье)\06. Seal - This Christmas (Новогодний клип!).mp4
Формат                                   : MPEG-4
Профиль формата                          : Base Media
Идентификатор кодека                     : isom
Размер файла                             : 115 Мбайт
Продолжительность                        : 3 м. 26 с.
Режим общего битрейта                    : Переменный
Общий поток                              : 4663 Кбит/сек
Дата кодирования                         : UTC 2015-12-18 11:57:37
Дата пометки                             : UTC 2015-12-18 11:57:37
Программа кодирования                    : Lavf54.63.104

Видео
Идентификатор                            : 1
Формат                                   : AVC
Формат/Информация                        : Advanced Video Codec
Профиль формата                          : Main@L4
Параметр CABAC формата                   : Да
Параметр ReFrames формата                : 1 кадр
Идентификатор кодека                     : avc1
Идентификатор кодека/Информация          : Advanced Video Coding
Продолжительность                        : 3 м. 26 с.
Битрейт                                  : 4496 Кбит/сек
Ширина                                   : 1920 пикселей
Высота                                   : 1080 пикселей
Соотношение сторон                       : 16:9
Режим частоты кадров                     : Постоянный
Частота кадров                           : 25,000 кадров/сек
Цветовое пространство                    : YUV
Субдискретизация насыщенности            : 4:2:0
Битовая глубина                          : 8 бит
Тип развёртки                            : Прогрессивная
Бит/(Пиксели*Кадры)                      : 0.087
Размер потока                            : 111 Мбайт (97%)
Библиотека кодирования                   : x264 core 129
Настройки программы                      : cabac=1 / ref=1 / deblock=1:0:0 / analyse=0x1:0x131 / me=dia / subme=2 / psy=1 / psy_rd=1.00:0.00 / mixed_ref=0 / me_range=16 / chroma_me=1 / trellis=0 / 8x8dct=0 / cqm=0 / deadzone=21,11 / fast_pskip=1 / chroma_qp_offset=0 / threads=2 / lookahead_threads=1 / sliced_threads=0 / nr=0 / decimate=1 / interlaced=0 / bluray_compat=0 / constrained_intra=0 / bframes=0 / weightp=2 / keyint=250 / keyint_min=25 / scenecut=40 / intra_refresh=0 / rc_lookahead=40 / rc=abr / mbtree=1 / bitrate=4496 / ratetol=1.0 / qcomp=0.60 / qpmin=10 / qpmax=51 / qpstep=4 / ip_ratio=1.41 / aq=1:1.00
Дата кодирования                         : UTC 2015-12-18 11:57:37
Дата пометки                             : UTC 2015-12-18 11:57:37

Аудио
Идентификатор                            : 2
Формат                                   : AAC
Формат/Информация                        : Advanced Audio Codec
Профиль формата                          : LC
Идентификатор кодека                     : 40
Продолжительность                        : 3 м. 26 с.
Duration_FirstFrame                      : 70 мс.
Вид битрейта                             : Переменный
Битрейт                                  : 152 Кбит/сек
Максимальный битрейт                     : 176 Кбит/сек
Каналы                                   : 2 канала
Расположение каналов                     : Front: L R
Частота                                  : 44,1 КГц
Метод сжатия                             : С потерями
Размер потока                            : 3,74 Мбайт (3%)
Дата кодирования                         : UTC 2015-12-18 11:57:37
Дата пометки                             : UTC 2015-12-18 11:57:37
Общее
Полное имя                               : E:\VA - Зимний марафон № 215 (Новогоднее Веселье)\07. Джам Булатов и Алим Урусов - Новогодняя (Новогодний клип!).mp4
Формат                                   : MPEG-4
Профиль формата                          : Base Media
Идентификатор кодека                     : isom
Размер файла                             : 121 Мбайт
Продолжительность                        : 3 м. 35 с.
Режим общего битрейта                    : Переменный
Общий поток                              : 4684 Кбит/сек
Дата кодирования                         : UTC 2013-12-18 09:38:07
Дата пометки                             : UTC 2013-12-18 09:38:07
Программа кодирования                    : Lavf54.63.104

Видео
Идентификатор                            : 1
Формат                                   : AVC
Формат/Информация                        : Advanced Video Codec
Профиль формата                          : Main@L4
Параметр CABAC формата                   : Да
Параметр ReFrames формата                : 1 кадр
Идентификатор кодека                     : avc1
Идентификатор кодека/Информация          : Advanced Video Coding
Продолжительность                        : 3 м. 35 с.
Битрейт                                  : 4496 Кбит/сек
Ширина                                   : 1920 пикселей
Высота                                   : 1080 пикселей
Соотношение сторон                       : 16:9
Режим частоты кадров                     : Постоянный
Частота кадров                           : 25,000 кадров/сек
Цветовое пространство                    : YUV
Субдискретизация насыщенности            : 4:2:0
Битовая глубина                          : 8 бит
Тип развёртки                            : Прогрессивная
Бит/(Пиксели*Кадры)                      : 0.087
Размер потока                            : 117 Мбайт (97%)
Библиотека кодирования                   : x264 core 129
Настройки программы                      : cabac=1 / ref=1 / deblock=1:0:0 / analyse=0x1:0x131 / me=dia / subme=2 / psy=1 / psy_rd=1.00:0.00 / mixed_ref=0 / me_range=16 / chroma_me=1 / trellis=0 / 8x8dct=0 / cqm=0 / deadzone=21,11 / fast_pskip=1 / chroma_qp_offset=0 / threads=2 / lookahead_threads=1 / sliced_threads=0 / nr=0 / decimate=1 / interlaced=0 / bluray_compat=0 / constrained_intra=0 / bframes=0 / weightp=2 / keyint=250 / keyint_min=25 / scenecut=40 / intra_refresh=0 / rc_lookahead=40 / rc=abr / mbtree=1 / bitrate=4496 / ratetol=1.0 / qcomp=0.60 / qpmin=10 / qpmax=51 / qpstep=4 / ip_ratio=1.41 / aq=1:1.00
Дата кодирования                         : UTC 2013-12-18 09:38:07
Дата пометки                             : UTC 2013-12-18 09:38:07

Аудио
Идентификатор                            : 2
Формат                                   : AAC
Формат/Информация                        : Advanced Audio Codec
Профиль формата                          : LC
Идентификатор кодека                     : 40
Продолжительность                        : 3 м. 35 с.
Duration_FirstFrame                      : 70 мс.
Вид битрейта                             : Переменный
Битрейт                                  : 152 Кбит/сек
Максимальный битрейт                     : 176 Кбит/сек
Каналы                                   : 2 канала
Расположение каналов                     : Front: L R
Частота                                  : 44,1 КГц
Метод сжатия                             : С потерями
Размер потока                            : 3,91 Мбайт (3%)
Дата кодирования                         : UTC 2013-12-18 09:38:07
Дата пометки                             : UTC 2013-12-18 09:38:07
Общее
Полное имя                               : E:\VA - Зимний марафон № 215 (Новогоднее Веселье)\08. Диана Шарапова и Сергей Зверев - Новогодний Бал (Новогодний клип!).mp4
Формат                                   : MPEG-4
Профиль формата                          : Base Media
Идентификатор кодека                     : isom
Размер файла                             : 164 Мбайт
Продолжительность                        : 5 м. 4 с.
Режим общего битрейта                    : Переменный
Общий поток                              : 4507 Кбит/сек
Дата кодирования                         : UTC 2015-12-24 11:57:39
Дата пометки                             : UTC 2015-12-24 11:57:39
Программа кодирования                    : Lavf54.63.104

Видео
Идентификатор                            : 1
Формат                                   : AVC
Формат/Информация                        : Advanced Video Codec
Профиль формата                          : Main@L4
Параметр CABAC формата                   : Да
Параметр ReFrames формата                : 1 кадр
Идентификатор кодека                     : avc1
Идентификатор кодека/Информация          : Advanced Video Coding
Продолжительность                        : 5 м. 4 с.
Битрейт                                  : 4496 Кбит/сек
Ширина                                   : 1920 пикселей
Высота                                   : 1080 пикселей
Соотношение сторон                       : 16:9
Режим частоты кадров                     : Постоянный
Частота кадров                           : 25,000 кадров/сек
Цветовое пространство                    : YUV
Субдискретизация насыщенности            : 4:2:0
Битовая глубина                          : 8 бит
Тип развёртки                            : Прогрессивная
Бит/(Пиксели*Кадры)                      : 0.087
Размер потока                            : 158 Мбайт (97%)
Библиотека кодирования                   : x264 core 129
Настройки программы                      : cabac=1 / ref=1 / deblock=1:0:0 / analyse=0x1:0x131 / me=dia / subme=2 / psy=1 / psy_rd=1.00:0.00 / mixed_ref=0 / me_range=16 / chroma_me=1 / trellis=0 / 8x8dct=0 / cqm=0 / deadzone=21,11 / fast_pskip=1 / chroma_qp_offset=0 / threads=2 / lookahead_threads=1 / sliced_threads=0 / nr=0 / decimate=1 / interlaced=0 / bluray_compat=0 / constrained_intra=0 / bframes=0 / weightp=2 / keyint=250 / keyint_min=25 / scenecut=40 / intra_refresh=0 / rc_lookahead=40 / rc=abr / mbtree=1 / bitrate=4496 / ratetol=1.0 / qcomp=0.60 / qpmin=10 / qpmax=51 / qpstep=4 / ip_ratio=1.41 / aq=1:1.00
Дата кодирования                         : UTC 2015-12-24 11:57:39
Дата пометки                             : UTC 2015-12-24 11:57:39

Аудио
Идентификатор                            : 2
Формат                                   : AAC
Формат/Информация                        : Advanced Audio Codec
Профиль формата                          : LC
Идентификатор кодека                     : 40
Продолжительность                        : 5 м. 4 с.
Duration_FirstFrame                      : 70 мс.
Вид битрейта                             : Переменный
Битрейт                                  : 150 Кбит/сек
Максимальный битрейт                     : 176 Кбит/сек
Каналы                                   : 2 канала
Расположение каналов                     : Front: L R
Частота                                  : 44,1 КГц
Метод сжатия                             : С потерями
Размер потока                            : 5,44 Мбайт (3%)
Дата кодирования                         : UTC 2015-12-24 11:57:39
Дата пометки                             : UTC 2015-12-24 11:57:39
Общее
Полное имя                               : E:\VA - Зимний марафон № 215 (Новогоднее Веселье)\09. Игорь Николаев и Юлия Проскурякова - Новый год без тебя (Новогодний клип!).mp4
Формат                                   : MPEG-4
Профиль формата                          : Base Media
Идентификатор кодека                     : isom
Размер файла                             : 86,8 Мбайт
Продолжительность                        : 2 м. 36 с.
Режим общего битрейта                    : Переменный
Общий поток                              : 4668 Кбит/сек
Дата кодирования                         : UTC 2015-01-20 11:48:44
Дата пометки                             : UTC 2015-01-20 11:48:44
Программа кодирования                    : Lavf54.63.104

Видео
Идентификатор                            : 1
Формат                                   : AVC
Формат/Информация                        : Advanced Video Codec
Профиль формата                          : Main@L4
Параметр CABAC формата                   : Да
Параметр ReFrames формата                : 1 кадр
Идентификатор кодека                     : avc1
Идентификатор кодека/Информация          : Advanced Video Coding
Продолжительность                        : 2 м. 36 с.
Битрейт                                  : 4496 Кбит/сек
Ширина                                   : 1920 пикселей
Высота                                   : 1080 пикселей
Соотношение сторон                       : 16:9
Режим частоты кадров                     : Постоянный
Частота кадров                           : 25,000 кадров/сек
Цветовое пространство                    : YUV
Субдискретизация насыщенности            : 4:2:0
Битовая глубина                          : 8 бит
Тип развёртки                            : Прогрессивная
Бит/(Пиксели*Кадры)                      : 0.087
Размер потока                            : 83,9 Мбайт (97%)
Библиотека кодирования                   : x264 core 129
Настройки программы                      : cabac=1 / ref=1 / deblock=1:0:0 / analyse=0x1:0x131 / me=dia / subme=2 / psy=1 / psy_rd=1.00:0.00 / mixed_ref=0 / me_range=16 / chroma_me=1 / trellis=0 / 8x8dct=0 / cqm=0 / deadzone=21,11 / fast_pskip=1 / chroma_qp_offset=0 / threads=2 / lookahead_threads=1 / sliced_threads=0 / nr=0 / decimate=1 / interlaced=0 / bluray_compat=0 / constrained_intra=0 / bframes=0 / weightp=2 / keyint=250 / keyint_min=25 / scenecut=40 / intra_refresh=0 / rc_lookahead=40 / rc=abr / mbtree=1 / bitrate=4496 / ratetol=1.0 / qcomp=0.60 / qpmin=10 / qpmax=51 / qpstep=4 / ip_ratio=1.41 / aq=1:1.00
Дата кодирования                         : UTC 2015-01-20 11:48:44
Дата пометки                             : UTC 2015-01-20 11:48:44

Аудио
Идентификатор                            : 2
Формат                                   : AAC
Формат/Информация                        : Advanced Audio Codec
Профиль формата                          : LC
Идентификатор кодека                     : 40
Продолжительность                        : 2 м. 35 с.
Duration_FirstFrame                      : 70 мс.
Вид битрейта                             : Переменный
Битрейт                                  : 152 Кбит/сек
Максимальный битрейт                     : 176 Кбит/сек
Каналы                                   : 2 канала
Расположение каналов                     : Front: L R
Частота                                  : 44,1 КГц
Метод сжатия                             : С потерями
Размер потока                            : 2,83 Мбайт (3%)
Дата кодирования                         : UTC 2015-01-20 11:48:44
Дата пометки                             : UTC 2015-01-20 11:48:44
Общее
Полное имя                               : E:\VA - Зимний марафон № 215 (Новогоднее Веселье)\10. Илья Гуров - Новогодняя (автор-исполнитель) (Новогодний клип!).mp4
Формат                                   : MPEG-4
Профиль формата                          : Base Media
Идентификатор кодека                     : isom
Размер файла                             : 107 Мбайт
Продолжительность                        : 3 м. 10 с.
Режим общего битрейта                    : Переменный
Общий поток                              : 4689 Кбит/сек
Дата кодирования                         : UTC 2014-12-14 13:59:04
Дата пометки                             : UTC 2014-12-14 13:59:04
Программа кодирования                    : Lavf54.63.104

Видео
Идентификатор                            : 1
Формат                                   : AVC
Формат/Информация                        : Advanced Video Codec
Профиль формата                          : Main@L4
Параметр CABAC формата                   : Да
Параметр ReFrames формата                : 1 кадр
Идентификатор кодека                     : avc1
Идентификатор кодека/Информация          : Advanced Video Coding
Продолжительность                        : 3 м. 10 с.
Битрейт                                  : 4496 Кбит/сек
Ширина                                   : 1920 пикселей
Высота                                   : 1080 пикселей
Соотношение сторон                       : 16:9
Режим частоты кадров                     : Постоянный
Частота кадров                           : 25,000 кадров/сек
Цветовое пространство                    : YUV
Субдискретизация насыщенности            : 4:2:0
Битовая глубина                          : 8 бит
Тип развёртки                            : Прогрессивная
Бит/(Пиксели*Кадры)                      : 0.087
Размер потока                            : 103 Мбайт (97%)
Библиотека кодирования                   : x264 core 129
Настройки программы                      : cabac=1 / ref=1 / deblock=1:0:0 / analyse=0x1:0x131 / me=dia / subme=2 / psy=1 / psy_rd=1.00:0.00 / mixed_ref=0 / me_range=16 / chroma_me=1 / trellis=0 / 8x8dct=0 / cqm=0 / deadzone=21,11 / fast_pskip=1 / chroma_qp_offset=0 / threads=2 / lookahead_threads=1 / sliced_threads=0 / nr=0 / decimate=1 / interlaced=0 / bluray_compat=0 / constrained_intra=0 / bframes=0 / weightp=2 / keyint=250 / keyint_min=25 / scenecut=40 / intra_refresh=0 / rc_lookahead=40 / rc=abr / mbtree=1 / bitrate=4496 / ratetol=1.0 / qcomp=0.60 / qpmin=10 / qpmax=51 / qpstep=4 / ip_ratio=1.41 / aq=1:1.00
Дата кодирования                         : UTC 2014-12-14 13:59:04
Дата пометки                             : UTC 2014-12-14 13:59:04

Аудио
Идентификатор                            : 2
Формат                                   : AAC
Формат/Информация                        : Advanced Audio Codec
Профиль формата                          : LC
Идентификатор кодека                     : 40
Продолжительность                        : 3 м. 10 с.
Duration_FirstFrame                      : 70 мс.
Вид битрейта                             : Переменный
Битрейт                                  : 151 Кбит/сек
Максимальный битрейт                     : 176 Кбит/сек
Каналы                                   : 2 канала
Расположение каналов                     : Front: L R
Частота                                  : 44,1 КГц
Метод сжатия                             : С потерями
Размер потока                            : 3,45 Мбайт (3%)
Дата кодирования                         : UTC 2014-12-14 13:59:04
Дата пометки                             : UTC 2014-12-14 13:59:04
Общее
Полное имя                               : E:\VA - Зимний марафон № 215 (Новогоднее Веселье)\11. Катерина Красильникова и Александр Рипчанский - Новогодняя сказка (Новогодний клип!).mp4
Формат                                   : MPEG-4
Профиль формата                          : Base Media
Идентификатор кодека                     : isom
Размер файла                             : 122 Мбайт
Продолжительность                        : 3 м. 33 с.
Режим общего битрейта                    : Переменный
Общий поток                              : 4802 Кбит/сек
Дата кодирования                         : UTC 2015-12-10 12:12:04
Дата пометки                             : UTC 2015-12-10 12:12:04
Программа кодирования                    : Lavf54.63.104

Видео
Идентификатор                            : 1
Формат                                   : AVC
Формат/Информация                        : Advanced Video Codec
Профиль формата                          : Main@L4
Параметр CABAC формата                   : Да
Параметр ReFrames формата                : 1 кадр
Идентификатор кодека                     : avc1
Идентификатор кодека/Информация          : Advanced Video Coding
Продолжительность                        : 3 м. 33 с.
Битрейт                                  : 4496 Кбит/сек
Ширина                                   : 1920 пикселей
Высота                                   : 1080 пикселей
Соотношение сторон                       : 16:9
Режим частоты кадров                     : Постоянный
Частота кадров                           : 25,000 кадров/сек
Цветовое пространство                    : YUV
Субдискретизация насыщенности            : 4:2:0
Битовая глубина                          : 8 бит
Тип развёртки                            : Прогрессивная
Бит/(Пиксели*Кадры)                      : 0.087
Размер потока                            : 118 Мбайт (97%)
Библиотека кодирования                   : x264 core 129
Настройки программы                      : cabac=1 / ref=1 / deblock=1:0:0 / analyse=0x1:0x131 / me=dia / subme=2 / psy=1 / psy_rd=1.00:0.00 / mixed_ref=0 / me_range=16 / chroma_me=1 / trellis=0 / 8x8dct=0 / cqm=0 / deadzone=21,11 / fast_pskip=1 / chroma_qp_offset=0 / threads=2 / lookahead_threads=1 / sliced_threads=0 / nr=0 / decimate=1 / interlaced=0 / bluray_compat=0 / constrained_intra=0 / bframes=0 / weightp=2 / keyint=250 / keyint_min=25 / scenecut=40 / intra_refresh=0 / rc_lookahead=40 / rc=abr / mbtree=1 / bitrate=4496 / ratetol=1.0 / qcomp=0.60 / qpmin=10 / qpmax=51 / qpstep=4 / ip_ratio=1.41 / aq=1:1.00
Дата кодирования                         : UTC 2015-12-10 12:12:04
Дата пометки                             : UTC 2015-12-10 12:12:04

Аудио
Идентификатор                            : 2
Формат                                   : AAC
Формат/Информация                        : Advanced Audio Codec
Профиль формата                          : LC
Идентификатор кодека                     : 40
Продолжительность                        : 3 м. 33 с.
Duration_FirstFrame                      : 70 мс.
Вид битрейта                             : Переменный
Битрейт                                  : 150 Кбит/сек
Максимальный битрейт                     : 176 Кбит/сек
Каналы                                   : 2 канала
Расположение каналов                     : Front: L R
Частота                                  : 44,1 КГц
Метод сжатия                             : С потерями
Размер потока                            : 3,83 Мбайт (3%)
Дата кодирования                         : UTC 2015-12-10 12:12:04
Дата пометки                             : UTC 2015-12-10 12:12:04
Общее
Полное имя                               : E:\VA - Зимний марафон № 215 (Новогоднее Веселье)\12. Колдстрим - Пока не тает снег (Новогодний клип!).mp4
Формат                                   : MPEG-4
Профиль формата                          : Base Media
Идентификатор кодека                     : isom
Размер файла                             : 101 Мбайт
Продолжительность                        : 3 м. 0 с.
Режим общего битрейта                    : Переменный
Общий поток                              : 4688 Кбит/сек
Дата кодирования                         : UTC 2015-07-25 10:27:13
Дата пометки                             : UTC 2015-07-25 10:27:13
Программа кодирования                    : Lavf54.63.104

Видео
Идентификатор                            : 1
Формат                                   : AVC
Формат/Информация                        : Advanced Video Codec
Профиль формата                          : Main@L4
Параметр CABAC формата                   : Да
Параметр ReFrames формата                : 1 кадр
Идентификатор кодека                     : avc1
Идентификатор кодека/Информация          : Advanced Video Coding
Продолжительность                        : 3 м. 0 с.
Битрейт                                  : 4496 Кбит/сек
Ширина                                   : 1920 пикселей
Высота                                   : 1080 пикселей
Соотношение сторон                       : 16:9
Режим частоты кадров                     : Постоянный
Частота кадров                           : 25,000 кадров/сек
Цветовое пространство                    : YUV
Субдискретизация насыщенности            : 4:2:0
Битовая глубина                          : 8 бит
Тип развёртки                            : Прогрессивная
Бит/(Пиксели*Кадры)                      : 0.087
Размер потока                            : 97,4 Мбайт (97%)
Библиотека кодирования                   : x264 core 129
Настройки программы                      : cabac=1 / ref=1 / deblock=1:0:0 / analyse=0x1:0x131 / me=dia / subme=2 / psy=1 / psy_rd=1.00:0.00 / mixed_ref=0 / me_range=16 / chroma_me=1 / trellis=0 / 8x8dct=0 / cqm=0 / deadzone=21,11 / fast_pskip=1 / chroma_qp_offset=0 / threads=2 / lookahead_threads=1 / sliced_threads=0 / nr=0 / decimate=1 / interlaced=0 / bluray_compat=0 / constrained_intra=0 / bframes=0 / weightp=2 / keyint=250 / keyint_min=25 / scenecut=40 / intra_refresh=0 / rc_lookahead=40 / rc=abr / mbtree=1 / bitrate=4496 / ratetol=1.0 / qcomp=0.60 / qpmin=10 / qpmax=51 / qpstep=4 / ip_ratio=1.41 / aq=1:1.00
Дата кодирования                         : UTC 2015-07-25 10:27:13
Дата пометки                             : UTC 2015-07-25 10:27:13

Аудио
Идентификатор                            : 2
Формат                                   : AAC
Формат/Информация                        : Advanced Audio Codec
Профиль формата                          : LC
Идентификатор кодека                     : 40
Продолжительность                        : 3 м. 0 с.
Duration_FirstFrame                      : 70 мс.
Вид битрейта                             : Переменный
Битрейт                                  : 152 Кбит/сек
Максимальный битрейт                     : 176 Кбит/сек
Каналы                                   : 2 канала
Расположение каналов                     : Front: L R
Частота                                  : 44,1 КГц
Метод сжатия                             : С потерями
Размер потока                            : 3,26 Мбайт (3%)
Дата кодирования                         : UTC 2015-07-25 10:27:13
Дата пометки                             : UTC 2015-07-25 10:27:13
Общее
Полное имя                               : E:\VA - Зимний марафон № 215 (Новогоднее Веселье)\13. Лера Массква - Навсегда (Новогодний клип!).mp4
Формат                                   : MPEG-4
Профиль формата                          : Base Media
Идентификатор кодека                     : isom
Размер файла                             : 107 Мбайт
Продолжительность                        : 3 м. 13 с.
Режим общего битрейта                    : Переменный
Общий поток                              : 4632 Кбит/сек
Дата кодирования                         : UTC 2014-04-28 01:21:01
Дата пометки                             : UTC 2014-04-28 01:21:01
Программа кодирования                    : Lavf54.63.104

Видео
Идентификатор                            : 1
Формат                                   : AVC
Формат/Информация                        : Advanced Video Codec
Профиль формата                          : Main@L4
Параметр CABAC формата                   : Да
Параметр ReFrames формата                : 1 кадр
Идентификатор кодека                     : avc1
Идентификатор кодека/Информация          : Advanced Video Coding
Продолжительность                        : 3 м. 13 с.
Битрейт                                  : 4496 Кбит/сек
Ширина                                   : 1920 пикселей
Высота                                   : 1080 пикселей
Соотношение сторон                       : 16:9
Режим частоты кадров                     : Постоянный
Частота кадров                           : 25,000 кадров/сек
Цветовое пространство                    : YUV
Субдискретизация насыщенности            : 4:2:0
Битовая глубина                          : 8 бит
Тип развёртки                            : Прогрессивная
Бит/(Пиксели*Кадры)                      : 0.087
Размер потока                            : 103 Мбайт (97%)
Библиотека кодирования                   : x264 core 129
Настройки программы                      : cabac=1 / ref=1 / deblock=1:0:0 / analyse=0x1:0x131 / me=dia / subme=2 / psy=1 / psy_rd=1.00:0.00 / mixed_ref=0 / me_range=16 / chroma_me=1 / trellis=0 / 8x8dct=0 / cqm=0 / deadzone=21,11 / fast_pskip=1 / chroma_qp_offset=0 / threads=2 / lookahead_threads=1 / sliced_threads=0 / nr=0 / decimate=1 / interlaced=0 / bluray_compat=0 / constrained_intra=0 / bframes=0 / weightp=2 / keyint=250 / keyint_min=25 / scenecut=40 / intra_refresh=0 / rc_lookahead=40 / rc=abr / mbtree=1 / bitrate=4496 / ratetol=1.0 / qcomp=0.60 / qpmin=10 / qpmax=51 / qpstep=4 / ip_ratio=1.41 / aq=1:1.00
Дата кодирования                         : UTC 2014-04-28 01:21:01
Дата пометки                             : UTC 2014-04-28 01:21:01

Аудио
Идентификатор                            : 2
Формат                                   : AAC
Формат/Информация                        : Advanced Audio Codec
Профиль формата                          : LC
Идентификатор кодека                     : 40
Продолжительность                        : 3 м. 12 с.
Duration_FirstFrame                      : 70 мс.
Вид битрейта                             : Переменный
Битрейт                                  : 152 Кбит/сек
Максимальный битрейт                     : 176 Кбит/сек
Каналы                                   : 2 канала
Расположение каналов                     : Front: L R
Частота                                  : 44,1 КГц
Метод сжатия                             : С потерями
Размер потока                            : 3,49 Мбайт (3%)
Дата кодирования                         : UTC 2014-04-28 01:21:01
Дата пометки                             : UTC 2014-04-28 01:21:01
Общее
Полное имя                               : E:\VA - Зимний марафон № 215 (Новогоднее Веселье)\14. Лера Туманова - Новогодняя (Новогодний клип!).mp4
Формат                                   : MPEG-4
Профиль формата                          : Base Media
Идентификатор кодека                     : isom
Размер файла                             : 104 Мбайт
Продолжительность                        : 3 м. 8 с.
Режим общего битрейта                    : Переменный
Общий поток                              : 4636 Кбит/сек
Дата кодирования                         : UTC 2014-01-07 00:37:45
Дата пометки                             : UTC 2014-01-07 00:37:45
Программа кодирования                    : Lavf54.63.104

Видео
Идентификатор                            : 1
Формат                                   : AVC
Формат/Информация                        : Advanced Video Codec
Профиль формата                          : Main@L4
Параметр CABAC формата                   : Да
Параметр ReFrames формата                : 1 кадр
Идентификатор кодека                     : avc1
Идентификатор кодека/Информация          : Advanced Video Coding
Продолжительность                        : 3 м. 8 с.
Битрейт                                  : 4496 Кбит/сек
Ширина                                   : 1920 пикселей
Высота                                   : 1080 пикселей
Соотношение сторон                       : 16:9
Режим частоты кадров                     : Постоянный
Частота кадров                           : 25,000 кадров/сек
Цветовое пространство                    : YUV
Субдискретизация насыщенности            : 4:2:0
Битовая глубина                          : 8 бит
Тип развёртки                            : Прогрессивная
Бит/(Пиксели*Кадры)                      : 0.087
Размер потока                            : 101 Мбайт (97%)
Библиотека кодирования                   : x264 core 129
Настройки программы                      : cabac=1 / ref=1 / deblock=1:0:0 / analyse=0x1:0x131 / me=dia / subme=2 / psy=1 / psy_rd=1.00:0.00 / mixed_ref=0 / me_range=16 / chroma_me=1 / trellis=0 / 8x8dct=0 / cqm=0 / deadzone=21,11 / fast_pskip=1 / chroma_qp_offset=0 / threads=2 / lookahead_threads=1 / sliced_threads=0 / nr=0 / decimate=1 / interlaced=0 / bluray_compat=0 / constrained_intra=0 / bframes=0 / weightp=2 / keyint=250 / keyint_min=25 / scenecut=40 / intra_refresh=0 / rc_lookahead=40 / rc=abr / mbtree=1 / bitrate=4496 / ratetol=1.0 / qcomp=0.60 / qpmin=10 / qpmax=51 / qpstep=4 / ip_ratio=1.41 / aq=1:1.00
Дата кодирования                         : UTC 2014-01-07 00:37:45
Дата пометки                             : UTC 2014-01-07 00:37:45

Аудио
Идентификатор                            : 2
Формат                                   : AAC
Формат/Информация                        : Advanced Audio Codec
Профиль формата                          : LC
Идентификатор кодека                     : 40
Продолжительность                        : 3 м. 8 с.
Duration_FirstFrame                      : 70 мс.
Вид битрейта                             : Переменный
Битрейт                                  : 152 Кбит/сек
Максимальный битрейт                     : 176 Кбит/сек
Каналы                                   : 2 канала
Расположение каналов                     : Front: L R
Частота                                  : 44,1 КГц
Метод сжатия                             : С потерями
Размер потока                            : 3,41 Мбайт (3%)
Дата кодирования                         : UTC 2014-01-07 00:37:45
Дата пометки                             : UTC 2014-01-07 00:37:45
Общее
Полное имя                               : E:\VA - Зимний марафон № 215 (Новогоднее Веселье)\15. Мармелад шоу группа - Новый год (Новогодний клип!).mp4
Формат                                   : MPEG-4
Профиль формата                          : Base Media
Идентификатор кодека                     : isom
Размер файла                             : 116 Мбайт
Продолжительность                        : 3 м. 22 с.
Режим общего битрейта                    : Переменный
Общий поток                              : 4793 Кбит/сек
Дата кодирования                         : UTC 2015-12-19 10:45:51
Дата пометки                             : UTC 2015-12-19 10:45:51
Программа кодирования                    : Lavf54.63.104

Видео
Идентификатор                            : 1
Формат                                   : AVC
Формат/Информация                        : Advanced Video Codec
Профиль формата                          : Main@L4
Параметр CABAC формата                   : Да
Параметр ReFrames формата                : 1 кадр
Идентификатор кодека                     : avc1
Идентификатор кодека/Информация          : Advanced Video Coding
Продолжительность                        : 3 м. 22 с.
Битрейт                                  : 4496 Кбит/сек
Ширина                                   : 1920 пикселей
Высота                                   : 1080 пикселей
Соотношение сторон                       : 16:9
Режим частоты кадров                     : Постоянный
Частота кадров                           : 25,000 кадров/сек
Цветовое пространство                    : YUV
Субдискретизация насыщенности            : 4:2:0
Битовая глубина                          : 8 бит
Тип развёртки                            : Прогрессивная
Бит/(Пиксели*Кадры)                      : 0.087
Размер потока                            : 112 Мбайт (97%)
Библиотека кодирования                   : x264 core 129
Настройки программы                      : cabac=1 / ref=1 / deblock=1:0:0 / analyse=0x1:0x131 / me=dia / subme=2 / psy=1 / psy_rd=1.00:0.00 / mixed_ref=0 / me_range=16 / chroma_me=1 / trellis=0 / 8x8dct=0 / cqm=0 / deadzone=21,11 / fast_pskip=1 / chroma_qp_offset=0 / threads=2 / lookahead_threads=1 / sliced_threads=0 / nr=0 / decimate=1 / interlaced=0 / bluray_compat=0 / constrained_intra=0 / bframes=0 / weightp=2 / keyint=250 / keyint_min=25 / scenecut=40 / intra_refresh=0 / rc_lookahead=40 / rc=abr / mbtree=1 / bitrate=4496 / ratetol=1.0 / qcomp=0.60 / qpmin=10 / qpmax=51 / qpstep=4 / ip_ratio=1.41 / aq=1:1.00
Дата кодирования                         : UTC 2015-12-19 10:45:51
Дата пометки                             : UTC 2015-12-19 10:45:51

Аудио
Идентификатор                            : 2
Формат                                   : AAC
Формат/Информация                        : Advanced Audio Codec
Профиль формата                          : LC
Идентификатор кодека                     : 40
Продолжительность                        : 3 м. 22 с.
Duration_FirstFrame                      : 70 мс.
Вид битрейта                             : Переменный
Битрейт                                  : 152 Кбит/сек
Максимальный битрейт                     : 176 Кбит/сек
Каналы                                   : 2 канала
Расположение каналов                     : Front: L R
Частота                                  : 44,1 КГц
Метод сжатия                             : С потерями
Размер потока                            : 3,66 Мбайт (3%)
Дата кодирования                         : UTC 2015-12-19 10:45:51
Дата пометки                             : UTC 2015-12-19 10:45:51
Общее
Полное имя                               : E:\VA - Зимний марафон № 215 (Новогоднее Веселье)\16. Меломаны - Новогодняя (Новогодний клип!).mp4
Формат                                   : MPEG-4
Профиль формата                          : Base Media
Идентификатор кодека                     : isom
Размер файла                             : 140 Мбайт
Продолжительность                        : 4 м. 13 с.
Режим общего битрейта                    : Переменный
Общий поток                              : 4631 Кбит/сек
Дата кодирования                         : UTC 2015-01-17 14:41:59
Дата пометки                             : UTC 2015-01-17 14:41:59
Программа кодирования                    : Lavf54.63.104

Видео
Идентификатор                            : 1
Формат                                   : AVC
Формат/Информация                        : Advanced Video Codec
Профиль формата                          : Main@L4
Параметр CABAC формата                   : Да
Параметр ReFrames формата                : 1 кадр
Идентификатор кодека                     : avc1
Идентификатор кодека/Информация          : Advanced Video Coding
Продолжительность                        : 4 м. 13 с.
Битрейт                                  : 4496 Кбит/сек
Ширина                                   : 1920 пикселей
Высота                                   : 1080 пикселей
Соотношение сторон                       : 16:9
Режим частоты кадров                     : Постоянный
Частота кадров                           : 25,000 кадров/сек
Цветовое пространство                    : YUV
Субдискретизация насыщенности            : 4:2:0
Битовая глубина                          : 8 бит
Тип развёртки                            : Прогрессивная
Бит/(Пиксели*Кадры)                      : 0.087
Размер потока                            : 135 Мбайт (97%)
Библиотека кодирования                   : x264 core 129
Настройки программы                      : cabac=1 / ref=1 / deblock=1:0:0 / analyse=0x1:0x131 / me=dia / subme=2 / psy=1 / psy_rd=1.00:0.00 / mixed_ref=0 / me_range=16 / chroma_me=1 / trellis=0 / 8x8dct=0 / cqm=0 / deadzone=21,11 / fast_pskip=1 / chroma_qp_offset=0 / threads=2 / lookahead_threads=1 / sliced_threads=0 / nr=0 / decimate=1 / interlaced=0 / bluray_compat=0 / constrained_intra=0 / bframes=0 / weightp=2 / keyint=250 / keyint_min=25 / scenecut=40 / intra_refresh=0 / rc_lookahead=40 / rc=abr / mbtree=1 / bitrate=4496 / ratetol=1.0 / qcomp=0.60 / qpmin=10 / qpmax=51 / qpstep=4 / ip_ratio=1.41 / aq=1:1.00
Дата кодирования                         : UTC 2015-01-17 14:41:59
Дата пометки                             : UTC 2015-01-17 14:41:59

Аудио
Идентификатор                            : 2
Формат                                   : AAC
Формат/Информация                        : Advanced Audio Codec
Профиль формата                          : LC
Идентификатор кодека                     : 40
Продолжительность                        : 4 м. 13 с.
Duration_FirstFrame                      : 70 мс.
Вид битрейта                             : Переменный
Битрейт                                  : 151 Кбит/сек
Максимальный битрейт                     : 176 Кбит/сек
Каналы                                   : 2 канала
Расположение каналов                     : Front: L R
Частота                                  : 44,1 КГц
Метод сжатия                             : С потерями
Размер потока                            : 4,56 Мбайт (3%)
Дата кодирования                         : UTC 2015-01-17 14:41:59
Дата пометки                             : UTC 2015-01-17 14:41:59
Общее
Полное имя                               : E:\VA - Зимний марафон № 215 (Новогоднее Веселье)\17. Миша ТаланТ и StoDva ft. Saiton - Новогодняя (Новогодний клип!).mp4
Формат                                   : MPEG-4
Профиль формата                          : Base Media
Идентификатор кодека                     : isom
Размер файла                             : 124 Мбайт
Продолжительность                        : 3 м. 42 с.
Режим общего битрейта                    : Переменный
Общий поток                              : 4692 Кбит/сек
Дата кодирования                         : UTC 2014-11-29 04:57:14
Дата пометки                             : UTC 2014-11-29 04:57:14
Программа кодирования                    : Lavf54.63.104

Видео
Идентификатор                            : 1
Формат                                   : AVC
Формат/Информация                        : Advanced Video Codec
Профиль формата                          : Main@L4
Параметр CABAC формата                   : Да
Параметр ReFrames формата                : 1 кадр
Идентификатор кодека                     : avc1
Идентификатор кодека/Информация          : Advanced Video Coding
Продолжительность                        : 3 м. 42 с.
Битрейт                                  : 4496 Кбит/сек
Ширина                                   : 1920 пикселей
Высота                                   : 1080 пикселей
Соотношение сторон                       : 16:9
Режим частоты кадров                     : Постоянный
Частота кадров                           : 25,000 кадров/сек
Цветовое пространство                    : YUV
Субдискретизация насыщенности            : 4:2:0
Битовая глубина                          : 8 бит
Тип развёртки                            : Прогрессивная
Бит/(Пиксели*Кадры)                      : 0.087
Размер потока                            : 120 Мбайт (97%)
Библиотека кодирования                   : x264 core 129
Настройки программы                      : cabac=1 / ref=1 / deblock=1:0:0 / analyse=0x1:0x131 / me=dia / subme=2 / psy=1 / psy_rd=1.00:0.00 / mixed_ref=0 / me_range=16 / chroma_me=1 / trellis=0 / 8x8dct=0 / cqm=0 / deadzone=21,11 / fast_pskip=1 / chroma_qp_offset=0 / threads=2 / lookahead_threads=1 / sliced_threads=0 / nr=0 / decimate=1 / interlaced=0 / bluray_compat=0 / constrained_intra=0 / bframes=0 / weightp=2 / keyint=250 / keyint_min=25 / scenecut=40 / intra_refresh=0 / rc_lookahead=40 / rc=abr / mbtree=1 / bitrate=4496 / ratetol=1.0 / qcomp=0.60 / qpmin=10 / qpmax=51 / qpstep=4 / ip_ratio=1.41 / aq=1:1.00
Дата кодирования                         : UTC 2014-11-29 04:57:14
Дата пометки                             : UTC 2014-11-29 04:57:14

Аудио
Идентификатор                            : 2
Формат                                   : AAC
Формат/Информация                        : Advanced Audio Codec
Профиль формата                          : LC
Идентификатор кодека                     : 40
Продолжительность                        : 3 м. 42 с.
Duration_FirstFrame                      : 70 мс.
Вид битрейта                             : Переменный
Битрейт                                  : 152 Кбит/сек
Максимальный битрейт                     : 176 Кбит/сек
Каналы                                   : 2 канала
Расположение каналов                     : Front: L R
Частота                                  : 44,1 КГц
Метод сжатия                             : С потерями
Размер потока                            : 4,02 Мбайт (3%)
Дата кодирования                         : UTC 2014-11-29 04:57:14
Дата пометки                             : UTC 2014-11-29 04:57:14
Общее
Полное имя                               : E:\VA - Зимний марафон № 215 (Новогоднее Веселье)\18. Нюша - Это Новый Год (Новогодний клип!).mp4
Формат                                   : MPEG-4
Профиль формата                          : Base Media
Идентификатор кодека                     : isom
Размер файла                             : 127 Мбайт
Продолжительность                        : 3 м. 35 с.
Режим общего битрейта                    : Переменный
Общий поток                              : 4937 Кбит/сек
Дата кодирования                         : UTC 2015-04-22 12:53:59
Дата пометки                             : UTC 2015-04-22 12:53:59
Программа кодирования                    : Lavf54.63.104

Видео
Идентификатор                            : 1
Формат                                   : AVC
Формат/Информация                        : Advanced Video Codec
Профиль формата                          : Main@L4
Параметр CABAC формата                   : Да
Параметр ReFrames формата                : 1 кадр
Идентификатор кодека                     : avc1
Идентификатор кодека/Информация          : Advanced Video Coding
Продолжительность                        : 3 м. 35 с.
Битрейт                                  : 4780 Кбит/сек
Номинальный битрейт                      : 4496 Кбит/сек
Ширина                                   : 1920 пикселей
Высота                                   : 1080 пикселей
Соотношение сторон                       : 16:9
Режим частоты кадров                     : Постоянный
Частота кадров                           : 25,000 кадров/сек
Цветовое пространство                    : YUV
Субдискретизация насыщенности            : 4:2:0
Битовая глубина                          : 8 бит
Тип развёртки                            : Прогрессивная
Бит/(Пиксели*Кадры)                      : 0.092
Размер потока                            : 123 Мбайт (97%)
Библиотека кодирования                   : x264 core 129
Настройки программы                      : cabac=1 / ref=1 / deblock=1:0:0 / analyse=0x1:0x131 / me=dia / subme=2 / psy=1 / psy_rd=1.00:0.00 / mixed_ref=0 / me_range=16 / chroma_me=1 / trellis=0 / 8x8dct=0 / cqm=0 / deadzone=21,11 / fast_pskip=1 / chroma_qp_offset=0 / threads=2 / lookahead_threads=1 / sliced_threads=0 / nr=0 / decimate=1 / interlaced=0 / bluray_compat=0 / constrained_intra=0 / bframes=0 / weightp=2 / keyint=250 / keyint_min=25 / scenecut=40 / intra_refresh=0 / rc_lookahead=40 / rc=abr / mbtree=1 / bitrate=4496 / ratetol=1.0 / qcomp=0.60 / qpmin=10 / qpmax=51 / qpstep=4 / ip_ratio=1.41 / aq=1:1.00
Дата кодирования                         : UTC 2015-04-22 12:53:59
Дата пометки                             : UTC 2015-04-22 12:53:59

Аудио
Идентификатор                            : 2
Формат                                   : AAC
Формат/Информация                        : Advanced Audio Codec
Профиль формата                          : LC
Идентификатор кодека                     : 40
Продолжительность                        : 3 м. 35 с.
Duration_FirstFrame                      : 70 мс.
Вид битрейта                             : Переменный
Битрейт                                  : 152 Кбит/сек
Максимальный битрейт                     : 176 Кбит/сек
Каналы                                   : 2 канала
Расположение каналов                     : Front: L R
Частота                                  : 44,1 КГц
Метод сжатия                             : С потерями
Размер потока                            : 3,91 Мбайт (3%)
Дата кодирования                         : UTC 2015-04-22 12:53:59
Дата пометки                             : UTC 2015-04-22 12:53:59
Общее
Полное имя                               : E:\VA - Зимний марафон № 215 (Новогоднее Веселье)\19. Олег Яковлев - Новогодняя (Новогодний клип!).mp4
Формат                                   : MPEG-4
Профиль формата                          : Base Media
Идентификатор кодека                     : isom
Размер файла                             : 108 Мбайт
Продолжительность                        : 3 м. 17 с.
Режим общего битрейта                    : Переменный
Общий поток                              : 4600 Кбит/сек
Дата кодирования                         : UTC 2015-12-15 10:29:00
Дата пометки                             : UTC 2015-12-15 10:29:00
Программа кодирования                    : Lavf54.63.104

Видео
Идентификатор                            : 1
Формат                                   : AVC
Формат/Информация                        : Advanced Video Codec
Профиль формата                          : Main@L4
Параметр CABAC формата                   : Да
Параметр ReFrames формата                : 1 кадр
Идентификатор кодека                     : avc1
Идентификатор кодека/Информация          : Advanced Video Coding
Продолжительность                        : 3 м. 17 с.
Битрейт                                  : 4496 Кбит/сек
Ширина                                   : 1920 пикселей
Высота                                   : 1080 пикселей
Соотношение сторон                       : 16:9
Режим частоты кадров                     : Постоянный
Частота кадров                           : 25,000 кадров/сек
Цветовое пространство                    : YUV
Субдискретизация насыщенности            : 4:2:0
Битовая глубина                          : 8 бит
Тип развёртки                            : Прогрессивная
Бит/(Пиксели*Кадры)                      : 0.087
Размер потока                            : 105 Мбайт (97%)
Библиотека кодирования                   : x264 core 129
Настройки программы                      : cabac=1 / ref=1 / deblock=1:0:0 / analyse=0x1:0x131 / me=dia / subme=2 / psy=1 / psy_rd=1.00:0.00 / mixed_ref=0 / me_range=16 / chroma_me=1 / trellis=0 / 8x8dct=0 / cqm=0 / deadzone=21,11 / fast_pskip=1 / chroma_qp_offset=0 / threads=2 / lookahead_threads=1 / sliced_threads=0 / nr=0 / decimate=1 / interlaced=0 / bluray_compat=0 / constrained_intra=0 / bframes=0 / weightp=2 / keyint=250 / keyint_min=25 / scenecut=40 / intra_refresh=0 / rc_lookahead=40 / rc=abr / mbtree=1 / bitrate=4496 / ratetol=1.0 / qcomp=0.60 / qpmin=10 / qpmax=51 / qpstep=4 / ip_ratio=1.41 / aq=1:1.00
Дата кодирования                         : UTC 2015-12-15 10:29:00
Дата пометки                             : UTC 2015-12-15 10:29:00

Аудио
Идентификатор                            : 2
Формат                                   : AAC
Формат/Информация                        : Advanced Audio Codec
Профиль формата                          : LC
Идентификатор кодека                     : 40
Продолжительность                        : 3 м. 17 с.
Duration_FirstFrame                      : 70 мс.
Вид битрейта                             : Переменный
Битрейт                                  : 144 Кбит/сек
Максимальный битрейт                     : 176 Кбит/сек
Каналы                                   : 2 канала
Расположение каналов                     : Front: L R
Частота                                  : 44,1 КГц
Метод сжатия                             : С потерями
Размер потока                            : 3,45 Мбайт (3%)
Дата кодирования                         : UTC 2015-12-15 10:29:00
Дата пометки                             : UTC 2015-12-15 10:29:00
Общее
Полное имя                               : E:\VA - Зимний марафон № 215 (Новогоднее Веселье)\20. Ольга Маковецкая - Снег (Новогодний клип!).mp4
Формат                                   : MPEG-4
Профиль формата                          : Base Media
Идентификатор кодека                     : isom
Размер файла                             : 132 Мбайт
Продолжительность                        : 3 м. 50 с.
Режим общего битрейта                    : Переменный
Общий поток                              : 4815 Кбит/сек
Дата кодирования                         : UTC 2014-01-07 00:58:45
Дата пометки                             : UTC 2014-01-07 00:58:45
Программа кодирования                    : Lavf54.63.104

Видео
Идентификатор                            : 1
Формат                                   : AVC
Формат/Информация                        : Advanced Video Codec
Профиль формата                          : Main@L4
Параметр CABAC формата                   : Да
Параметр ReFrames формата                : 1 кадр
Идентификатор кодека                     : avc1
Идентификатор кодека/Информация          : Advanced Video Coding
Продолжительность                        : 3 м. 50 с.
Битрейт                                  : 4496 Кбит/сек
Ширина                                   : 1920 пикселей
Высота                                   : 1080 пикселей
Соотношение сторон                       : 16:9
Режим частоты кадров                     : Постоянный
Частота кадров                           : 25,000 кадров/сек
Цветовое пространство                    : YUV
Субдискретизация насыщенности            : 4:2:0
Битовая глубина                          : 8 бит
Тип развёртки                            : Прогрессивная
Бит/(Пиксели*Кадры)                      : 0.087
Размер потока                            : 128 Мбайт (97%)
Библиотека кодирования                   : x264 core 129
Настройки программы                      : cabac=1 / ref=1 / deblock=1:0:0 / analyse=0x1:0x131 / me=dia / subme=2 / psy=1 / psy_rd=1.00:0.00 / mixed_ref=0 / me_range=16 / chroma_me=1 / trellis=0 / 8x8dct=0 / cqm=0 / deadzone=21,11 / fast_pskip=1 / chroma_qp_offset=0 / threads=2 / lookahead_threads=1 / sliced_threads=0 / nr=0 / decimate=1 / interlaced=0 / bluray_compat=0 / constrained_intra=0 / bframes=0 / weightp=2 / keyint=250 / keyint_min=25 / scenecut=40 / intra_refresh=0 / rc_lookahead=40 / rc=abr / mbtree=1 / bitrate=4496 / ratetol=1.0 / qcomp=0.60 / qpmin=10 / qpmax=51 / qpstep=4 / ip_ratio=1.41 / aq=1:1.00
Дата кодирования                         : UTC 2014-01-07 00:58:45
Дата пометки                             : UTC 2014-01-07 00:58:45

Аудио
Идентификатор                            : 2
Формат                                   : AAC
Формат/Информация                        : Advanced Audio Codec
Профиль формата                          : LC
Идентификатор кодека                     : 40
Продолжительность                        : 3 м. 50 с.
Duration_FirstFrame                      : 70 мс.
Вид битрейта                             : Переменный
Битрейт                                  : 151 Кбит/сек
Максимальный битрейт                     : 176 Кбит/сек
Каналы                                   : 2 канала
Расположение каналов                     : Front: L R
Частота                                  : 44,1 КГц
Метод сжатия                             : С потерями
Размер потока                            : 4,15 Мбайт (3%)
Дата кодирования                         : UTC 2014-01-07 00:58:45
Дата пометки                             : UTC 2014-01-07 00:58:45
Общее
Полное имя                               : E:\VA - Зимний марафон № 215 (Новогоднее Веселье)\21. Пающие трусы - Новогодняя (ничего не помню.) (Новогодний клип!).mp4
Формат                                   : MPEG-4
Профиль формата                          : Base Media
Идентификатор кодека                     : isom
Размер файла                             : 117 Мбайт
Продолжительность                        : 3 м. 28 с.
Режим общего битрейта                    : Переменный
Общий поток                              : 4701 Кбит/сек
Дата кодирования                         : UTC 2014-03-07 07:05:02
Дата пометки                             : UTC 2014-03-07 07:05:02
Программа кодирования                    : Lavf54.63.104

Видео
Идентификатор                            : 1
Формат                                   : AVC
Формат/Информация                        : Advanced Video Codec
Профиль формата                          : Main@L4
Параметр CABAC формата                   : Да
Параметр ReFrames формата                : 1 кадр
Идентификатор кодека                     : avc1
Идентификатор кодека/Информация          : Advanced Video Coding
Продолжительность                        : 3 м. 28 с.
Битрейт                                  : 4496 Кбит/сек
Ширина                                   : 1920 пикселей
Высота                                   : 1080 пикселей
Соотношение сторон                       : 16:9
Режим частоты кадров                     : Постоянный
Частота кадров                           : 25,000 кадров/сек
Цветовое пространство                    : YUV
Субдискретизация насыщенности            : 4:2:0
Битовая глубина                          : 8 бит
Тип развёртки                            : Прогрессивная
Бит/(Пиксели*Кадры)                      : 0.087
Размер потока                            : 113 Мбайт (97%)
Библиотека кодирования                   : x264 core 129
Настройки программы                      : cabac=1 / ref=1 / deblock=1:0:0 / analyse=0x1:0x131 / me=dia / subme=2 / psy=1 / psy_rd=1.00:0.00 / mixed_ref=0 / me_range=16 / chroma_me=1 / trellis=0 / 8x8dct=0 / cqm=0 / deadzone=21,11 / fast_pskip=1 / chroma_qp_offset=0 / threads=2 / lookahead_threads=1 / sliced_threads=0 / nr=0 / decimate=1 / interlaced=0 / bluray_compat=0 / constrained_intra=0 / bframes=0 / weightp=2 / keyint=250 / keyint_min=25 / scenecut=40 / intra_refresh=0 / rc_lookahead=40 / rc=abr / mbtree=1 / bitrate=4496 / ratetol=1.0 / qcomp=0.60 / qpmin=10 / qpmax=51 / qpstep=4 / ip_ratio=1.41 / aq=1:1.00
Дата кодирования                         : UTC 2014-03-07 07:05:02
Дата пометки                             : UTC 2014-03-07 07:05:02

Аудио
Идентификатор                            : 2
Формат                                   : AAC
Формат/Информация                        : Advanced Audio Codec
Профиль формата                          : LC
Идентификатор кодека                     : 40
Продолжительность                        : 3 м. 28 с.
Duration_FirstFrame                      : 70 мс.
Вид битрейта                             : Переменный
Битрейт                                  : 152 Кбит/сек
Максимальный битрейт                     : 176 Кбит/сек
Каналы                                   : 2 канала
Расположение каналов                     : Front: L R
Частота                                  : 44,1 КГц
Метод сжатия                             : С потерями
Размер потока                            : 3,77 Мбайт (3%)
Дата кодирования                         : UTC 2014-03-07 07:05:02
Дата пометки                             : UTC 2014-03-07 07:05:02
Общее
Полное имя                               : E:\VA - Зимний марафон № 215 (Новогоднее Веселье)\22. Руки Вверх - Я тебя люблю (Новогодний Club Mix).mp4
Формат                                   : MPEG-4
Профиль формата                          : Base Media
Идентификатор кодека                     : isom
Размер файла                             : 170 Мбайт
Продолжительность                        : 5 м. 0 с.
Режим общего битрейта                    : Переменный
Общий поток                              : 4741 Кбит/сек
Дата кодирования                         : UTC 2014-01-08 02:01:28
Дата пометки                             : UTC 2014-01-08 02:01:28
Программа кодирования                    : Lavf54.63.104

Видео
Идентификатор                            : 1
Формат                                   : AVC
Формат/Информация                        : Advanced Video Codec
Профиль формата                          : Main@L4
Параметр CABAC формата                   : Да
Параметр ReFrames формата                : 1 кадр
Идентификатор кодека                     : avc1
Идентификатор кодека/Информация          : Advanced Video Coding
Продолжительность                        : 5 м. 0 с.
Битрейт                                  : 4496 Кбит/сек
Ширина                                   : 1920 пикселей
Высота                                   : 1080 пикселей
Соотношение сторон                       : 16:9
Режим частоты кадров                     : Постоянный
Частота кадров                           : 25,000 кадров/сек
Цветовое пространство                    : YUV
Субдискретизация насыщенности            : 4:2:0
Битовая глубина                          : 8 бит
Тип развёртки                            : Прогрессивная
Бит/(Пиксели*Кадры)                      : 0.087
Размер потока                            : 164 Мбайт (97%)
Библиотека кодирования                   : x264 core 129
Настройки программы                      : cabac=1 / ref=1 / deblock=1:0:0 / analyse=0x1:0x131 / me=dia / subme=2 / psy=1 / psy_rd=1.00:0.00 / mixed_ref=0 / me_range=16 / chroma_me=1 / trellis=0 / 8x8dct=0 / cqm=0 / deadzone=21,11 / fast_pskip=1 / chroma_qp_offset=0 / threads=2 / lookahead_threads=1 / sliced_threads=0 / nr=0 / decimate=1 / interlaced=0 / bluray_compat=0 / constrained_intra=0 / bframes=0 / weightp=2 / keyint=250 / keyint_min=25 / scenecut=40 / intra_refresh=0 / rc_lookahead=40 / rc=abr / mbtree=1 / bitrate=4496 / ratetol=1.0 / qcomp=0.60 / qpmin=10 / qpmax=51 / qpstep=4 / ip_ratio=1.41 / aq=1:1.00
Дата кодирования                         : UTC 2014-01-08 02:01:28
Дата пометки                             : UTC 2014-01-08 02:01:28

Аудио
Идентификатор                            : 2
Формат                                   : AAC
Формат/Информация                        : Advanced Audio Codec
Профиль формата                          : LC
Идентификатор кодека                     : 40
Продолжительность                        : 4 м. 59 с.
Duration_FirstFrame                      : 70 мс.
Вид битрейта                             : Переменный
Битрейт                                  : 152 Кбит/сек
Максимальный битрейт                     : 176 Кбит/сек
Каналы                                   : 2 канала
Расположение каналов                     : Front: L R
Частота                                  : 44,1 КГц
Метод сжатия                             : С потерями
Размер потока                            : 5,43 Мбайт (3%)
Дата кодирования                         : UTC 2014-01-08 02:01:28
Дата пометки                             : UTC 2014-01-08 02:01:28
Общее
Полное имя                               : E:\VA - Зимний марафон № 215 (Новогоднее Веселье)\23. Секрет - На любой стороне Земли (OST Ёлки 3) (Новогодний клип!).mp4
Формат                                   : MPEG-4
Профиль формата                          : Base Media
Идентификатор кодека                     : isom
Размер файла                             : 115 Мбайт
Продолжительность                        : 3 м. 26 с.
Режим общего битрейта                    : Переменный
Общий поток                              : 4648 Кбит/сек
Дата кодирования                         : UTC 2014-01-07 01:11:08
Дата пометки                             : UTC 2014-01-07 01:11:08
Программа кодирования                    : Lavf54.63.104

Видео
Идентификатор                            : 1
Формат                                   : AVC
Формат/Информация                        : Advanced Video Codec
Профиль формата                          : Main@L4
Параметр CABAC формата                   : Да
Параметр ReFrames формата                : 1 кадр
Идентификатор кодека                     : avc1
Идентификатор кодека/Информация          : Advanced Video Coding
Продолжительность                        : 3 м. 26 с.
Битрейт                                  : 4496 Кбит/сек
Ширина                                   : 1920 пикселей
Высота                                   : 1080 пикселей
Соотношение сторон                       : 16:9
Режим частоты кадров                     : Постоянный
Частота кадров                           : 25,000 кадров/сек
Цветовое пространство                    : YUV
Субдискретизация насыщенности            : 4:2:0
Битовая глубина                          : 8 бит
Тип развёртки                            : Прогрессивная
Бит/(Пиксели*Кадры)                      : 0.087
Размер потока                            : 112 Мбайт (98%)
Библиотека кодирования                   : x264 core 129
Настройки программы                      : cabac=1 / ref=1 / deblock=1:0:0 / analyse=0x1:0x131 / me=dia / subme=2 / psy=1 / psy_rd=1.00:0.00 / mixed_ref=0 / me_range=16 / chroma_me=1 / trellis=0 / 8x8dct=0 / cqm=0 / deadzone=21,11 / fast_pskip=1 / chroma_qp_offset=0 / threads=2 / lookahead_threads=1 / sliced_threads=0 / nr=0 / decimate=1 / interlaced=0 / bluray_compat=0 / constrained_intra=0 / bframes=0 / weightp=2 / keyint=250 / keyint_min=25 / scenecut=40 / intra_refresh=0 / rc_lookahead=40 / rc=abr / mbtree=1 / bitrate=4496 / ratetol=1.0 / qcomp=0.60 / qpmin=10 / qpmax=51 / qpstep=4 / ip_ratio=1.41 / aq=1:1.00
Дата кодирования                         : UTC 2014-01-07 01:11:08
Дата пометки                             : UTC 2014-01-07 01:11:08

Аудио
Идентификатор                            : 2
Формат                                   : AAC
Формат/Информация                        : Advanced Audio Codec
Профиль формата                          : LC
Идентификатор кодека                     : 40
Продолжительность                        : 3 м. 26 с.
Duration_FirstFrame                      : 70 мс.
Вид битрейта                             : Переменный
Битрейт                                  : 111 Кбит/сек
Максимальный битрейт                     : 176 Кбит/сек
Каналы                                   : 2 канала
Расположение каналов                     : Front: L R
Частота                                  : 44,1 КГц
Метод сжатия                             : С потерями
Размер потока                            : 2,73 Мбайт (2%)
Дата кодирования                         : UTC 2014-01-07 01:11:08
Дата пометки                             : UTC 2014-01-07 01:11:08
Общее
Полное имя                               : E:\VA - Зимний марафон № 215 (Новогоднее Веселье)\24. Фристайл и Сергей Кузнецов ft. Нина Кирсо - Белая вьюга (Новогодний клип!).mp4
Формат                                   : MPEG-4
Профиль формата                          : Base Media
Идентификатор кодека                     : isom
Размер файла                             : 128 Мбайт
Продолжительность                        : 3 м. 51 с.
Режим общего битрейта                    : Переменный
Общий поток                              : 4647 Кбит/сек
Дата кодирования                         : UTC 2014-07-30 01:40:41
Дата пометки                             : UTC 2014-07-30 01:40:41
Программа кодирования                    : Lavf54.63.104

Видео
Идентификатор                            : 1
Формат                                   : AVC
Формат/Информация                        : Advanced Video Codec
Профиль формата                          : Main@L4
Параметр CABAC формата                   : Да
Параметр ReFrames формата                : 1 кадр
Идентификатор кодека                     : avc1
Идентификатор кодека/Информация          : Advanced Video Coding
Продолжительность                        : 3 м. 51 с.
Битрейт                                  : 4496 Кбит/сек
Ширина                                   : 1920 пикселей
Высота                                   : 1080 пикселей
Соотношение сторон                       : 16:9
Режим частоты кадров                     : Постоянный
Частота кадров                           : 25,000 кадров/сек
Цветовое пространство                    : YUV
Субдискретизация насыщенности            : 4:2:0
Битовая глубина                          : 8 бит
Тип развёртки                            : Прогрессивная
Бит/(Пиксели*Кадры)                      : 0.087
Размер потока                            : 124 Мбайт (97%)
Библиотека кодирования                   : x264 core 129
Настройки программы                      : cabac=1 / ref=1 / deblock=1:0:0 / analyse=0x1:0x131 / me=dia / subme=2 / psy=1 / psy_rd=1.00:0.00 / mixed_ref=0 / me_range=16 / chroma_me=1 / trellis=0 / 8x8dct=0 / cqm=0 / deadzone=21,11 / fast_pskip=1 / chroma_qp_offset=0 / threads=2 / lookahead_threads=1 / sliced_threads=0 / nr=0 / decimate=1 / interlaced=0 / bluray_compat=0 / constrained_intra=0 / bframes=0 / weightp=2 / keyint=250 / keyint_min=25 / scenecut=40 / intra_refresh=0 / rc_lookahead=40 / rc=abr / mbtree=1 / bitrate=4496 / ratetol=1.0 / qcomp=0.60 / qpmin=10 / qpmax=51 / qpstep=4 / ip_ratio=1.41 / aq=1:1.00
Дата кодирования                         : UTC 2014-07-30 01:40:41
Дата пометки                             : UTC 2014-07-30 01:40:41

Аудио
Идентификатор                            : 2
Формат                                   : AAC
Формат/Информация                        : Advanced Audio Codec
Профиль формата                          : LC
Идентификатор кодека                     : 40
Продолжительность                        : 3 м. 51 с.
Duration_FirstFrame                      : 70 мс.
Вид битрейта                             : Переменный
Битрейт                                  : 152 Кбит/сек
Максимальный битрейт                     : 176 Кбит/сек
Каналы                                   : 2 канала
Расположение каналов                     : Front: L R
Частота                                  : 44,1 КГц
Метод сжатия                             : С потерями
Размер потока                            : 4,18 Мбайт (3%)
Дата кодирования                         : UTC 2014-07-30 01:40:41
Дата пометки                             : UTC 2014-07-30 01:40:41
Общее
Полное имя                               : E:\VA - Зимний марафон № 215 (Новогоднее Веселье)\25. Шахзода - Моё чудо (Новогодний клип!).mp4
Формат                                   : MPEG-4
Профиль формата                          : Base Media
Идентификатор кодека                     : isom
Размер файла                             : 122 Мбайт
Продолжительность                        : 3 м. 33 с.
Режим общего битрейта                    : Переменный
Общий поток                              : 4795 Кбит/сек
Дата кодирования                         : UTC 2015-12-12 08:51:55
Дата пометки                             : UTC 2015-12-12 08:51:55
Программа кодирования                    : Lavf54.63.104

Видео
Идентификатор                            : 1
Формат                                   : AVC
Формат/Информация                        : Advanced Video Codec
Профиль формата                          : Main@L4
Параметр CABAC формата                   : Да
Параметр ReFrames формата                : 1 кадр
Идентификатор кодека                     : avc1
Идентификатор кодека/Информация          : Advanced Video Coding
Продолжительность                        : 3 м. 33 с.
Битрейт                                  : 4496 Кбит/сек
Ширина                                   : 1920 пикселей
Высота                                   : 1080 пикселей
Соотношение сторон                       : 16:9
Режим частоты кадров                     : Постоянный
Частота кадров                           : 25,000 кадров/сек
Цветовое пространство                    : YUV
Субдискретизация насыщенности            : 4:2:0
Битовая глубина                          : 8 бит
Тип развёртки                            : Прогрессивная
Бит/(Пиксели*Кадры)                      : 0.087
Размер потока                            : 118 Мбайт (97%)
Библиотека кодирования                   : x264 core 129
Настройки программы                      : cabac=1 / ref=1 / deblock=1:0:0 / analyse=0x1:0x131 / me=dia / subme=2 / psy=1 / psy_rd=1.00:0.00 / mixed_ref=0 / me_range=16 / chroma_me=1 / trellis=0 / 8x8dct=0 / cqm=0 / deadzone=21,11 / fast_pskip=1 / chroma_qp_offset=0 / threads=2 / lookahead_threads=1 / sliced_threads=0 / nr=0 / decimate=1 / interlaced=0 / bluray_compat=0 / constrained_intra=0 / bframes=0 / weightp=2 / keyint=250 / keyint_min=25 / scenecut=40 / intra_refresh=0 / rc_lookahead=40 / rc=abr / mbtree=1 / bitrate=4496 / ratetol=1.0 / qcomp=0.60 / qpmin=10 / qpmax=51 / qpstep=4 / ip_ratio=1.41 / aq=1:1.00
Дата кодирования                         : UTC 2015-12-12 08:51:55
Дата пометки                             : UTC 2015-12-12 08:51:55

Аудио
Идентификатор                            : 2
Формат                                   : AAC
Формат/Информация                        : Advanced Audio Codec
Профиль формата                          : LC
Идентификатор кодека                     : 40
Продолжительность                        : 3 м. 33 с.
Duration_FirstFrame                      : 70 мс.
Вид битрейта                             : Переменный
Битрейт                                  : 151 Кбит/сек
Максимальный битрейт                     : 176 Кбит/сек
Каналы                                   : 2 канала
Расположение каналов                     : Front: L R
Частота                                  : 44,1 КГц
Метод сжатия                             : С потерями
Размер потока                            : 3,83 Мбайт (3%)
Дата кодирования                         : UTC 2015-12-12 08:51:55
Дата пометки                             : UTC 2015-12-12 08:51:55

Скриншоты:


Новогоднего настроения и


Время раздачи: 24/7 - до 5 скачавших, далее по возможности.
 
Не забывайте говорить Спасибо. Не уходите с раздачи!   
Торрент: Зарегистрирован [27 дек 2015, 06:13] Скачать торрент
Скачать торрент
[ Размер 18.77 КБ / Просмотров 20 ]
Статус:
Проверен
 
.torrent скачан: 0 раз
Хэш: e85fea54984787cfcf455fc5976f77cd24b54bac
Размер: 2.95 ГБ (3 165 960 312 байт)
Стать Автором раздачи
 
 
Раздал: 0 байт
Скачал: 0 байт
Ратио: Inf.
Сообщения: 188877
Зарегистрирован: 14 июн 2014, 20:46


  • Похожие торренты
    Ответы
    Просмотры
    Последнее сообщение

Вернуться в Музыкальные клипы (транзит)

Ресурс не предоставляет электронные версии произведений, а занимается лишь коллекционированием и каталогизацией ссылок, присылаемых и публикуемых на форуме нашими читателями. Если вы являетесь правообладателем какого-либо представленного материала и не желаете чтобы ссылка на него находилась в нашем каталоге, свяжитесь с нами и мы незамедлительно удалим её. Файлы для обмена на трекере предоставлены пользователями сайта, и администрация не несёт ответственности за их содержание. Просьба не заливать файлы, защищенные авторскими правами, а также файлы нелегального содержания!
cron