Animal Planet: Беловежская пуща: первозданный лес / The Primeval Forest of Belovezhskaya Pushcha (2015) HDTVRip [H.264/720p]

 
 Статистика раздачи 
Размер: 1.64 ГБ   |  Зарегистрирован: 24 дек 2015, 20:54   |   .torrent скачан: 2 раз
Сидеров: 1  [ 0 байт/сек ]     Личеров: 0  [ 0 байт/сек ]  
  

Animal Planet: Беловежская пуща: первозданный лес / The Primeval Forest of Belovezhskaya Pushcha (2015) HDTVRip [H.264/720p]

Сообщение i926 » 24 дек 2015, 20:54

Animal Planet: Беловежская пуща: первозданный лес / The Primeval Forest of Belovezhskaya Pushcha (2015) HDTVRip

Жанр: Документальный, путешествия, флора, фауна
Страна: США, VS Media for Discovery
Режиссер: Anton Verstakov

Описание:
"Это заповедник Беловежская пуща в Беларуси. Древний лес, который находится под защитой благодаря своим огромным размерам, труднодоступности и безграничному величию. Это капсула времени для многих животных. Они сохранились здесь, в то время как остальные первобытные экосистемы планеты были разрушены человеком. Заповедник позволил выжить многим видам, которые практически вымерли в других регионах Земли", — сообщает диктор в самом начале фильма.
Оказалось, что зубр, как и подорлик белый, и волк, и летучая мышь - тот редчайший представитель фауны, которого нигде, кроме как в Беловежской пуще встретить нельзя. Съемочная группа "Animal Plane" не могла обойти вниманием белорусские природные богатства. Фильм теперь войдет в мировую научную телеэнциклопедию. Создатели постарались уместить в него более чем полторы тысячи гектаров заповедника и самое большое в Европе количество видов растений и животных.
Съемки картины "Беловежская пуща. Первозданный лес" продолжались два месяца, в конце сентября он был презентован в Минске. Фильм создавался по инициативе Министерства информации Беларуси при поддержке Управления делами Президента.
Зрелищный фильм показывает природные красоты уникального реликтового леса, рассказывает о жизни его фауны. Авторы позаботились о том, чтобы зритель увидел Беловежскую пущу с необычных ракурсов. Авторы фильма отмечают большую привлекательность национального парка для туристов и выражают надежду на то, что после показа по всей Европе увеличится туристический поток в Беловежскую пущу.
Красоту белорусской пущи зритель увидит глазами троих операторов, которые на три летних месяца поселились в Беловежье и вместе с проводниками и учеными прошли самыми потаенными тропами. Технологии съемочного режима гости максимально подчинили сохранению экологического равновесия. Ради редкого кадра - многодневные пешие маршруты и многочасовые телезасады на сверхосторожных обитателей пущи. За их непосредственностью и очарованием создателям удалось увидеть и передать зрителю не только природные богатства, но и бережное отношение белорусов к ним.
Фильм о Беловежской пуще - не последний проект "Animal Planet" в Беларуси. "Дискавери" хотел бы увидеть и запечатлеть природный заповедник в разные поры года.

Продолжительность: 00:43:46
Качество видео: HDTVRip

Перевод: Одноголосый закадровый, профессиональный



Видео: AVC/H.264, 1280x720, ~5000 Kbps
Аудио: AC3, 6 ch, 384kbps
Код:
Код: Выделить всё
Format : Matroska
Format version : Version 4 / Version 2
File size : 1.64 GiB
Duration : 43mn 45s
Overall bit rate mode : Variable
Overall bit rate : 5 363 Kbps
Encoded date : UTC 2015-12-16 20:13:13
Writing application : mkvmerge v7.3.0 ('Nouages') 64bit built on Oct 22 2014 18:53:34
Writing library : libebml v1.3.0 + libmatroska v1.4.1
DURATION : 00:43:45.640000000
NUMBER_OF_FRAMES : 65641
NUMBER_OF_BYTES : 1633513331
_STATISTICS_WRITING_APP : mkvmerge v7.3.0 ('Nouages') 64bit built on Oct 22 2014 18:53:34
_STATISTICS_WRITING_DATE_UTC : 2015-12-16 20:13:13
_STATISTICS_TAGS : BPS DURATION NUMBER_OF_FRAMES NUMBER_OF_BYTES

Video
ID : 1
Format : AVC
Format/Info : Advanced Video Codec
Format profile :
Format settings, CABAC : Yes
Format settings, ReFrames : 3 frames
Codec ID : V_MPEG4/ISO/AVC
Duration : 43mn 45s
Bit rate mode : Variable
Bit rate : 5 000 Kbps
Maximum bit rate : 8 000 Kbps
Width : 1 280 pixels
Height : 720 pixels
Display aspect ratio : 16:9
Frame rate mode : Constant
Frame rate : 25.000 fps
Standard : NTSC
Color space : YUV
Chroma subsampling : 4:2:0
Bit depth : 8 bits
Scan type : Progressive
Bits/(Pixel*Frame) : 0.217
Stream size : 1.49 GiB (91%)
Writing library : x264 core 114
Encoding settings : cabac=1 / ref=3 / deblock=1:0:0 / analyse=0x3:0x113 / me=hex / subme=7 / psy=1 / psy_rd=1.00:0.00 / mixed_ref=1 / me_range=16 / chroma_me=1 / trellis=1 / 8x8dct=1 / cqm=2 / deadzone=21,11 / fast_pskip=1 / chroma_qp_offset=-4 / threads=6 / sliced_threads=0 / slices=1 / nr=0 / decimate=1 / interlaced=0 / constrained_intra=0 / bframes=3 / b_pyramid=0 / b_adapt=1 / b_bias=0 / direct=1 / weightb=1 / open_gop=0 / weightp=2 / keyint=250 / keyint_min=25 / scenecut=40 / intra_refresh=0 / rc_lookahead=40 / rc=2pass / mbtree=1 / bitrate=5000 / ratetol=1.0 / qcomp=0.60 / qpmin=5 / qpmax=69 / qpstep=4 / cplxblur=20.0 / qblur=0.5 / vbv_maxrate=8000 / vbv_bufsize=7995 / nal_hrd=vbr / ip_ratio=1.40 / aq=1:1.00
Default : Yes
Forced : No
Color primaries : BT.709
Transfer characteristics : BT.709
Matrix coefficients : BT.709
Color range : Limited

Audio
ID : 2
Format : AC-3
Format/Info : Audio Coding 3
Mode extension : CM (complete main)
Format settings, Endianness : Big
Codec ID : A_AC3
Duration : 43mn 45s
Bit rate mode : Constant
Bit rate : 384 Kbps
Channel(s) : 6 channels
Channel positions : Front: L C R, Side: L R, LFE
Sampling rate : 48.0 KHz
Bit depth : 16 bits
Compression mode : Lossy
Stream size : 120 MiB (7%)
Default : Yes
Forced : No

Скриншоты:


Время раздачи: 24/7
 
Не забывайте говорить Спасибо. Не уходите с раздачи!   
Торрент: Зарегистрирован [24 дек 2015, 20:54] Для скачивания .torrent
необходима регистрация
Или скачать с помощью
MediaGet
Статус:
Проверен
 
.torrent скачан: 2 раз
Хэш: 38beca198928e522c51d82a281a0ac920772bd32
Размер: 1.64 ГБ (1 760 155 229 байт)
Стать Автором раздачи
 
Аватара пользователя
Главный редактор
Главный редактор
 
Раздал: 15.32 ТБ
Скачал: 12.46 ТБ
Ратио: 1.230
Сообщения: 64503
Зарегистрирован: 01 мар 2011, 23:07


  • Похожие торренты
    Ответы
    Просмотры
    Последнее сообщение

Вернуться в Animal Planet

Кто сейчас на конференции

Сейчас эту тему просматривают: нет зарегистрированных пользователей и гости: 1

Ресурс не предоставляет электронные версии произведений, а занимается лишь коллекционированием и каталогизацией ссылок, присылаемых и публикуемых на форуме нашими читателями. Если вы являетесь правообладателем какого-либо представленного материала и не желаете чтобы ссылка на него находилась в нашем каталоге, свяжитесь с нами и мы незамедлительно удалим её. Файлы для обмена на трекере предоставлены пользователями сайта, и администрация не несёт ответственности за их содержание. Просьба не заливать файлы, защищенные авторскими правами, а также файлы нелегального содержания!