Versus Battle (2013-2015) HDTV [H.264/1080i-LQ] [Выпуски 1-48 из ?] [ОБНОВЛЯЕМАЯ]

 
 Статистика раздачи 
Размер: 18.62 ГБ   |  Зарегистрирован: 23 дек 2015, 07:34   |   .torrent скачан: 0 раз
Сидеров: 1  [ 0 байт/сек ]     Личеров: 0  [ 0 байт/сек ]  
  

Versus Battle (2013-2015) HDTV [H.264/1080i-LQ] [Выпуски 1-48 из ?] [ОБНОВЛЯЕМАЯ]

Сообщение bagouser » 23 дек 2015, 07:34

Versus Battle (2013-2015) HDTV [H.264/1080i-LQ]

Производство: Россия
Жанр: Музыкальный, Короткометражный, Комедия

Режиссер: Сашок Restorator Тимарцев
Актеры: Ресторатор, Гарри Топор, Oxxxymiron, СД, Galat, ST, Johnyboy, D'Masta, Chet, I1, Марина Кацуба, Паша Техник и другие

Описание:
Versus Battle — популярное российское интернет-шоу в жанре комедия, аналог зарубежных проектов «Don't Flopruen» и «KOTDruen».
Выходит по воскресеньям. Первый сезон выпускался еженедельно с 25 августа 2013 года по 12 января 2014 года на портале YouTube. Второй сезон стартовал 1 марта 2014 года.
На данный момент на YouTube-канал интернет-шоу подписалось свыше 500 тысяч человек. Versus Battle победил в общественном голосовании «Hip-hop.ru Awards 2013» в номинации «Событие года 2013».
Также существует спин-офф-проект «Versus: Fresh Blood» («Versus: Свежая кровь»), в рамках которого в баттлах принимают участие начинающие и малоизвестные рэп и хип-хоп-исполнители.
В апреле 2015 года баттл Oxxxymiron'а и Johnyboy'я набрал один миллион просмотров и вошел в историю мирового хип-хопа как самый просматриваемый баттл за сутки.

Продолжительность: 48 выпусков по ~20 минут
Качество видео: [1080i-LQ]

Видео: AVC/H.264, 1920x1080, ~2816 kbps
Аудио: AAC, 2 ch, 125 kbps, CBR
Код:
Код: Выделить всё
General
Complete name                  : D:\Сериалы\Versus Battle\Основа\5. Межсезонье\Versus Межсезонье #1_ D.Masta vs Galat.mp4
Format                         : MPEG-4
Format profile                 : Base Media
Codec ID                       : isom (isom/iso2/avc1/mp41)
File size                      : 495 MiB
Duration                       : 23mn 29s
Overall bit rate               : 2 948 Kbps
Writing application            : Lavf54.63.104

Video
ID                             : 1
Format                         : AVC
Format/Info                    : Advanced Video Codec
Format profile                 : High@L4
Format settings, CABAC         : Yes
Format settings, ReFrames      : 3 frames
Codec ID                       : avc1
Codec ID/Info                  : Advanced Video Coding
Duration                       : 23mn 29s
Bit rate                       : 2 816 Kbps
Width                          : 1 920 pixels
Height                         : 1 080 pixels
Display aspect ratio           : 16:9
Frame rate mode                : Constant
Frame rate                     : 25.000 fps
Color space                    : YUV
Chroma subsampling             : 4:2:0
Bit depth                      : 8 bits
Scan type                      : Progressive
Bits/(Pixel*Frame)             : 0.054
Stream size                    : 473 MiB (96%)

Audio
ID                             : 2
Format                         : AAC
Format/Info                    : Advanced Audio Codec
Format profile                 : LC
Codec ID                       : 40
Duration                       : 23mn 29s
Bit rate mode                  : Constant
Bit rate                       : 126 Kbps
Channel(s)                     : 2 channels
Channel positions              : Front: L R
Sampling rate                  : 44.1 KHz
Frame rate                     : 43.066 fps (1024 spf)
Compression mode               : Lossy
Stream size                    : 21.1 MiB (4%)
Default                        : Yes
Alternate group                : 1
Очерёдность баттлов, соперники:
VERSUS #1: Гарри Топор VS Billy Milligan
VERSUS #2: Xохол VS Галат
VERSUS #3: Oxxxymiron VS Крип-А-Крип
VERSUS #4: I1 VS Meowizzy
VERSUS #5: СД VS Хайд
VERSUS #6: Брол VS Just [TERRA INCOGNITA]
VERSUS #7: Гарри Топор VS CZAR
VERSUS #8: Meowizzy VS Басота
VERSUS #9: Heavy VS Ruskey
VERSUS #10: Jubilee VS Хатт
VERSUS #11: СД VS Johnyboy
VERSUS #12: Yanix VS Galat
VERSUS #13: Гарри Топор VS Noize MC
VERSUS #14: ATL VS Энди Картрайт
VERSUS #15: Mc MoonStar & Саморез VS John Rai & украинец (OVD)
VERSUS #16: MEOWIZZY VS BES [DA TEMPO]
VERSUS #17: ДУНЯ VS XОХОЛ
VERSUS #18: I1 VS МЦСКВОТ
VERSUS #19: DOM1NO VS ЭНДИ КАРТРАЙТ
VERSUS #20: GALAT & HEAVY VS TANIR & КАРАБИН [DGJ]
VERSUS #1 (сезон II): Johnyboy VS Jubilee
VERSUS #2 (сезон II): ST vs Гарри Топор
VERSUS #3 (сезон II): Дима Гамбит vs Obe 1 Kanobe
VERSUS #4 (сезон II): Артем Лоик vs Xохол (OVD)
VERSUS #5 (сезон II): Басота vs Drago
VERSUS #6 (сезон II): Брол VS Rokki Roketto
VERSUS #7 (сезон II): Саша Скул (Бухенвальд Флава) VS John Rai
VERSUS #8 (сезон II): Артем Татищевский VS ?
Versus Main Event #1 (сезон II): Дуня VS Oxxxymiron (OFFICIAL FULL VIDEO)
Versus Main Event #2 (сезон II): Young P&H VS Moonstar
Versus Main Event #3 (сезон II): Re-Pac VS Galat
Versus Main Event #4 (сезон II): Bes (Datempo) VS Heavy
Versus Main Event #5 (сезон II): Крип-А-Крип VS Billy Milligan
Versus Main Event #6 (сезон II): Брол VS Паша Техник (Kunteynir)
Versus Main Event #7 (сезон II): Pra(Killa'Gramm) VS Obe 1 Kanobe
Versus Main Event #8 (сезон II): СД VS Chet
Versus Main Event #9 (сезон II): Витя Classic (ВУТОНН) VS Xохол (OVD)
Versus Межсезонье #1: D.Masta vs Galat
Versus Межсезонье #2: Yung Trappa vs Feduk
Versus Межсезонье #3: Марина Кацуба vs Drago
Versus Межсезонье #4: Дуня vs Koresh
Versus Межсезонье #5: ЛСП vs Meowizzy
Versus Межсезонье #6: DEF vs BES [Da Tempo]
Versus Межсезонье #7: Гарри Топор vs Типси Тип
Versus All Stars: ST vs D.Masta
Versus All Stars: Интего vs Mc MoonStar
VERSUS #1 (сезон III): Oxxxymiron VS Johnyboy
VERSUS #2 (сезон III): Mytee Dee VS Брол

Скриншоты:



Время раздачи:
Сб-Вс с 00:00 до 08:00

А ещё есть альбом "Versus Music - Пошумим Б*#%ь! Round 1"
 
Не забывайте говорить Спасибо. Не уходите с раздачи!   
Торрент: Зарегистрирован [23 дек 2015, 07:34] Для скачивания .torrent
необходима регистрация
Или скачать с помощью
MediaGet
Статус:
Проверен
 
.torrent скачан: 0 раз
Хэш: 4563b779055045b2489793cb9a325a372183d933
Размер: 18.62 ГБ (19 993 283 395 байт)
Стать Автором раздачи
 
Аватара пользователя
 
Раздал: 3.77 ТБ
Скачал: 406.3 ГБ
Ратио: 9.496
Сообщения: 468702
Зарегистрирован: 20 янв 2011, 21:15


  • Похожие торренты
    Ответы
    Просмотры
    Последнее сообщение

Вернуться в Видео для мобильных устройств

Ресурс не предоставляет электронные версии произведений, а занимается лишь коллекционированием и каталогизацией ссылок, присылаемых и публикуемых на форуме нашими читателями. Если вы являетесь правообладателем какого-либо представленного материала и не желаете чтобы ссылка на него находилась в нашем каталоге, свяжитесь с нами и мы незамедлительно удалим её. Файлы для обмена на трекере предоставлены пользователями сайта, и администрация не несёт ответственности за их содержание. Просьба не заливать файлы, защищенные авторскими правами, а также файлы нелегального содержания!
cron