ЛИГАЛАЙЗ - КАРАВАН (feat. Андрей Гризли, Ika & Art Force Crew) (2015) WEBRip[H.264/1080p-LQ]

 
 Статистика раздачи 
Размер: 69.25 МБ   |  Зарегистрирован: 21 дек 2015, 04:29   |   .torrent скачан: 0 раз
Сидеров: 1  [ 0 байт/сек ]     Личеров: 0  [ 0 байт/сек ]  
  

ЛИГАЛАЙЗ - КАРАВАН (feat. Андрей Гризли, Ika & Art Force Crew) (2015) WEBRip[H.264/1080p-LQ]

Сообщение Nakazhu » 21 дек 2015, 04:29

ЛИГАЛАЙЗ - КАРАВАН (feat. Андрей Гризли, Ika & Art Force Crew) (2015) WEBRip

Производство: Россия, StarPro
Жанр: Русский Рэп

Режиссер: Константин Черепков
В клипе снимались: ЛИГАЛАЙЗ, Андрей Гризли, Ika, Art Force Crew

Описание:
Рэпер Лигалайз, который намерен выпустить первый альбом после десятилетнего перерыва, опубликовал живописное новое видео «Караван», где главным образом манифестируется собственно его возвращение.

Продолжительность: 00:04:14
Качество видео: WEBRip

Видео: AVC/H.264, 1920х1080, ~2156 Кбит/сек
Аудио: AAC, 2 ch, 126 Кбит/сек, CBR
Код:
Код: Выделить всё
Формат : AVC
Формат/Информация : Advanced Video Codec
Профиль формата : High@L4
Параметр CABAC формата : Да
Параметр ReFrames формата : 3 кадра
Идентификатор кодека : avc1
Идентификатор кодека/Информация : Advanced Video Coding
Продолжительность : 4 м. 13 с.
Битрейт : 2156 Кбит/сек
Ширина : 1920 пикселей
Высота : 1080 пикселей
Соотношение сторон : 16:9
Режим частоты кадров : Постоянный
Частота кадров : 25,000 кадров/сек
Цветовое пространство : YUV
Субдискретизация насыщенности : 4:2:0
Битовая глубина : 8 бит
Тип развёртки : Прогрессивная
Бит/(Пиксели*Кадры) : 0.042
Размер потока : 65,3 Мбайт (94%)

Аудио
Идентификатор : 2
Формат : AAC
Формат/Информация : Advanced Audio Codec
Профиль формата : LC
Идентификатор кодека : 40
Продолжительность : 4 м. 14 с.
Вид битрейта : Постоянный
Битрейт : 126 Кбит/сек
Каналы : 2 канала
Расположение каналов : Front: L R
Частота : 44,1 КГц
Метод сжатия : С потерями
Размер потока : 3,80 Мбайт (5%)

Скриншоты:



Время раздачи: По мере возможности..
 
Не забывайте говорить Спасибо. Не уходите с раздачи!   
Торрент: Зарегистрирован [21 дек 2015, 04:29] Скачать торрент
Скачать торрент
[ Размер 11.67 КБ / Просмотров 16 ]
Статус:
Проверен
 
.torrent скачан: 0 раз
Хэш: dd4b828be066f7f6483703cecd9d2faa29e8915b
Размер: 69.25 МБ (72 617 945 байт)
Стать Автором раздачи
 
 
Раздал: 0 байт
Скачал: 0 байт
Ратио: Inf.
Сообщения: 487468
Зарегистрирован: 17 апр 2014, 13:57


  • Похожие торренты
    Ответы
    Просмотры
    Последнее сообщение

Вернуться в Музыкальные клипы (транзит)

Ресурс не предоставляет электронные версии произведений, а занимается лишь коллекционированием и каталогизацией ссылок, присылаемых и публикуемых на форуме нашими читателями. Если вы являетесь правообладателем какого-либо представленного материала и не желаете чтобы ссылка на него находилась в нашем каталоге, свяжитесь с нами и мы незамедлительно удалим её. Файлы для обмена на трекере предоставлены пользователями сайта, и администрация не несёт ответственности за их содержание. Просьба не заливать файлы, защищенные авторскими правами, а также файлы нелегального содержания!
cron