Сегодня вечером с Андреем Малаховым. Аффтар жжот 5 (эфир от 11.01.2014) [11.01.2014, ТВ-Шоу, DVB]

 
 Статистика раздачи 
Размер: 1.6 ГБ   |  Зарегистрирован: 20 дек 2015, 17:06   |   .torrent скачан: 1 раз
Сидеров: 1  [ 0 байт/сек ]     Личеров: 0  [ 0 байт/сек ]  
  

Сегодня вечером с Андреем Малаховым. Аффтар жжот 5 (эфир от 11.01.2014) [11.01.2014, ТВ-Шоу, DVB]

Сообщение Master Chief » 20 дек 2015, 17:06

Аффтар жжот 5 (эфир от 11.01.2014)

Дата/Год выпуска: 11.01.2014
Страна: Россия
Жанр: ТВ-Шоу
Продолжительность: 1:23:44
Перевод: Не требуется
Русские субтитры: нет

Телеканал: Первый
Описание: В программе Андрея Малахова - самые популярные ролики интернета.

Доп. информация: В программе "Сегодня вечером" вышедшей в эфир 19 декабря 2015 года повтор эфира от 11 января 2014 года.

качество: DVB
формат: MKV
Видео: MPEG4 Video (H264), 720x576, 16:9, 2 548 Kbps, 25fps
Аудио: MPEG Audio, 48000Hz, stereo 128kbps
Код: Выделить всё
General
Unique ID                      : 41776949909698855209610312600727999407 (0x1F6DF2A85EC5DA6F3B614A05DB5A53AF)
Complete name                  : E:\a\Аффтар_жжот_2014_11_01.mkv
Format                         : Matroska
Format version                 : Version 2
File size                      : 1.60 GiB
Duration                       : 1h 23mn
Overall bit rate               : 2 731 Kbps
Writing application            : Lavf52.64.2
Writing library                : Lavf52.64.2

Video
ID                             : 1
Format                         : AVC
Format/Info                    : Advanced Video Codec
Format profile                 : Main@L3
Format settings, CABAC         : Yes
Format settings, ReFrames      : 3 frames
Format settings, GOP           : M=4, N=28
Codec ID                       : V_MPEG4/ISO/AVC
Duration                       : 1h 23mn
Bit rate                       : 2 548 Kbps
Width                          : 720 pixels
Height                         : 576 pixels
Display aspect ratio           : 16:9
Original display aspect ratio  : 16:9
Frame rate mode                : Constant
Frame rate                     : 25.000 fps
Standard                       : Component
Color space                    : YUV
Chroma subsampling             : 4:2:0
Bit depth                      : 8 bits
Scan type                      : Interlaced
Scan order                     : Top Field First
Bits/(Pixel*Frame)             : 0.246
Stream size                    : 1.49 GiB (93%)
Default                        : Yes
Forced                         : No
Color range                    : Limited
Color primaries                : BT.601 PAL
Transfer characteristics       : BT.470 System B, BT.470 System G
Matrix coefficients            : BT.601

Audio
ID                             : 2
Format                         : MPEG Audio
Format version                 : Version 1
Format profile                 : Layer 2
Codec ID                       : A_MPEG/L2
Codec ID/Hint                  : MP2
Duration                       : 1h 23mn
Bit rate mode                  : Constant
Bit rate                       : 128 Kbps
Channel(s)                     : 2 channels
Sampling rate                  : 48.0 KHz
Compression mode               : Lossy
Stream size                    : 76.7 MiB (5%)
Language                       : English
Default                        : Yes
Forced                         : No
 
Не забывайте говорить Спасибо. Не уходите с раздачи!   
Торрент: Зарегистрирован [20 дек 2015, 17:06] Для скачивания .torrent
необходима регистрация
Или скачать с помощью
MediaGet
Статус:
Проверен
 
.torrent скачан: 1 раз
Хэш: c0d826fc5e747bd9656fc136a1d3fe323b7454b4
Размер: 1.6 ГБ (1 715 096 403 байт)
Стать Автором раздачи
 
Аватара пользователя
Администратор
Администратор
 
Раздал: 56.73 ТБ
Скачал: 79.93 ТБ
Ратио: 0.710
Сообщения: 76581
Зарегистрирован: 07 янв 2011, 16:36


  • Похожие торренты
    Ответы
    Просмотры
    Последнее сообщение

Вернуться в Социальные ток-шоу

Ресурс не предоставляет электронные версии произведений, а занимается лишь коллекционированием и каталогизацией ссылок, присылаемых и публикуемых на форуме нашими читателями. Если вы являетесь правообладателем какого-либо представленного материала и не желаете чтобы ссылка на него находилась в нашем каталоге, свяжитесь с нами и мы незамедлительно удалим её. Файлы для обмена на трекере предоставлены пользователями сайта, и администрация не несёт ответственности за их содержание. Просьба не заливать файлы, защищенные авторскими правами, а также файлы нелегального содержания!