Ускорение / Momentum (2015) HDRip [H.264] [MP4|720x304]

 
 Статистика раздачи 
Размер: 1.14 ГБ   |  Зарегистрирован: 14 дек 2015, 02:12   |   .torrent скачан: 0 раз
Сидеров: 1  [ 0 байт/сек ]     Личеров: 0  [ 0 байт/сек ]  
  

Ускорение / Momentum (2015) HDRip [H.264] [MP4|720x304]

Сообщение bagouser » 14 дек 2015, 02:12

Ускорение / Momentum (2015) HDRip

Производство: ЮАР, США, Azari Media and Thaba Media.
Жанр: Боевик, Триллер

Режиссер: Стивен С. Кампанелли
Актеры: Ольга Куриленко, Морган Фриман, Джеймс Пьюрфой, Дженна Сарас, Ли-Энн Саммерс, Мэриэн Фризелл, Сабина Палфи, Лиза Леонард, Карл Танинг, Эбби Уэйим, Дилан Эди, Шелли Николь

Описание:
Алекс, опытная воровка, соглашается совершить свое последнее ограбление... Но все идет не по плану. Теперь ей - красивой, сильной и безжалостной femme fatale - угрожает опасность. И неудачное ограбление - не единственная проблема. Она перешла дорогу секретному международному синдикату, который ищет нечто более ценное, чем бриллианты. С этого момента для Алекс единственный способ спастись - бежать. И как можно быстрее.



Продолжительность: 01:27:12
Качество видео: HDRip
Перевод: Дублированный (Лицензия Blu-Ray RUS)

Видео: AVC/H.264 (Main@L3.0), 720x304 (16:9), ~1536 Кбит/сек
Аудио: AAC, 2 канала, 160 Кбит/сек - русский (дублированный)
Код:
Код: Выделить всё
Полное имя                               : E:\Video\MP4 640x360\Momentum_2015_HDRip_x264_NNM-CLUB.mp4
Формат                                   : MPEG-4
Профиль формата                          : Base Media
Идентификатор кодека                     : isom
Размер файла                             : 1,14 Гбайт
Продолжительность                        : 1 ч. 36 м.
Общий поток                              : 1700 Кбит/сек

Видео
Идентификатор                            : 1
Формат                                   : AVC
Формат/Информация                        : Advanced Video Codec
Профиль формата                          :
Параметр CABAC формата                   : Нет
Параметр ReFrames формата                : 3 кадра
Идентификатор кодека                     : avc1
Идентификатор кодека/Информация          : Advanced Video Coding
Продолжительность                        : 1 ч. 36 м.
Битрейт                                  : 1536 Кбит/сек
Ширина                                   : 720 пикселей
Высота                                   : 304 пикселя
Соотношение сторон                       : 2,40:1
Соотношение сторон в оригинале           : 2,40:1
Режим частоты кадров                     : Постоянный
Частота кадров                           : 23,976 кадра/сек
Цветовое пространство                    : YUV
Субдискретизация насыщенности            : 4:2:0
Битовая глубина                          : 8 бит
Тип развёртки                            : Прогрессивная
Бит/(Пиксели*Кадры)                      : 0.293
Размер потока                            : 1,03 Гбайт (90%)
Библиотека кодирования                   : x264 core 146 r2538M 121396c
Настройки программы                      : cabac=0 / ref=3 / deblock=1:0:0 / analyse=0x1:0x131 / me=hex / subme=7 / psy=1 / psy_rd=1,00:0,20 / mixed_ref=1 / me_range=16 / chroma_me=1 / trellis=1 / 8x8dct=0 / cqm=0 / deadzone=21,11 / fast_pskip=1 / chroma_qp_offset=-3 / threads=18 / lookahead_threads=2 / sliced_threads=0 / nr=0 / decimate=1 / interlaced=0 / bluray_compat=0 / constrained_intra=0 / bframes=0 / weightp=2 / keyint=230 / keyint_min=23 / scenecut=0 / intra_refresh=0 / rc_lookahead=230 / rc=2pass / mbtree=1 / bitrate=1536 / ratetol=1,0 / qcomp=0,60 / qpmin=10 / qpmax=51 / qpstep=4 / cplxblur=20,0 / qblur=0,5 / ip_ratio=1,40 / aq=1:1,00
Язык                                     : English

Аудио
Идентификатор                            : 2
Формат                                   : AAC
Формат/Информация                        : Advanced Audio Codec
Профиль формата                          : LC
Идентификатор кодека                     : 40
Продолжительность                        : 1 ч. 35 м.
Вид битрейта                             : Постоянный
Битрейт                                  : 160 Кбит/сек
Каналы                                   : 2 канала
Расположение каналов                     : Front: L R
Частота                                  : 48,0 КГц
Метод сжатия                             : С потерями
Размер потока                            : 110 Мбайт (9%)
Язык                                     : Russian

Скриншоты:




Время раздачи:
24/7 - круглосуточно
(до первых 5-ти сидов - потом по возможности)
 
Не забывайте говорить Спасибо. Не уходите с раздачи!   
Торрент: Зарегистрирован [14 дек 2015, 02:12] Для скачивания .torrent
необходима регистрация
Или скачать с помощью
MediaGet
Статус:
Проверен
 
.torrent скачан: 0 раз
Хэш: c6e8a26419a5b20c2ce521891d7696c2e4a95290
Размер: 1.14 ГБ (1 224 616 683 байт)
Стать Автором раздачи
 
Аватара пользователя
 
Раздал: 3.77 ТБ
Скачал: 406.3 ГБ
Ратио: 9.496
Сообщения: 468702
Зарегистрирован: 20 янв 2011, 21:15


  • Похожие торренты
    Ответы
    Просмотры
    Последнее сообщение

Вернуться в Видео для мобильных устройств

Ресурс не предоставляет электронные версии произведений, а занимается лишь коллекционированием и каталогизацией ссылок, присылаемых и публикуемых на форуме нашими читателями. Если вы являетесь правообладателем какого-либо представленного материала и не желаете чтобы ссылка на него находилась в нашем каталоге, свяжитесь с нами и мы незамедлительно удалим её. Файлы для обмена на трекере предоставлены пользователями сайта, и администрация не несёт ответственности за их содержание. Просьба не заливать файлы, защищенные авторскими правами, а также файлы нелегального содержания!
cron