Ageless rock (2015) WEBRip [H.264]

 
 Статистика раздачи 
Размер: 2.59 ГБ   |  Зарегистрирован: 06 дек 2015, 02:52   |   .torrent скачан: 0 раз
Сидеров: 1  [ 0 байт/сек ]     Личеров: 0  [ 0 байт/сек ]  
  

Ageless rock (2015) WEBRip [H.264]

Сообщение bagouser » 06 дек 2015, 02:52

Ageless rock (2015) WEBRip [H.264]

Жанр: Hard Rock, Classic Rock, Glam Rock

Описание:
Не стареющий рок!

Треклист:
01. Cream - White Room [06:12]
02. Queen - We Will Rock You [02:10]
03. Mungo Jerry - Baby Jump [04:05]
04. Alice Cooper - I Never Cry [02:26]
05. Deep Purple - Highway Star [08:05]
06. The Sweet - Ballroom Blitz [06:47]
07. Ela Slade, Don Powell - Cum on feel the noize ( Goodbye to Jane) [07:59]
08. Led Zeppelin - Stairway to Heaven [10:51]
09. KISS Unplugged - Sure Know Someting [04:39]
10. John Lennon - Imagine [03:54]
11. Procol Harum - A Whiter Shade of Pale [05:33]
12. Elvis Presley- Little Sister Get Back [03:21]
13. Fleetwood Mac - Gypsy [05:21]
14. Gary Glitter - Rock And Roll (Part 1) [02:51]
15. Joe Cocker - With A Little Help From My Friends [11:36]
16. The Rolling Stones - You Can't Always Get What You Want [07:00]
17. John Fogerty - Born On The Bayou [03:50]
18. Rammstein - Ich Will [06:20]
19. Eric Clapton - I Shot The Sheriff [08:28]
20. The Tremeloes - Yellow River [02:46]
21. Blondie - Heart of Glass [05:45]
22. Michael Jackson, Paul McCartney - Say Say Say [05:04]
23. Slade - Ooh la la in L. A [03:41]
24. The Police - So Lonely [05:49]
25. Suzi Quatro - Can the Can [05:58]
26. Rod Stewart - Sailing [05:14]
27. Santana - Samba Pa Ti [06:20]
28. The Shadows - Apache [03:28]
29. Simon and Garfunkel - The Sound of Silence [04:57]
30. Paul McCartney and Wings - Helen Wheels [03:47]
Продолжительность: 02:44:38
Качество видео: WEBRip

Видео: AVC/H.264, 1280x720, ~2236 kbps
Аудио: AAC, 2 ch, 192 kbps, VBR
Код:
Код: Выделить всё
Общее
Полное имя                               : C:\Раздача\Клипы\Ageless rock (2015)\01. Cream - White Room.mp4
Формат                                   : MPEG-4
Профиль формата                          : Base Media / Version 2
Идентификатор кодека                     : mp42 (isom/mp42)
Размер файла                             : 108 Мбайт
Продолжительность                        : 6 м. 12 с.
Режим общего битрейта                    : Переменный
Общий поток                              : 2431 Кбит/сек
Дата кодирования                         : UTC 2013-12-07 18:16:16
Дата пометки                             : UTC 2013-12-07 18:16:16
gsst                                     : 0
gstd                                     : 372935
gssd                                     : B0AFCE1EA
gshh                                     : r6---sn-4g57kn6d.googlevideo.com

Видео
Идентификатор                            : 1
Формат                                   : AVC
Формат/Информация                        : Advanced Video Codec
Профиль формата                          :
Параметр CABAC формата                   : Да
Параметр ReFrames формата                : 1 кадр
Идентификатор кодека                     : avc1
Идентификатор кодека/Информация          : Advanced Video Coding
Продолжительность                        : 6 м. 12 с.
Битрейт                                  : 2236 Кбит/сек
Максимальный битрейт                     : 4243 Кбит/сек
Ширина                                   : 1280 пикселей
Высота                                   : 720 пикселей
Соотношение сторон                       : 16:9
Режим частоты кадров                     : Переменный
Частота кадров                           : 29,970 кадров/сек
Минимальная частота кадров               : 20,000 кадров/сек
Максимальная частота кадров              : 30,000 кадров/сек
Цветовое пространство                    : YUV
Субдискретизация насыщенности            : 4:2:0
Битовая глубина                          : 8 бит
Тип развёртки                            : Прогрессивная
Бит/(Пиксели*Кадры)                      : 0.081
Размер потока                            : 99,4 Мбайт (92%)
Дата пометки                             : UTC 2013-12-07 18:16:18

Аудио
Идентификатор                            : 2
Формат                                   : AAC
Формат/Информация                        : Advanced Audio Codec
Профиль формата                          : LC
Идентификатор кодека                     : 40
Продолжительность                        : 6 м. 12 с.
Вид битрейта                             : Переменный
Битрейт                                  : 192 Кбит/сек
Максимальный битрейт                     : 201 Кбит/сек
Каналы                                   : 2 канала
Расположение каналов                     : Front: L R
Частота                                  : 44,1 КГц
Частота кадров                           : 43,066 кадра/сек (1024 spf)
Метод сжатия                             : С потерями
Размер потока                            : 8,53 Мбайт (8%)
Заголовок                                : IsoMedia File Produced by Google, 5-11-2011
Дата кодирования                         : UTC 2013-12-07 18:16:17
Дата пометки                             : UTC 2013-12-07 18:16:18

Общее
Полное имя                               : C:\Раздача\Клипы\Ageless rock (2015)\02. Queen - We Will Rock You.mp4
Формат                                   : MPEG-4
Профиль формата                          : Base Media / Version 2
Идентификатор кодека                     : mp42 (isom/mp42)
Размер файла                             : 23,1 Мбайт
Продолжительность                        : 2 м. 10 с.
Режим общего битрейта                    : Переменный
Общий поток                              : 1482 Кбит/сек
Дата кодирования                         : UTC 2015-04-23 08:43:03
Дата пометки                             : UTC 2015-04-23 08:43:03
gsst                                     : 0
gstd                                     : 131030
gssd                                     : BC37A1004
gshh                                     : r1---sn-a5uuxaxjvh-gpmz.googlevideo.com

Видео
Идентификатор                            : 1
Формат                                   : AVC
Формат/Информация                        : Advanced Video Codec
Профиль формата                          :
Параметр CABAC формата                   : Да
Параметр ReFrames формата                : 1 кадр
Идентификатор кодека                     : avc1
Идентификатор кодека/Информация          : Advanced Video Coding
Продолжительность                        : 2 м. 10 с.
Битрейт                                  : 1288 Кбит/сек
Максимальный битрейт                     : 2343 Кбит/сек
Ширина                                   : 1280 пикселей
Высота                                   : 720 пикселей
Соотношение сторон                       : 16:9
Режим частоты кадров                     : Постоянный
Частота кадров                           : 23,976 (24000/1001) кадра/сек
Цветовое пространство                    : YUV
Субдискретизация насыщенности            : 4:2:0
Битовая глубина                          : 8 бит
Тип развёртки                            : Прогрессивная
Бит/(Пиксели*Кадры)                      : 0.058
Размер потока                            : 20,1 Мбайт (87%)
Дата кодирования                         : UTC 1970-01-01 00:00:00
Дата пометки                             : UTC 2015-04-23 08:43:05

Аудио
Идентификатор                            : 2
Формат                                   : AAC
Формат/Информация                        : Advanced Audio Codec
Профиль формата                          : LC
Идентификатор кодека                     : 40
Продолжительность                        : 2 м. 10 с.
Вид битрейта                             : Переменный
Битрейт                                  : 192 Кбит/сек
Максимальный битрейт                     : 202 Кбит/сек
Каналы                                   : 2 канала
Расположение каналов                     : Front: L R
Частота                                  : 44,1 КГц
Частота кадров                           : 43,066 кадра/сек (1024 spf)
Метод сжатия                             : С потерями
Размер потока                            : 3,00 Мбайт (13%)
Заголовок                                : IsoMedia File Produced by Google, 5-11-2011
Язык                                     : English
Дата кодирования                         : UTC 2015-04-23 08:43:04
Дата пометки                             : UTC 2015-04-23 08:43:05

Общее
Полное имя                               : C:\Раздача\Клипы\Ageless rock (2015)\03. Mungo Jerry - Baby Jump.mp4
Формат                                   : MPEG-4
Профиль формата                          : Base Media / Version 2
Идентификатор кодека                     : mp42 (isom/mp42)
Размер файла                             : 70,8 Мбайт
Продолжительность                        : 4 м. 5 с.
Режим общего битрейта                    : Переменный
Общий поток                              : 2416 Кбит/сек
Дата кодирования                         : UTC 2014-02-09 02:07:54
Дата пометки                             : UTC 2014-02-09 02:07:54
gsst                                     : 0
gstd                                     : 246061
gssd                                     : BC37A1007
gshh                                     : r4---sn-a5uuxaxjvh-gpmz.googlevideo.com

Видео
Идентификатор                            : 1
Формат                                   : AVC
Формат/Информация                        : Advanced Video Codec
Профиль формата                          :
Параметр CABAC формата                   : Да
Параметр ReFrames формата                : 1 кадр
Идентификатор кодека                     : avc1
Идентификатор кодека/Информация          : Advanced Video Coding
Продолжительность                        : 4 м. 5 с.
Битрейт                                  : 2221 Кбит/сек
Максимальный битрейт                     : 5328 Кбит/сек
Ширина                                   : 1280 пикселей
Высота                                   : 720 пикселей
Соотношение сторон                       : 16:9
Режим частоты кадров                     : Постоянный
Частота кадров                           : 30,000 кадров/сек
Цветовое пространство                    : YUV
Субдискретизация насыщенности            : 4:2:0
Битовая глубина                          : 8 бит
Тип развёртки                            : Прогрессивная
Бит/(Пиксели*Кадры)                      : 0.080
Размер потока                            : 65,1 Мбайт (92%)
Дата пометки                             : UTC 2014-02-09 02:07:56

Аудио
Идентификатор                            : 2
Формат                                   : AAC
Формат/Информация                        : Advanced Audio Codec
Профиль формата                          : LC
Идентификатор кодека                     : 40
Продолжительность                        : 4 м. 5 с.
Вид битрейта                             : Переменный
Битрейт                                  : 192 Кбит/сек
Максимальный битрейт                     : 202 Кбит/сек
Каналы                                   : 2 канала
Расположение каналов                     : Front: L R
Частота                                  : 44,1 КГц
Частота кадров                           : 43,066 кадра/сек (1024 spf)
Метод сжатия                             : С потерями
Размер потока                            : 5,63 Мбайт (8%)
Заголовок                                : IsoMedia File Produced by Google, 5-11-2011
Дата кодирования                         : UTC 2014-02-09 02:07:55
Дата пометки                             : UTC 2014-02-09 02:07:56

Общее
Полное имя                               : C:\Раздача\Клипы\Ageless rock (2015)\04. Alice Cooper - I Never Cry.mp4
Формат                                   : MPEG-4
Профиль формата                          : Base Media / Version 2
Идентификатор кодека                     : mp42 (isom/mp42)
Размер файла                             : 28,7 Мбайт
Продолжительность                        : 2 м. 26 с.
Режим общего битрейта                    : Переменный
Общий поток                              : 1646 Кбит/сек
Дата кодирования                         : UTC 2015-11-04 07:34:35
Дата пометки                             : UTC 2015-11-04 07:34:35
gsst                                     : 0
gstd                                     : 146563
gssd                                     : B4A7DDAC7
gshh                                     : r7---sn-4g57kuek.googlevideo.com

Видео
Идентификатор                            : 1
Формат                                   : AVC
Формат/Информация                        : Advanced Video Codec
Профиль формата                          :
Параметр CABAC формата                   : Да
Параметр ReFrames формата                : 1 кадр
Параметр GOP формата                     : M=1, N=60
Идентификатор кодека                     : avc1
Идентификатор кодека/Информация          : Advanced Video Coding
Продолжительность                        : 2 м. 26 с.
Битрейт                                  : 1452 Кбит/сек
Максимальный битрейт                     : 2798 Кбит/сек
Ширина                                   : 1280 пикселей
Высота                                   : 720 пикселей
Соотношение сторон                       : 16:9
Режим частоты кадров                     : Постоянный
Частота кадров                           : 29,970 (30000/1001) кадров/сек
Цветовое пространство                    : YUV
Субдискретизация насыщенности            : 4:2:0
Битовая глубина                          : 8 бит
Тип развёртки                            : Прогрессивная
Бит/(Пиксели*Кадры)                      : 0.053
Размер потока                            : 25,3 Мбайт (88%)
Дата пометки                             : UTC 2015-11-04 07:34:36

Аудио
Идентификатор                            : 2
Формат                                   : AAC
Формат/Информация                        : Advanced Audio Codec
Профиль формата                          : LC
Идентификатор кодека                     : 40
Продолжительность                        : 2 м. 26 с.
Вид битрейта                             : Переменный
Битрейт                                  : 192 Кбит/сек
Максимальный битрейт                     : 202 Кбит/сек
Каналы                                   : 2 канала
Расположение каналов                     : Front: L R
Частота                                  : 44,1 КГц
Частота кадров                           : 43,066 кадра/сек (1024 spf)
Метод сжатия                             : С потерями
Размер потока                            : 3,35 Мбайт (12%)
Заголовок                                : IsoMedia File Produced by Google, 5-11-2011
Язык                                     : Spanish
Дата кодирования                         : UTC 2015-11-04 07:34:36
Дата пометки                             : UTC 2015-11-04 07:34:36

Общее
Полное имя                               : C:\Раздача\Клипы\Ageless rock (2015)\05. Deep Purple - Highway Star.mp4
Формат                                   : MPEG-4
Профиль формата                          : Base Media / Version 2
Идентификатор кодека                     : mp42 (isom/mp42)
Размер файла                             : 145 Мбайт
Продолжительность                        : 8 м. 5 с.
Режим общего битрейта                    : Переменный
Общий поток                              : 2509 Кбит/сек
Дата кодирования                         : UTC 2014-11-26 19:28:53
Дата пометки                             : UTC 2014-11-26 19:28:53
gsst                                     : 0
gstd                                     : 485273
gssd                                     : BC30DBD05
gshh                                     : r2---sn-a5uuxaxjvh-gpml.googlevideo.com

Видео
Идентификатор                            : 1
Формат                                   : AVC
Формат/Информация                        : Advanced Video Codec
Профиль формата                          :
Параметр CABAC формата                   : Да
Параметр ReFrames формата                : 1 кадр
Идентификатор кодека                     : avc1
Идентификатор кодека/Информация          : Advanced Video Coding
Продолжительность                        : 8 м. 5 с.
Битрейт                                  : 2314 Кбит/сек
Максимальный битрейт                     : 4650 Кбит/сек
Ширина                                   : 1280 пикселей
Высота                                   : 720 пикселей
Соотношение сторон                       : 16:9
Режим частоты кадров                     : Постоянный
Частота кадров                           : 29,970 (30000/1001) кадров/сек
Цветовое пространство                    : YUV
Субдискретизация насыщенности            : 4:2:0
Битовая глубина                          : 8 бит
Тип развёртки                            : Прогрессивная
Бит/(Пиксели*Кадры)                      : 0.084
Размер потока                            : 134 Мбайт (92%)
Дата пометки                             : UTC 2014-11-26 19:28:59

Аудио
Идентификатор                            : 2
Формат                                   : AAC
Формат/Информация                        : Advanced Audio Codec
Профиль формата                          : LC
Идентификатор кодека                     : 40
Продолжительность                        : 8 м. 5 с.
Вид битрейта                             : Переменный
Битрейт                                  : 192 Кбит/сек
Максимальный битрейт                     : 201 Кбит/сек
Каналы                                   : 2 канала
Расположение каналов                     : Front: L R
Частота                                  : 44,1 КГц
Частота кадров                           : 43,066 кадра/сек (1024 spf)
Метод сжатия                             : С потерями
Размер потока                            : 11,1 Мбайт (8%)
Заголовок                                : IsoMedia File Produced by Google, 5-11-2011
Дата кодирования                         : UTC 2014-11-26 19:28:57
Дата пометки                             : UTC 2014-11-26 19:28:59

Общее
Полное имя                               : C:\Раздача\Клипы\Ageless rock (2015)\06. The Sweet -  Ballroom Blitz.mp4
Формат                                   : MPEG-4
Профиль формата                          : Base Media / Version 2
Идентификатор кодека                     : mp42 (isom/mp42)
Размер файла                             : 148 Мбайт
Продолжительность                        : 6 м. 47 с.
Режим общего битрейта                    : Переменный
Общий поток                              : 3050 Кбит/сек
Дата кодирования                         : UTC 2015-07-24 05:35:17
Дата пометки                             : UTC 2015-07-24 05:35:17
gsst                                     : 0
gstd                                     : 407973
gssd                                     : BC37A100B
gshh                                     : r8---sn-a5uuxaxjvh-gpmz.googlevideo.com

Видео
Идентификатор                            : 1
Формат                                   : AVC
Формат/Информация                        : Advanced Video Codec
Профиль формата                          :
Параметр CABAC формата                   : Да
Параметр ReFrames формата                : 1 кадр
Параметр GOP формата                     : M=1, N=60
Идентификатор кодека                     : avc1
Идентификатор кодека/Информация          : Advanced Video Coding
Продолжительность                        : 6 м. 47 с.
Битрейт                                  : 2903 Кбит/сек
Максимальный битрейт                     : 4785 Кбит/сек
Ширина                                   : 1280 пикселей
Высота                                   : 720 пикселей
Соотношение сторон                       : 16:9
Режим частоты кадров                     : Постоянный
Частота кадров                           : 29,970 (30000/1001) кадров/сек
Цветовое пространство                    : YUV
Субдискретизация насыщенности            : 4:2:0
Битовая глубина                          : 8 бит
Тип развёртки                            : Прогрессивная
Бит/(Пиксели*Кадры)                      : 0.105
Размер потока                            : 141 Мбайт (95%)
Дата пометки                             : UTC 2015-07-24 05:35:21

Аудио
Идентификатор                            : 2
Формат                                   : AAC
Формат/Информация                        : Advanced Audio Codec
Профиль формата                          : LC
Идентификатор кодека                     : 40
Продолжительность                        : 6 м. 47 с.
Вид битрейта                             : Переменный
Битрейт                                  : 144 Кбит/сек
Максимальный битрейт                     : 151 Кбит/сек
Каналы                                   : 1 канал
Расположение каналов                     : Front: C
Частота                                  : 44,1 КГц
Частота кадров                           : 43,066 кадра/сек (1024 spf)
Метод сжатия                             : С потерями
Размер потока                            : 7,00 Мбайт (5%)
Заголовок                                : IsoMedia File Produced by Google, 5-11-2011
Дата кодирования                         : UTC 2015-07-24 05:35:20
Дата пометки                             : UTC 2015-07-24 05:35:21

Общее
Полное имя                               : C:\Раздача\Клипы\Ageless rock (2015)\07. Ela Slade Don Powell - Cum on feel the noize ( Goodbye to Jane).mp4
Формат                                   : MPEG-4
Профиль формата                          : Base Media / Version 2
Идентификатор кодека                     : mp42 (isom/mp42)
Размер файла                             : 96,1 Мбайт
Продолжительность                        : 7 м. 59 с.
Режим общего битрейта                    : Переменный
Общий поток                              : 1683 Кбит/сек
Дата кодирования                         : UTC 2014-04-13 01:39:38
Дата пометки                             : UTC 2014-04-13 01:39:38
gsst                                     : 0
gstd                                     : 479305
gssd                                     : BC37A1004
gshh                                     : r1---sn-a5uuxaxjvh-gpmz.googlevideo.com

Видео
Идентификатор                            : 1
Формат                                   : AVC
Формат/Информация                        : Advanced Video Codec
Профиль формата                          :
Параметр CABAC формата                   : Да
Параметр ReFrames формата                : 1 кадр
Идентификатор кодека                     : avc1
Идентификатор кодека/Информация          : Advanced Video Coding
Продолжительность                        : 7 м. 59 с.
Битрейт                                  : 1488 Кбит/сек
Максимальный битрейт                     : 3108 Кбит/сек
Ширина                                   : 1280 пикселей
Высота                                   : 720 пикселей
Соотношение сторон                       : 16:9
Режим частоты кадров                     : Постоянный
Частота кадров                           : 25,000 кадров/сек
Цветовое пространство                    : YUV
Субдискретизация насыщенности            : 4:2:0
Битовая глубина                          : 8 бит
Тип развёртки                            : Прогрессивная
Бит/(Пиксели*Кадры)                      : 0.065
Размер потока                            : 85,0 Мбайт (88%)
Дата пометки                             : UTC 2014-04-13 01:39:40

Аудио
Идентификатор                            : 2
Формат                                   : AAC
Формат/Информация                        : Advanced Audio Codec
Профиль формата                          : LC
Идентификатор кодека                     : 40
Продолжительность                        : 7 м. 59 с.
Вид битрейта                             : Переменный
Битрейт                                  : 192 Кбит/сек
Максимальный битрейт                     : 201 Кбит/сек
Каналы                                   : 2 канала
Расположение каналов                     : Front: L R
Частота                                  : 44,1 КГц
Частота кадров                           : 43,066 кадра/сек (1024 spf)
Метод сжатия                             : С потерями
Размер потока                            : 11,0 Мбайт (11%)
Заголовок                                : IsoMedia File Produced by Google, 5-11-2011
Дата кодирования                         : UTC 2014-04-13 01:39:39
Дата пометки                             : UTC 2014-04-13 01:39:40

Общее
Полное имя                               : C:\Раздача\Клипы\Ageless rock (2015)\08. Led Zeppelin - Stairway to Heaven.mp4
Формат                                   : MPEG-4
Профиль формата                          : Base Media / Version 2
Идентификатор кодека                     : mp42 (isom/mp42)
Размер файла                             : 124 Мбайт
Продолжительность                        : 10 м.
Режим общего битрейта                    : Переменный
Общий поток                              : 1597 Кбит/сек
Дата кодирования                         : UTC 2015-04-20 03:33:32
Дата пометки                             : UTC 2015-04-20 03:33:32
gsst                                     : 0
gstd                                     : 651180
gssd                                     : BC37A1009
gshh                                     : r6---sn-a5uuxaxjvh-gpmz.googlevideo.com

Видео
Идентификатор                            : 1
Формат                                   : AVC
Формат/Информация                        : Advanced Video Codec
Профиль формата                          :
Параметр CABAC формата                   : Да
Параметр ReFrames формата                : 1 кадр
Параметр GOP формата                     : M=1, N=60
Идентификатор кодека                     : avc1
Идентификатор кодека/Информация          : Advanced Video Coding
Продолжительность                        : 10 м.
Битрейт                                  : 1403 Кбит/сек
Максимальный битрейт                     : 4014 Кбит/сек
Ширина                                   : 1280 пикселей
Высота                                   : 720 пикселей
Соотношение сторон                       : 16:9
Режим частоты кадров                     : Постоянный
Частота кадров                           : 25,000 кадров/сек
Цветовое пространство                    : YUV
Субдискретизация насыщенности            : 4:2:0
Битовая глубина                          : 8 бит
Тип развёртки                            : Прогрессивная
Бит/(Пиксели*Кадры)                      : 0.061
Размер потока                            : 109 Мбайт (88%)
Дата кодирования                         : UTC 1970-01-01 00:00:00
Дата пометки                             : UTC 2015-04-20 03:33:36

Аудио
Идентификатор                            : 2
Формат                                   : AAC
Формат/Информация                        : Advanced Audio Codec
Профиль формата                          : LC
Идентификатор кодека                     : 40
Продолжительность                        : 10 м.
Вид битрейта                             : Переменный
Битрейт                                  : 192 Кбит/сек
Максимальный битрейт                     : 202 Кбит/сек
Каналы                                   : 2 канала
Расположение каналов                     : Front: L R
Частота                                  : 44,1 КГц
Частота кадров                           : 43,066 кадра/сек (1024 spf)
Метод сжатия                             : С потерями
Размер потока                            : 14,9 Мбайт (12%)
Заголовок                                : IsoMedia File Produced by Google, 5-11-2011
Дата кодирования                         : UTC 2015-04-20 03:33:34
Дата пометки                             : UTC 2015-04-20 03:33:36

Общее
Полное имя                               : C:\Раздача\Клипы\Ageless rock (2015)\09. KISS Unplugged - Sure Know Someting.mp4
Формат                                   : MPEG-4
Профиль формата                          : Base Media / Version 2
Идентификатор кодека                     : mp42 (isom/mp42)
Размер файла                             : 96,1 Мбайт
Продолжительность                        : 4 м. 39 с.
Режим общего битрейта                    : Переменный
Общий поток                              : 2888 Кбит/сек
Дата кодирования                         : UTC 2015-04-04 05:58:02
Дата пометки                             : UTC 2015-04-04 05:58:02
gsst                                     : 0
gstd                                     : 279056
gssd                                     : BC37A100A
gshh                                     : r7---sn-a5uuxaxjvh-gpmz.googlevideo.com

Видео
Идентификатор                            : 1
Формат                                   : AVC
Формат/Информация                        : Advanced Video Codec
Профиль формата                          :
Параметр CABAC формата                   : Да
Параметр ReFrames формата                : 1 кадр
Параметр GOP формата                     : M=1, N=60
Идентификатор кодека                     : avc1
Идентификатор кодека/Информация          : Advanced Video Coding
Продолжительность                        : 4 м. 39 с.
Битрейт                                  : 2694 Кбит/сек
Максимальный битрейт                     : 4454 Кбит/сек
Ширина                                   : 1280 пикселей
Высота                                   : 720 пикселей
Соотношение сторон                       : 16:9
Режим частоты кадров                     : Постоянный
Частота кадров                           : 24,000 кадра/сек
Цветовое пространство                    : YUV
Субдискретизация насыщенности            : 4:2:0
Битовая глубина                          : 8 бит
Тип развёртки                            : Прогрессивная
Бит/(Пиксели*Кадры)                      : 0.122
Размер потока                            : 89,6 Мбайт (93%)
Дата кодирования                         : UTC 1970-01-01 00:00:00
Дата пометки                             : UTC 2015-04-04 05:58:06

Аудио
Идентификатор                            : 2
Формат                                   : AAC
Формат/Информация                        : Advanced Audio Codec
Профиль формата                          : LC
Идентификатор кодека                     : 40
Продолжительность                        : 4 м. 39 с.
Вид битрейта                             : Переменный
Битрейт                                  : 192 Кбит/сек
Максимальный битрейт                     : 203 Кбит/сек
Каналы                                   : 2 канала
Расположение каналов                     : Front: L R
Частота                                  : 44,1 КГц
Частота кадров                           : 43,066 кадра/сек (1024 spf)
Метод сжатия                             : С потерями
Размер потока                            : 6,39 Мбайт (7%)
Заголовок                                : IsoMedia File Produced by Google, 5-11-2011
Язык                                     : English
Дата кодирования                         : UTC 2015-04-04 05:58:05
Дата пометки                             : UTC 2015-04-04 05:58:06

Общее
Полное имя                               : C:\Раздача\Клипы\Ageless rock (2015)\10. John Lennon - Imagine.mp4
Формат                                   : MPEG-4
Профиль формата                          : Base Media / Version 2
Идентификатор кодека                     : mp42 (isom/mp42)
Размер файла                             : 43,9 Мбайт
Продолжительность                        : 3 м. 54 с.
Режим общего битрейта                    : Переменный
Общий поток                              : 1569 Кбит/сек
Дата кодирования                         : UTC 2015-03-13 07:41:40
Дата пометки                             : UTC 2015-03-13 07:41:40
gsst                                     : 0
gstd                                     : 235031
gssd                                     : BC30DBD0A
gshh                                     : r7---sn-a5uuxaxjvh-gpml.googlevideo.com

Видео
Идентификатор                            : 1
Формат                                   : AVC
Формат/Информация                        : Advanced Video Codec
Профиль формата                          :
Параметр CABAC формата                   : Да
Параметр ReFrames формата                : 1 кадр
Идентификатор кодека                     : avc1
Идентификатор кодека/Информация          : Advanced Video Coding
Продолжительность                        : 3 м. 54 с.
Битрейт                                  : 1374 Кбит/сек
Максимальный битрейт                     : 2530 Кбит/сек
Ширина                                   : 1280 пикселей
Высота                                   : 720 пикселей
Соотношение сторон                       : 16:9
Режим частоты кадров                     : Постоянный
Частота кадров                           : 29,970 (30000/1001) кадров/сек
Цветовое пространство                    : YUV
Субдискретизация насыщенности            : 4:2:0
Битовая глубина                          : 8 бит
Тип развёртки                            : Прогрессивная
Бит/(Пиксели*Кадры)                      : 0.050
Размер потока                            : 38,5 Мбайт (88%)
Дата кодирования                         : UTC 1970-01-01 00:00:00
Дата пометки                             : UTC 2015-03-13 07:41:40

Аудио
Идентификатор                            : 2
Формат                                   : AAC
Формат/Информация                        : Advanced Audio Codec
Профиль формата                          : LC
Идентификатор кодека                     : 40
Продолжительность                        : 3 м. 54 с.
Вид битрейта                             : Переменный
Битрейт                                  : 192 Кбит/сек
Максимальный битрейт                     : 201 Кбит/сек
Каналы                                   : 2 канала
Расположение каналов                     : Front: L R
Частота                                  : 44,1 КГц
Частота кадров                           : 43,066 кадра/сек (1024 spf)
Метод сжатия                             : С потерями
Размер потока                            : 5,38 Мбайт (12%)
Заголовок                                : IsoMedia File Produced by Google, 5-11-2011
Язык                                     : English
Дата кодирования                         : UTC 2015-03-13 07:41:40
Дата пометки                             : UTC 2015-03-13 07:41:40

Общее
Полное имя                               : C:\Раздача\Клипы\Ageless rock (2015)\11. Procol Harum - A Whiter Shade of Pale.mp4
Формат                                   : MPEG-4
Профиль формата                          : Base Media / Version 2
Идентификатор кодека                     : mp42 (isom/mp42)
Размер файла                             : 103 Мбайт
Продолжительность                        : 5 м. 33 с.
Режим общего битрейта                    : Переменный
Общий поток                              : 2591 Кбит/сек
Дата кодирования                         : UTC 2015-04-13 07:26:46
Дата пометки                             : UTC 2015-04-13 07:26:46
gsst                                     : 0
gstd                                     : 333971
gssd                                     : BC37A1004
gshh                                     : r1---sn-a5uuxaxjvh-gpmz.googlevideo.com

Видео
Идентификатор                            : 1
Формат                                   : AVC
Формат/Информация                        : Advanced Video Codec
Профиль формата                          :
Параметр CABAC формата                   : Да
Параметр ReFrames формата                : 1 кадр
Параметр GOP формата                     : M=1, N=60
Идентификатор кодека                     : avc1
Идентификатор кодека/Информация          : Advanced Video Coding
Продолжительность                        : 5 м. 33 с.
Битрейт                                  : 2396 Кбит/сек
Максимальный битрейт                     : 4560 Кбит/сек
Ширина                                   : 1280 пикселей
Высота                                   : 720 пикселей
Соотношение сторон                       : 16:9
Режим частоты кадров                     : Постоянный
Частота кадров                           : 25,000 кадров/сек
Цветовое пространство                    : YUV
Субдискретизация насыщенности            : 4:2:0
Битовая глубина                          : 8 бит
Тип развёртки                            : Прогрессивная
Бит/(Пиксели*Кадры)                      : 0.104
Размер потока                            : 95,4 Мбайт (92%)
Дата кодирования                         : UTC 1970-01-01 00:00:00
Дата пометки                             : UTC 2015-04-13 07:26:48

Аудио
Идентификатор                            : 2
Формат                                   : AAC
Формат/Информация                        : Advanced Audio Codec
Профиль формата                          : LC
Идентификатор кодека                     : 40
Продолжительность                        : 5 м. 33 с.
Вид битрейта                             : Переменный
Битрейт                                  : 192 Кбит/сек
Максимальный битрейт                     : 202 Кбит/сек
Каналы                                   : 2 канала
Расположение каналов                     : Front: L R
Частота                                  : 44,1 КГц
Частота кадров                           : 43,066 кадра/сек (1024 spf)
Метод сжатия                             : С потерями
Размер потока                            : 7,64 Мбайт (7%)
Заголовок                                : IsoMedia File Produced by Google, 5-11-2011
Дата кодирования                         : UTC 2015-04-13 07:26:47
Дата пометки                             : UTC 2015-04-13 07:26:48

Общее
Полное имя                               : C:\Раздача\Клипы\Ageless rock (2015)\12. Elvis Presley - Little Sister Get Back.mp4
Формат                                   : MPEG-4
Профиль формата                          : Base Media / Version 2
Идентификатор кодека                     : mp42 (isom/mp42)
Размер файла                             : 45,7 Мбайт
Продолжительность                        : 3 м. 21 с.
Режим общего битрейта                    : Переменный
Общий поток                              : 1904 Кбит/сек
Дата кодирования                         : UTC 2014-01-25 06:26:59
Дата пометки                             : UTC 2014-01-25 06:26:59
gsst                                     : 0
gstd                                     : 201618
gssd                                     : BC30DBD09
gshh                                     : r6---sn-a5uuxaxjvh-gpml.googlevideo.com

Видео
Идентификатор                            : 1
Формат                                   : AVC
Формат/Информация                        : Advanced Video Codec
Профиль формата                          :
Параметр CABAC формата                   : Да
Параметр ReFrames формата                : 1 кадр
Параметр GOP формата                     : M=1, N=60
Идентификатор кодека                     : avc1
Идентификатор кодека/Информация          : Advanced Video Coding
Продолжительность                        : 3 м. 21 с.
Битрейт                                  : 1709 Кбит/сек
Максимальный битрейт                     : 3131 Кбит/сек
Ширина                                   : 1280 пикселей
Высота                                   : 720 пикселей
Соотношение сторон                       : 16:9
Режим частоты кадров                     : Постоянный
Частота кадров                           : 29,970 (30000/1001) кадров/сек
Цветовое пространство                    : YUV
Субдискретизация насыщенности            : 4:2:0
Битовая глубина                          : 8 бит
Тип развёртки                            : Прогрессивная
Бит/(Пиксели*Кадры)                      : 0.062
Размер потока                            : 41,1 Мбайт (90%)
Дата пометки                             : UTC 2014-01-25 06:27:08

Аудио
Идентификатор                            : 2
Формат                                   : AAC
Формат/Информация                        : Advanced Audio Codec
Профиль формата                          : LC
Идентификатор кодека                     : 40
Продолжительность                        : 3 м. 21 с.
Вид битрейта                             : Переменный
Битрейт                                  : 192 Кбит/сек
Максимальный битрейт                     : 202 Кбит/сек
Каналы                                   : 2 канала
Расположение каналов                     : Front: L R
Частота                                  : 44,1 КГц
Частота кадров                           : 43,066 кадра/сек (1024 spf)
Метод сжатия                             : С потерями
Размер потока                            : 4,61 Мбайт (10%)
Заголовок                                : IsoMedia File Produced by Google, 5-11-2011
Дата кодирования                         : UTC 2014-01-25 06:27:05
Дата пометки                             : UTC 2014-01-25 06:27:08

Общее
Полное имя                               : C:\Раздача\Клипы\Ageless rock (2015)\13. Fleetwood Mac - Gypsy.mp4
Формат                                   : MPEG-4
Профиль формата                          : Base Media / Version 2
Идентификатор кодека                     : mp42 (isom/mp42)
Размер файла                             : 76,0 Мбайт
Продолжительность                        : 5 м. 21 с.
Режим общего битрейта                    : Переменный
Общий поток                              : 1984 Кбит/сек
Дата кодирования                         : UTC 2015-04-25 08:39:16
Дата пометки                             : UTC 2015-04-25 08:39:16
gsst                                     : 0
gstd                                     : 321503
gssd                                     : BC37A1004
gshh                                     : r1---sn-a5uuxaxjvh-gpmz.googlevideo.com

Видео
Идентификатор                            : 1
Формат                                   : AVC
Формат/Информация                        : Advanced Video Codec
Профиль формата                          :
Параметр CABAC формата                   : Да
Параметр ReFrames формата                : 1 кадр
Идентификатор кодека                     : avc1
Идентификатор кодека/Информация          : Advanced Video Coding
Продолжительность                        : 5 м. 21 с.
Битрейт                                  : 1790 Кбит/сек
Максимальный битрейт                     : 3487 Кбит/сек
Ширина                                   : 1280 пикселей
Высота                                   : 720 пикселей
Соотношение сторон                       : 16:9
Режим частоты кадров                     : Постоянный
Частота кадров                           : 25,000 кадров/сек
Цветовое пространство                    : YUV
Субдискретизация насыщенности            : 4:2:0
Битовая глубина                          : 8 бит
Тип развёртки                            : Прогрессивная
Бит/(Пиксели*Кадры)                      : 0.078
Размер потока                            : 68,6 Мбайт (90%)
Дата кодирования                         : UTC 1970-01-01 00:00:00
Дата пометки                             : UTC 2015-04-25 08:39:21

Аудио
Идентификатор                            : 2
Формат                                   : AAC
Формат/Информация                        : Advanced Audio Codec
Профиль формата                          : LC
Идентификатор кодека                     : 40
Продолжительность                        : 5 м. 21 с.
Вид битрейта                             : Переменный
Битрейт                                  : 192 Кбит/сек
Максимальный битрейт                     : 202 Кбит/сек
Каналы                                   : 2 канала
Расположение каналов                     : Front: L R
Частота                                  : 44,1 КГц
Частота кадров                           : 43,066 кадра/сек (1024 spf)
Метод сжатия                             : С потерями
Размер потока                            : 7,36 Мбайт (10%)
Заголовок                                : IsoMedia File Produced by Google, 5-11-2011
Язык                                     : German
Дата кодирования                         : UTC 2015-04-25 08:39:19
Дата пометки                             : UTC 2015-04-25 08:39:21

Общее
Полное имя                               : C:\Раздача\Клипы\Ageless rock (2015)\14. Gary Glitter - Rock And Roll (Part 1).mp4
Формат                                   : MPEG-4
Профиль формата                          : Base Media / Version 2
Идентификатор кодека                     : mp42 (isom/mp42)
Размер файла                             : 56,1 Мбайт
Продолжительность                        : 2 м. 57 с.
Режим общего битрейта                    : Переменный
Общий поток                              : 2654 Кбит/сек
Дата кодирования                         : UTC 2014-03-07 19:42:47
Дата пометки                             : UTC 2014-03-07 19:42:47
gsst                                     : 0
gstd                                     : 177446
gssd                                     : BC30DBD0B
gshh                                     : r8---sn-a5uuxaxjvh-gpml.googlevideo.com

Видео
Идентификатор                            : 1
Формат                                   : AVC
Формат/Информация                        : Advanced Video Codec
Профиль формата                          :
Параметр CABAC формата                   : Да
Параметр ReFrames формата                : 1 кадр
Идентификатор кодека                     : avc1
Идентификатор кодека/Информация          : Advanced Video Coding
Продолжительность                        : 2 м. 57 с.
Битрейт                                  : 2460 Кбит/сек
Максимальный битрейт                     : 4151 Кбит/сек
Ширина                                   : 1280 пикселей
Высота                                   : 720 пикселей
Соотношение сторон                       : 16:9
Режим частоты кадров                     : Постоянный
Частота кадров                           : 25,000 кадров/сек
Цветовое пространство                    : YUV
Субдискретизация насыщенности            : 4:2:0
Битовая глубина                          : 8 бит
Тип развёртки                            : Прогрессивная
Бит/(Пиксели*Кадры)                      : 0.107
Размер потока                            : 52,0 Мбайт (93%)
Дата пометки                             : UTC 2014-03-07 19:42:49

Аудио
Идентификатор                            : 2
Формат                                   : AAC
Формат/Информация                        : Advanced Audio Codec
Профиль формата                          : LC
Идентификатор кодека                     : 40
Продолжительность                        : 2 м. 57 с.
Вид битрейта                             : Переменный
Битрейт                                  : 192 Кбит/сек
Максимальный битрейт                     : 201 Кбит/сек
Каналы                                   : 2 канала
Расположение каналов                     : Front: L R
Частота                                  : 44,1 КГц
Частота кадров                           : 43,066 кадра/сек (1024 spf)
Метод сжатия                             : С потерями
Размер потока                            : 4,06 Мбайт (7%)
Заголовок                                : IsoMedia File Produced by Google, 5-11-2011
Дата кодирования                         : UTC 2014-03-07 19:42:48
Дата пометки                             : UTC 2014-03-07 19:42:49

Общее
Полное имя                               : C:\Раздача\Клипы\Ageless rock (2015)\15. Joe Cocker -  With A Little Help From My Friends.mp4
Формат                                   : MPEG-4
Профиль формата                          : Base Media / Version 2
Идентификатор кодека                     : mp42 (isom/mp42)
Размер файла                             : 178 Мбайт
Продолжительность                        : 11 м.
Режим общего битрейта                    : Переменный
Общий поток                              : 2149 Кбит/сек
Дата кодирования                         : UTC 2014-06-21 21:25:15
Дата пометки                             : UTC 2014-06-21 21:25:15
gsst                                     : 0
gstd                                     : 696528
gssd                                     : B0AFCDADC
gshh                                     : r15---sn-5go7dn7s.googlevideo.com

Видео
Идентификатор                            : 1
Формат                                   : AVC
Формат/Информация                        : Advanced Video Codec
Профиль формата                          :
Параметр CABAC формата                   : Да
Параметр ReFrames формата                : 1 кадр
Параметр GOP формата                     : M=1, N=60
Идентификатор кодека                     : avc1
Идентификатор кодека/Информация          : Advanced Video Coding
Продолжительность                        : 11 м.
Битрейт                                  : 1954 Кбит/сек
Максимальный битрейт                     : 4438 Кбит/сек
Ширина                                   : 1280 пикселей
Высота                                   : 720 пикселей
Соотношение сторон                       : 16:9
Режим частоты кадров                     : Постоянный
Частота кадров                           : 25,000 кадров/сек
Цветовое пространство                    : YUV
Субдискретизация насыщенности            : 4:2:0
Битовая глубина                          : 8 бит
Тип развёртки                            : Прогрессивная
Бит/(Пиксели*Кадры)                      : 0.085
Размер потока                            : 162 Мбайт (91%)
Дата пометки                             : UTC 2014-06-21 21:25:33

Аудио
Идентификатор                            : 2
Формат                                   : AAC
Формат/Информация                        : Advanced Audio Codec
Профиль формата                          : LC
Идентификатор кодека                     : 40
Продолжительность                        : 11 м.
Вид битрейта                             : Переменный
Битрейт                                  : 192 Кбит/сек
Максимальный битрейт                     : 201 Кбит/сек
Каналы                                   : 2 канала
Расположение каналов                     : Front: L R
Частота                                  : 44,1 КГц
Частота кадров                           : 43,066 кадра/сек (1024 spf)
Метод сжатия                             : С потерями
Размер потока                            : 15,9 Мбайт (9%)
Заголовок                                : IsoMedia File Produced by Google, 5-11-2011
Дата кодирования                         : UTC 2014-06-21 21:25:27
Дата пометки                             : UTC 2014-06-21 21:25:33

Общее
Полное имя                               : C:\Раздача\Клипы\Ageless rock (2015)\16. The Rolling Stones - You Can't Always Get What You Want.mp4
Формат                                   : MPEG-4
Профиль формата                          : Base Media / Version 2
Идентификатор кодека                     : mp42 (isom/mp42)
Размер файла                             : 93,9 Мбайт
Продолжительность                        : 7 м. 0 с.
Режим общего битрейта                    : Переменный
Общий поток                              : 1876 Кбит/сек
Дата кодирования                         : UTC 2013-11-21 13:36:10
Дата пометки                             : UTC 2013-11-21 13:36:10
gsst                                     : 0
gstd                                     : 420186
gssd                                     : BC30DBD08
gshh                                     : r5---sn-a5uuxaxjvh-gpml.googlevideo.com

Видео
Идентификатор                            : 1
Формат                                   : AVC
Формат/Информация                        : Advanced Video Codec
Профиль формата                          :
Параметр CABAC формата                   : Да
Параметр ReFrames формата                : 1 кадр
Параметр GOP формата                     : M=1, N=60
Идентификатор кодека                     : avc1
Идентификатор кодека/Информация          : Advanced Video Coding
Продолжительность                        : 7 м. 0 с.
Битрейт                                  : 1681 Кбит/сек
Максимальный битрейт                     : 3967 Кбит/сек
Ширина                                   : 1280 пикселей
Высота                                   : 720 пикселей
Соотношение сторон                       : 16:9
Режим частоты кадров                     : Постоянный
Частота кадров                           : 24,000 кадра/сек
Цветовое пространство                    : YUV
Субдискретизация насыщенности            : 4:2:0
Битовая глубина                          : 8 бит
Тип развёртки                            : Прогрессивная
Бит/(Пиксели*Кадры)                      : 0.076
Размер потока                            : 84,2 Мбайт (90%)
Дата пометки                             : UTC 2013-11-21 13:36:19

Аудио
Идентификатор                            : 2
Формат                                   : AAC
Формат/Информация                        : Advanced Audio Codec
Профиль формата                          : LC
Идентификатор кодека                     : 40
Продолжительность                        : 7 м. 0 с.
Вид битрейта                             : Переменный
Битрейт                                  : 192 Кбит/сек
Максимальный битрейт                     : 202 Кбит/сек
Каналы                                   : 2 канала
Расположение каналов                     : Front: L R
Частота                                  : 44,1 КГц
Частота кадров                           : 43,066 кадра/сек (1024 spf)
Метод сжатия                             : С потерями
Размер потока                            : 9,62 Мбайт (10%)
Заголовок                                : IsoMedia File Produced by Google, 5-11-2011
Дата кодирования                         : UTC 2013-11-21 13:36:16
Дата пометки                             : UTC 2013-11-21 13:36:19

Общее
Полное имя                               : C:\Раздача\Клипы\Ageless rock (2015)\17. John Fogerty - Born On The Bayou.mp4
Формат                                   : MPEG-4
Профиль формата                          : Base Media / Version 2
Идентификатор кодека                     : mp42 (isom/mp42)
Размер файла                             : 49,3 Мбайт
Продолжительность                        : 3 м. 50 с.
Режим общего битрейта                    : Переменный
Общий поток                              : 1797 Кбит/сек
Дата кодирования                         : UTC 2015-10-28 03:59:18
Дата пометки                             : UTC 2015-10-28 03:59:18
gsst                                     : 0
gstd                                     : 230108
gssd                                     : BC37A1004
gshh                                     : r1---sn-a5uuxaxjvh-gpmz.googlevideo.com

Видео
Идентификатор                            : 1
Формат                                   : AVC
Формат/Информация                        : Advanced Video Codec
Профиль формата                          :
Параметр CABAC формата                   : Да
Параметр ReFrames формата                : 1 кадр
Параметр GOP формата                     : M=1, N=60
Идентификатор кодека                     : avc1
Идентификатор кодека/Информация          : Advanced Video Coding
Продолжительность                        : 3 м. 50 с.
Битрейт                                  : 1602 Кбит/сек
Максимальный битрейт                     : 2683 Кбит/сек
Ширина                                   : 1280 пикселей
Высота                                   : 720 пикселей
Соотношение сторон                       : 16:9
Режим частоты кадров                     : Постоянный
Частота кадров                           : 29,970 (30000/1001) кадров/сек
Цветовое пространство                    : YUV
Субдискретизация насыщенности            : 4:2:0
Битовая глубина                          : 8 бит
Тип развёртки                            : Прогрессивная
Бит/(Пиксели*Кадры)                      : 0.058
Размер потока                            : 43,9 Мбайт (89%)
Дата пометки                             : UTC 2015-10-28 03:59:19

Аудио
Идентификатор                            : 2
Формат                                   : AAC
Формат/Информация                        : Advanced Audio Codec
Профиль формата                          : LC
Идентификатор кодека                     : 40
Продолжительность                        : 3 м. 50 с.
Вид битрейта                             : Переменный
Битрейт                                  : 192 Кбит/сек
Максимальный битрейт                     : 202 Кбит/сек
Каналы                                   : 2 канала
Расположение каналов                     : Front: L R
Частота                                  : 44,1 КГц
Частота кадров                           : 43,066 кадра/сек (1024 spf)
Метод сжатия                             : С потерями
Размер потока                            : 5,27 Мбайт (11%)
Заголовок                                : IsoMedia File Produced by Google, 5-11-2011
Язык                                     : Spanish
Дата кодирования                         : UTC 2015-10-28 03:59:19
Дата пометки                             : UTC 2015-10-28 03:59:19

Общее
Полное имя                               : C:\Раздача\Клипы\Ageless rock (2015)\18. Rammstein - Ich Will.mp4
Формат                                   : MPEG-4
Профиль формата                          : Base Media / Version 2
Идентификатор кодека                     : mp42 (isom/mp42)
Размер файла                             : 105 Мбайт
Продолжительность                        : 6 м. 20 с.
Режим общего битрейта                    : Переменный
Общий поток                              : 2324 Кбит/сек
Дата кодирования                         : UTC 2014-07-21 12:15:15
Дата пометки                             : UTC 2014-07-21 12:15:15
gsst                                     : 0
gstd                                     : 380271
gssd                                     : BC37A1007
gshh                                     : r4---sn-a5uuxaxjvh-gpmz.googlevideo.com

Видео
Идентификатор                            : 1
Формат                                   : AVC
Формат/Информация                        : Advanced Video Codec
Профиль формата                          :
Параметр CABAC формата                   : Да
Параметр ReFrames формата                : 1 кадр
Параметр GOP формата                     : M=1, N=60
Идентификатор кодека                     : avc1
Идентификатор кодека/Информация          : Advanced Video Coding
Продолжительность                        : 6 м. 20 с.
Битрейт                                  : 2129 Кбит/сек
Максимальный битрейт                     : 6768 Кбит/сек
Ширина                                   : 1280 пикселей
Высота                                   : 720 пикселей
Соотношение сторон                       : 16:9
Режим частоты кадров                     : Постоянный
Частота кадров                           : 29,970 (30000/1001) кадров/сек
Цветовое пространство                    : YUV
Субдискретизация насыщенности            : 4:2:0
Битовая глубина                          : 8 бит
Тип развёртки                            : Прогрессивная
Бит/(Пиксели*Кадры)                      : 0.077
Размер потока                            : 96,5 Мбайт (92%)
Дата пометки                             : UTC 2014-07-21 12:15:18

Аудио
Идентификатор                            : 2
Формат                                   : AAC
Формат/Информация                        : Advanced Audio Codec
Профиль формата                          : LC
Идентификатор кодека                     : 40
Продолжительность                        : 6 м. 20 с.
Вид битрейта                             : Переменный
Битрейт                                  : 192 Кбит/сек
Максимальный битрейт                     : 201 Кбит/сек
Каналы                                   : 2 канала
Расположение каналов                     : Front: L R
Частота                                  : 44,1 КГц
Частота кадров                           : 43,066 кадра/сек (1024 spf)
Метод сжатия                             : С потерями
Размер потока                            : 8,70 Мбайт (8%)
Заголовок                                : IsoMedia File Produced by Google, 5-11-2011
Дата кодирования                         : UTC 2014-07-21 12:15:17
Дата пометки                             : UTC 2014-07-21 12:15:18

Общее
Полное имя                               : C:\Раздача\Клипы\Ageless rock (2015)\19. Eric Clapton - I Shot The Sheriff.mp4
Формат                                   : MPEG-4
Профиль формата                          : Base Media / Version 2
Идентификатор кодека                     : mp42 (isom/mp42)
Размер файла                             : 138 Мбайт
Продолжительность                        : 8 м. 28 с.
Режим общего битрейта                    : Переменный
Общий поток                              : 2272 Кбит/сек
Дата кодирования                         : UTC 2014-03-07 07:02:52
Дата пометки                             : UTC 2014-03-07 07:02:52
gsst                                     : 0
gstd                                     : 508563
gssd                                     : BC37A1004
gshh                                     : r1---sn-a5uuxaxjvh-gpmz.googlevideo.com

Видео
Идентификатор                            : 1
Формат                                   : AVC
Формат/Информация                        : Advanced Video Codec
Профиль формата                          :
Параметр CABAC формата                   : Да
Параметр ReFrames формата                : 1 кадр
Идентификатор кодека                     : avc1
Идентификатор кодека/Информация          : Advanced Video Coding
Продолжительность                        : 8 м. 28 с.
Битрейт                                  : 2077 Кбит/сек
Максимальный битрейт                     : 3363 Кбит/сек
Ширина                                   : 1280 пикселей
Высота                                   : 720 пикселей
Соотношение сторон                       : 16:9
Режим частоты кадров                     : Постоянный
Частота кадров                           : 23,976 (24000/1001) кадра/сек
Цветовое пространство                    : YUV
Субдискретизация насыщенности            : 4:2:0
Битовая глубина                          : 8 бит
Тип развёртки                            : Прогрессивная
Бит/(Пиксели*Кадры)                      : 0.094
Размер потока                            : 126 Мбайт (91%)
Дата пометки                             : UTC 2014-03-07 07:03:04

Аудио
Идентификатор                            : 2
Формат                                   : AAC
Формат/Информация                        : Advanced Audio Codec
Профиль формата                          : LC
Идентификатор кодека                     : 40
Продолжительность                        : 8 м. 28 с.
Вид битрейта                             : Переменный
Битрейт                                  : 192 Кбит/сек
Максимальный битрейт                     : 201 Кбит/сек
Каналы                                   : 2 канала
Расположение каналов                     : Front: L R
Частота                                  : 44,1 КГц
Частота кадров                           : 43,066 кадра/сек (1024 spf)
Метод сжатия                             : С потерями
Размер потока                            : 11,6 Мбайт (8%)
Заголовок                                : IsoMedia File Produced by Google, 5-11-2011
Дата кодирования                         : UTC 2014-03-07 07:03:00
Дата пометки                             : UTC 2014-03-07 07:03:04

Общее
Полное имя                               : C:\Раздача\Клипы\Ageless rock (2015)\20. The Tremeloes - Yellow River.mp4
Формат                                   : MPEG-4
Профиль формата                          : Base Media / Version 2
Идентификатор кодека                     : mp42 (isom/mp42)
Размер файла                             : 52,1 Мбайт
Продолжительность                        : 2 м. 46 с.
Режим общего битрейта                    : Переменный
Общий поток                              : 2620 Кбит/сек
Дата кодирования                         : UTC 2015-05-18 19:05:38
Дата пометки                             : UTC 2015-05-18 19:05:38
gsst                                     : 0
gstd                                     : 166973
gssd                                     : BC30DBD0B
gshh                                     : r8---sn-a5uuxaxjvh-gpml.googlevideo.com

Видео
Идентификатор                            : 1
Формат                                   : AVC
Формат/Информация                        : Advanced Video Codec
Профиль формата                          :
Параметр CABAC формата                   : Да
Параметр ReFrames формата                : 1 кадр
Идентификатор кодека                     : avc1
Идентификатор кодека/Информация          : Advanced Video Coding
Продолжительность                        : 2 м. 46 с.
Битрейт                                  : 2425 Кбит/сек
Максимальный битрейт                     : 4402 Кбит/сек
Ширина                                   : 1280 пикселей
Высота                                   : 720 пикселей
Соотношение сторон                       : 16:9
Режим частоты кадров                     : Постоянный
Частота кадров                           : 25,000 кадров/сек
Цветовое пространство                    : YUV
Субдискретизация насыщенности            : 4:2:0
Битовая глубина                          : 8 бит
Тип развёртки                            : Прогрессивная
Бит/(Пиксели*Кадры)                      : 0.105
Размер потока                            : 48,2 Мбайт (93%)
Дата пометки                             : UTC 2015-05-18 19:05:49

Аудио
Идентификатор                            : 2
Формат                                   : AAC
Формат/Информация                        : Advanced Audio Codec
Профиль формата                          : LC
Идентификатор кодека                     : 40
Продолжительность                        : 2 м. 46 с.
Вид битрейта                             : Переменный
Битрейт                                  : 192 Кбит/сек
Максимальный битрейт                     : 201 Кбит/сек
Каналы                                   : 2 канала
Расположение каналов                     : Front: L R
Частота                                  : 44,1 КГц
Частота кадров                           : 43,066 кадра/сек (1024 spf)
Метод сжатия                             : С потерями
Размер потока                            : 3,82 Мбайт (7%)
Заголовок                                : IsoMedia File Produced by Google, 5-11-2011
Дата кодирования                         : UTC 2015-05-18 19:05:48
Дата пометки                             : UTC 2015-05-18 19:05:49

Общее
Полное имя                               : C:\Раздача\Клипы\Ageless rock (2015)\21.  Blondie - Heart of Glass.mp4
Формат                                   : MPEG-4
Профиль формата                          : Base Media / Version 2
Идентификатор кодека                     : mp42 (isom/mp42)
Размер файла                             : 102 Мбайт
Продолжительность                        : 5 м. 45 с.
Режим общего битрейта                    : Переменный
Общий поток                              : 2475 Кбит/сек
Дата кодирования                         : UTC 2015-01-21 22:57:00
Дата пометки                             : UTC 2015-01-21 22:57:00
gsst                                     : 0
gstd                                     : 345813
gssd                                     : B0AFCDAD2
gshh                                     : r6---sn-5go7dn76.googlevideo.com

Видео
Идентификатор                            : 1
Формат                                   : AVC
Формат/Информация                        : Advanced Video Codec
Профиль формата                          :
Параметр CABAC формата                   : Да
Параметр ReFrames формата                : 1 кадр
Идентификатор кодека                     : avc1
Идентификатор кодека/Информация          : Advanced Video Coding
Продолжительность                        : 5 м. 45 с.
Битрейт                                  : 2280 Кбит/сек
Максимальный битрейт                     : 4419 Кбит/сек
Ширина                                   : 1280 пикселей
Высота                                   : 720 пикселей
Соотношение сторон                       : 16:9
Режим частоты кадров                     : Постоянный
Частота кадров                           : 29,970 (30000/1001) кадров/сек
Цветовое пространство                    : YUV
Субдискретизация насыщенности            : 4:2:0
Битовая глубина                          : 8 бит
Тип развёртки                            : Прогрессивная
Бит/(Пиксели*Кадры)                      : 0.083
Размер потока                            : 94,0 Мбайт (92%)
Дата пометки                             : UTC 2015-01-21 22:57:02

Аудио
Идентификатор                            : 2
Формат                                   : AAC
Формат/Информация                        : Advanced Audio Codec
Профиль формата                          : LC
Идентификатор кодека                     : 40
Продолжительность                        : 5 м. 45 с.
Вид битрейта                             : Переменный
Битрейт                                  : 192 Кбит/сек
Максимальный битрейт                     : 202 Кбит/сек
Каналы                                   : 2 канала
Расположение каналов                     : Front: L R
Частота                                  : 44,1 КГц
Частота кадров                           : 43,066 кадра/сек (1024 spf)
Метод сжатия                             : С потерями
Размер потока                            : 7,91 Мбайт (8%)
Заголовок                                : IsoMedia File Produced by Google, 5-11-2011
Дата кодирования                         : UTC 2015-01-21 22:57:01
Дата пометки                             : UTC 2015-01-21 22:57:02

Общее
Полное имя                               : C:\Раздача\Клипы\Ageless rock (2015)\22. Michael Jackson, Paul McCartney - Say Say Say.mp4
Формат                                   : MPEG-4
Профиль формата                          : Base Media / Version 2
Идентификатор кодека                     : mp42 (isom/mp42)
Размер файла                             : 102 Мбайт
Продолжительность                        : 5 м. 4 с.
Режим общего битрейта                    : Переменный
Общий поток                              : 2818 Кбит/сек
Дата кодирования                         : UTC 2014-06-18 21:11:08
Дата пометки                             : UTC 2014-06-18 21:11:08
gsst                                     : 0
gstd                                     : 304436
gssd                                     : B0AFCDAED
gshh                                     : r19---sn-5go7dn7z.googlevideo.com

Видео
Идентификатор                            : 1
Формат                                   : AVC
Формат/Информация                        : Advanced Video Codec
Профиль формата                          :
Параметр CABAC формата                   : Да
Параметр ReFrames формата                : 1 кадр
Идентификатор кодека                     : avc1
Идентификатор кодека/Информация          : Advanced Video Coding
Продолжительность                        : 5 м. 4 с.
Битрейт                                  : 2623 Кбит/сек
Максимальный битрейт                     : 9019 Кбит/сек
Ширина                                   : 1280 пикселей
Высота                                   : 720 пикселей
Соотношение сторон                       : 16:9
Режим частоты кадров                     : Постоянный
Частота кадров                           : 30,000 кадров/сек
Цветовое пространство                    : YUV
Субдискретизация насыщенности            : 4:2:0
Битовая глубина                          : 8 бит
Тип развёртки                            : Прогрессивная
Бит/(Пиксели*Кадры)                      : 0.095
Размер потока                            : 95,2 Мбайт (93%)
Дата пометки                             : UTC 2014-06-18 21:11:15

Аудио
Идентификатор                            : 2
Формат                                   : AAC
Формат/Информация                        : Advanced Audio Codec
Профиль формата                          : LC
Идентификатор кодека                     : 40
Продолжительность                        : 5 м. 4 с.
Вид битрейта                             : Переменный
Битрейт                                  : 192 Кбит/сек
Максимальный битрейт                     : 203 Кбит/сек
Каналы                                   : 2 канала
Расположение каналов                     : Front: L R
Частота                                  : 44,1 КГц
Частота кадров                           : 43,066 кадра/сек (1024 spf)
Метод сжатия                             : С потерями
Размер потока                            : 6,97 Мбайт (7%)
Заголовок                                : IsoMedia File Produced by Google, 5-11-2011
Дата кодирования                         : UTC 2014-06-18 21:11:12
Дата пометки                             : UTC 2014-06-18 21:11:15

Общее
Полное имя                               : C:\Раздача\Клипы\Ageless rock (2015)\23. Slade - Ooh la la in L. A.mp4
Формат                                   : MPEG-4
Профиль формата                          : Base Media / Version 2
Идентификатор кодека                     : mp42 (isom/mp42)
Размер файла                             : 83,4 Мбайт
Продолжительность                        : 3 м. 41 с.
Режим общего битрейта                    : Переменный
Общий поток                              : 3158 Кбит/сек
Дата кодирования                         : UTC 2015-07-04 08:19:48
Дата пометки                             : UTC 2015-07-04 08:19:48
gsst                                     : 0
gstd                                     : 221633
gssd                                     : B0AFC2CB1
gshh                                     : r1---sn-5go7yn7k.googlevideo.com

Видео
Идентификатор                            : 1
Формат                                   : AVC
Формат/Информация                        : Advanced Video Codec
Профиль формата                          :
Параметр CABAC формата                   : Да
Параметр ReFrames формата                : 1 кадр
Параметр GOP формата                     : M=1, N=60
Идентификатор кодека                     : avc1
Идентификатор кодека/Информация          : Advanced Video Coding
Продолжительность                        : 3 м. 41 с.
Битрейт                                  : 2964 Кбит/сек
Максимальный битрейт                     : 4417 Кбит/сек
Ширина                                   : 1280 пикселей
Высота                                   : 720 пикселей
Соотношение сторон                       : 16:9
Режим частоты кадров                     : Постоянный
Частота кадров                           : 24,000 кадра/сек
Цветовое пространство                    : YUV
Субдискретизация насыщенности            : 4:2:0
Битовая глубина                          : 8 бит
Тип развёртки                            : Прогрессивная
Бит/(Пиксели*Кадры)                      : 0.134
Размер потока                            : 78,3 Мбайт (94%)
Дата пометки                             : UTC 2015-07-04 08:19:52

Аудио
Идентификатор                            : 2
Формат                                   : AAC
Формат/Информация                        : Advanced Audio Codec
Профиль формата                          : LC
Идентификатор кодека                     : 40
Продолжительность                        : 3 м. 41 с.
Вид битрейта                             : Переменный
Битрейт                                  : 192 Кбит/сек
Максимальный битрейт                     : 202 Кбит/сек
Каналы                                   : 2 канала
Расположение каналов                     : Front: L R
Частота                                  : 44,1 КГц
Частота кадров                           : 43,066 кадра/сек (1024 spf)
Метод сжатия                             : С потерями
Размер потока                            : 5,07 Мбайт (6%)
Заголовок                                : IsoMedia File Produced by Google, 5-11-2011
Дата кодирования                         : UTC 2015-07-04 08:19:51
Дата пометки                             : UTC 2015-07-04 08:19:52

Общее
Полное имя                               : C:\Раздача\Клипы\Ageless rock (2015)\24. The Police - So Lonely.mp4
Формат                                   : MPEG-4
Профиль формата                          : Base Media / Version 2
Идентификатор кодека                     : mp42 (isom/mp42)
Размер файла                             : 114 Мбайт
Продолжительность                        : 5 м. 49 с.
Режим общего битрейта                    : Переменный
Общий поток                              : 2741 Кбит/сек
Дата кодирования                         : UTC 2014-11-28 22:49:59
Дата пометки                             : UTC 2014-11-28 22:49:59
gsst                                     : 0
gstd                                     : 349320
gssd                                     : BC37A100A
gshh                                     : r7---sn-a5uuxaxjvh-gpmz.googlevideo.com

Видео
Идентификатор                            : 1
Формат                                   : AVC
Формат/Информация                        : Advanced Video Codec
Профиль формата                          :
Параметр CABAC формата                   : Да
Параметр ReFrames формата                : 1 кадр
Идентификатор кодека                     : avc1
Идентификатор кодека/Информация          : Advanced Video Coding
Продолжительность                        : 5 м. 49 с.
Битрейт                                  : 2547 Кбит/сек
Максимальный битрейт                     : 5502 Кбит/сек
Ширина                                   : 1280 пикселей
Высота                                   : 720 пикселей
Соотношение сторон                       : 16:9
Режим частоты кадров                     : Постоянный
Частота кадров                           : 25,000 кадров/сек
Цветовое пространство                    : YUV
Субдискретизация насыщенности            : 4:2:0
Битовая глубина                          : 8 бит
Тип развёртки                            : Прогрессивная
Бит/(Пиксели*Кадры)                      : 0.111
Размер потока                            : 106 Мбайт (93%)
Дата пометки                             : UTC 2014-11-28 22:50:02

Аудио
Идентификатор                            : 2
Формат                                   : AAC
Формат/Информация                        : Advanced Audio Codec
Профиль формата                          : LC
Идентификатор кодека                     : 40
Продолжительность                        : 5 м. 49 с.
Вид битрейта                             : Переменный
Битрейт                                  : 192 Кбит/сек
Максимальный битрейт                     : 201 Кбит/сек
Каналы                                   : 2 канала
Расположение каналов                     : Front: L R
Частота                                  : 44,1 КГц
Частота кадров                           : 43,066 кадра/сек (1024 spf)
Метод сжатия                             : С потерями
Размер потока                            : 7,99 Мбайт (7%)
Заголовок                                : IsoMedia File Produced by Google, 5-11-2011
Дата кодирования                         : UTC 2014-11-28 22:50:01
Дата пометки                             : UTC 2014-11-28 22:50:02

Общее
Полное имя                               : C:\Раздача\Клипы\Ageless rock (2015)\25. Suzi Quatro - Can the Can.mp4
Формат                                   : MPEG-4
Профиль формата                          : Base Media / Version 2
Идентификатор кодека                     : mp42 (isom/mp42)
Размер файла                             : 131 Мбайт
Продолжительность                        : 5 м. 58 с.
Режим общего битрейта                    : Переменный
Общий поток                              : 3065 Кбит/сек
Дата кодирования                         : UTC 2015-02-21 11:59:33
Дата пометки                             : UTC 2015-02-21 11:59:33
gsst                                     : 0
gstd                                     : 358445
gssd                                     : BC37A1006
gshh                                     : r3---sn-a5uuxaxjvh-gpmz.googlevideo.com

Видео
Идентификатор                            : 1
Формат                                   : AVC
Формат/Информация                        : Advanced Video Codec
Профиль формата                          :
Параметр CABAC формата                   : Да
Параметр ReFrames формата                : 1 кадр
Параметр GOP формата                     : M=1, N=60
Идентификатор кодека                     : avc1
Идентификатор кодека/Информация          : Advanced Video Coding
Продолжительность                        : 5 м. 58 с.
Битрейт                                  : 2871 Кбит/сек
Максимальный битрейт                     : 4849 Кбит/сек
Ширина                                   : 1280 пикселей
Высота                                   : 720 пикселей
Соотношение сторон                       : 16:9
Режим частоты кадров                     : Постоянный
Частота кадров                           : 25,000 кадров/сек
Цветовое пространство                    : YUV
Субдискретизация насыщенности            : 4:2:0
Битовая глубина                          : 8 бит
Тип развёртки                            : Прогрессивная
Бит/(Пиксели*Кадры)                      : 0.125
Размер потока                            : 123 Мбайт (94%)
Дата кодирования                         : UTC 1970-01-01 00:00:00
Дата пометки                             : UTC 2015-02-21 11:59:38

Аудио
Идентификатор                            : 2
Формат                                   : AAC
Формат/Информация                        : Advanced Audio Codec
Профиль формата                          : LC
Идентификатор кодека                     : 40
Продолжительность                        : 5 м. 58 с.
Вид битрейта                             : Переменный
Битрейт                                  : 192 Кбит/сек
Максимальный битрейт                     : 202 Кбит/сек
Каналы                                   : 2 канала
Расположение каналов                     : Front: L R
Частота                                  : 44,1 КГц
Частота кадров                           : 43,066 кадра/сек (1024 spf)
Метод сжатия                             : С потерями
Размер потока                            : 8,20 Мбайт (6%)
Заголовок                                : IsoMedia File Produced by Google, 5-11-2011
Язык                                     : English
Дата кодирования                         : UTC 2015-02-21 11:59:37
Дата пометки                             : UTC 2015-02-21 11:59:38

Общее
Полное имя                               : C:\Раздача\Клипы\Ageless rock (2015)\26. Rod Stewart - Sailing.mp4
Формат                                   : MPEG-4
Профиль формата                          : Base Media / Version 2
Идентификатор кодека                     : mp42 (isom/mp42)
Размер файла                             : 85,4 Мбайт
Продолжительность                        : 5 м. 14 с.
Режим общего битрейта                    : Переменный
Общий поток                              : 2275 Кбит/сек
Дата кодирования                         : UTC 2014-03-02 10:39:15
Дата пометки                             : UTC 2014-03-02 10:39:15
gsst                                     : 0
gstd                                     : 314908
gssd                                     : BC30DBD07
gshh                                     : r4---sn-a5uuxaxjvh-gpml.googlevideo.com

Видео
Идентификатор                            : 1
Формат                                   : AVC
Формат/Информация                        : Advanced Video Codec
Профиль формата                          :
Параметр CABAC формата                   : Да
Параметр ReFrames формата                : 1 кадр
Идентификатор кодека                     : avc1
Идентификатор кодека/Информация          : Advanced Video Coding
Продолжительность                        : 5 м. 14 с.
Битрейт                                  : 2080 Кбит/сек
Максимальный битрейт                     : 3819 Кбит/сек
Ширина                                   : 1280 пикселей
Высота                                   : 720 пикселей
Соотношение сторон                       : 16:9
Режим частоты кадров                     : Постоянный
Частота кадров                           : 25,000 кадров/сек
Цветовое пространство                    : YUV
Субдискретизация насыщенности            : 4:2:0
Битовая глубина                          : 8 бит
Тип развёртки                            : Прогрессивная
Бит/(Пиксели*Кадры)                      : 0.090
Размер потока                            : 78,1 Мбайт (91%)
Дата пометки                             : UTC 2014-03-02 10:39:17

Аудио
Идентификатор                            : 2
Формат                                   : AAC
Формат/Информация                        : Advanced Audio Codec
Профиль формата                          : LC
Идентификатор кодека                     : 40
Продолжительность                        : 5 м. 14 с.
Вид битрейта                             : Переменный
Битрейт                                  : 192 Кбит/сек
Максимальный битрейт                     : 201 Кбит/сек
Каналы                                   : 2 канала
Расположение каналов                     : Front: L R
Частота                                  : 44,1 КГц
Частота кадров                           : 43,066 кадра/сек (1024 spf)
Метод сжатия                             : С потерями
Размер потока                            : 7,21 Мбайт (8%)
Заголовок                                : IsoMedia File Produced by Google, 5-11-2011
Дата кодирования                         : UTC 2014-03-02 10:39:16
Дата пометки                             : UTC 2014-03-02 10:39:17

Общее
Полное имя                               : C:\Раздача\Клипы\Ageless rock (2015)\27. Santana - Samba Pa Ti.mp4
Формат                                   : MPEG-4
Профиль формата                          : Base Media / Version 2
Идентификатор кодека                     : mp42 (isom/mp42)
Размер файла                             : 97,7 Мбайт
Продолжительность                        : 6 м. 20 с.
Режим общего битрейта                    : Переменный
Общий поток                              : 2155 Кбит/сек
Дата кодирования                         : UTC 2014-11-27 05:02:04
Дата пометки                             : UTC 2014-11-27 05:02:04
gsst                                     : 0
gstd                                     : 380528
gssd                                     : BC37A1006
gshh                                     : r3---sn-a5uuxaxjvh-gpmz.googlevideo.com

Видео
Идентификатор                            : 1
Формат                                   : AVC
Формат/Информация                        : Advanced Video Codec
Профиль формата                          :
Параметр CABAC формата                   : Да
Параметр ReFrames формата                : 1 кадр
Параметр GOP формата                     : M=1, N=60
Идентификатор кодека                     : avc1
Идентификатор кодека/Информация          : Advanced Video Coding
Продолжительность                        : 6 м. 20 с.
Битрейт                                  : 1961 Кбит/сек
Максимальный битрейт                     : 3611 Кбит/сек
Ширина                                   : 1280 пикселей
Высота                                   : 720 пикселей
Соотношение сторон                       : 16:9
Режим частоты кадров                     : Постоянный
Частота кадров                           : 25,000 кадров/сек
Цветовое пространство                    : YUV
Субдискретизация насыщенности            : 4:2:0
Битовая глубина                          : 8 бит
Тип развёртки                            : Прогрессивная
Бит/(Пиксели*Кадры)                      : 0.085
Размер потока                            : 88,9 Мбайт (91%)
Дата пометки                             : UTC 2014-11-27 05:02:07

Аудио
Идентификатор                            : 2
Формат                                   : AAC
Формат/Информация                        : Advanced Audio Codec
Профиль формата                          : LC
Идентификатор кодека                     : 40
Продолжительность                        : 6 м. 20 с.
Вид битрейта                             : Переменный
Битрейт                                  : 192 Кбит/сек
Максимальный битрейт                     : 203 Кбит/сек
Каналы                                   : 2 канала
Расположение каналов                     : Front: L R
Частота                                  : 44,1 КГц
Частота кадров                           : 43,066 кадра/сек (1024 spf)
Метод сжатия                             : С потерями
Размер потока                            : 8,71 Мбайт (9%)
Заголовок                                : IsoMedia File Produced by Google, 5-11-2011
Дата кодирования                         : UTC 2014-11-27 05:02:06
Дата пометки                             : UTC 2014-11-27 05:02:07

Общее
Полное имя                               : C:\Раздача\Клипы\Ageless rock (2015)\28. The Shadows  - Apache.mp4
Формат                                   : MPEG-4
Профиль формата                          : Base Media / Version 2
Идентификатор кодека                     : mp42 (isom/mp42)
Размер файла                             : 66,8 Мбайт
Продолжительность                        : 3 м. 28 с.
Режим общего битрейта                    : Переменный
Общий поток                              : 2682 Кбит/сек
Дата кодирования                         : UTC 2015-04-03 05:06:03
Дата пометки                             : UTC 2015-04-03 05:06:03
gsst                                     : 0
gstd                                     : 209001
gssd                                     : B0AFCDADD
gshh                                     : r17---sn-5go7dn7s.googlevideo.com

Видео
Идентификатор                            : 1
Формат                                   : AVC
Формат/Информация                        : Advanced Video Codec
Профиль формата                          :
Параметр CABAC формата                   : Да
Параметр ReFrames формата                : 1 кадр
Идентификатор кодека                     : avc1
Идентификатор кодека/Информация          : Advanced Video Coding
Продолжительность                        : 3 м. 28 с.
Битрейт                                  : 2487 Кбит/сек
Максимальный битрейт                     : 4349 Кбит/сек
Ширина                                   : 1280 пикселей
Высота                                   : 720 пикселей
Соотношение сторон                       : 16:9
Режим частоты кадров                     : Постоянный
Частота кадров                           : 24,000 кадра/сек
Цветовое пространство                    : YUV
Субдискретизация насыщенности            : 4:2:0
Битовая глубина                          : 8 бит
Тип развёртки                            : Прогрессивная
Бит/(Пиксели*Кадры)                      : 0.112
Размер потока                            : 61,9 Мбайт (93%)
Дата кодирования                         : UTC 1970-01-01 00:00:00
Дата пометки                             : UTC 2015-04-03 05:06:04

Аудио
Идентификатор                            : 2
Формат                                   : AAC
Формат/Информация                        : Advanced Audio Codec
Профиль формата                          : LC
Идентификатор кодека                     : 40
Продолжительность                        : 3 м. 28 с.
Вид битрейта                             : Переменный
Битрейт                                  : 192 Кбит/сек
Максимальный битрейт                     : 201 Кбит/сек
Каналы                                   : 2 канала
Расположение каналов                     : Front: L R
Частота                                  : 44,1 КГц
Частота кадров                           : 43,066 кадра/сек (1024 spf)
Метод сжатия                             : С потерями
Размер потока                            : 4,78 Мбайт (7%)
Заголовок                                : IsoMedia File Produced by Google, 5-11-2011
Язык                                     : English
Дата кодирования                         : UTC 2015-04-03 05:06:04
Дата пометки                             : UTC 2015-04-03 05:06:04

Общее
Полное имя                               : C:\Раздача\Клипы\Ageless rock (2015)\29. Simon and Garfunkel - The Sound of Silence.mp4
Формат                                   : MPEG-4
Профиль формата                          : Base Media / Version 2
Идентификатор кодека                     : mp42 (isom/mp42)
Размер файла                             : 49,0 Мбайт
Продолжительность                        : 4 м. 57 с.
Режим общего битрейта                    : Переменный
Общий поток                              : 1381 Кбит/сек
Дата кодирования                         : UTC 2015-04-21 17:20:41
Дата пометки                             : UTC 2015-04-21 17:20:41
gsst                                     : 0
gstd                                     : 297446
gssd                                     : BC37A1007
gshh                                     : r4---sn-a5uuxaxjvh-gpmz.googlevideo.com

Видео
Идентификатор                            : 1
Формат                                   : AVC
Формат/Информация                        : Advanced Video Codec
Профиль формата                          :
Параметр CABAC формата                   : Да
Параметр ReFrames формата                : 1 кадр
Параметр GOP формата                     : M=1, N=60
Идентификатор кодека                     : avc1
Идентификатор кодека/Информация          : Advanced Video Coding
Продолжительность                        : 4 м. 57 с.
Битрейт                                  : 1187 Кбит/сек
Максимальный битрейт                     : 1950 Кбит/сек
Ширина                                   : 1280 пикселей
Высота                                   : 720 пикселей
Соотношение сторон                       : 16:9
Режим частоты кадров                     : Переменный
Частота кадров                           : 29,970 кадров/сек
Минимальная частота кадров               : 29,970 кадров/сек
Максимальная частота кадров              : 30,273 кадров/сек
Цветовое пространство                    : YUV
Субдискретизация насыщенности            : 4:2:0
Битовая глубина                          : 8 бит
Тип развёртки                            : Прогрессивная
Бит/(Пиксели*Кадры)                      : 0.043
Размер потока                            : 42,1 Мбайт (86%)
Дата кодирования                         : UTC 1970-01-01 00:00:00
Дата пометки                             : UTC 2015-04-21 17:20:45

Аудио
Идентификатор                            : 2
Формат                                   : AAC
Формат/Информация                        : Advanced Audio Codec
Профиль формата                          : LC
Идентификатор кодека                     : 40
Продолжительность                        : 4 м. 57 с.
Вид битрейта                             : Переменный
Битрейт                                  : 192 Кбит/сек
Максимальный битрейт                     : 201 Кбит/сек
Каналы                                   : 2 канала
Расположение каналов                     : Front: L R
Частота                                  : 44,1 КГц
Частота кадров                           : 43,066 кадра/сек (1024 spf)
Метод сжатия                             : С потерями
Размер потока                            : 6,81 Мбайт (14%)
Заголовок                                : IsoMedia File Produced by Google, 5-11-2011
Дата кодирования                         : UTC 2015-04-21 17:20:44
Дата пометки                             : UTC 2015-04-21 17:20:45

Общее
Полное имя                               : C:\Раздача\Клипы\Ageless rock (2015)\30. Paul McCartney and Wings - Helen Wheels.mp4
Формат                                   : MPEG-4
Профиль формата                          : Base Media / Version 2
Идентификатор кодека                     : mp42 (isom/mp42)
Размер файла                             : 40,9 Мбайт
Продолжительность                        : 3 м. 47 с.
Режим общего битрейта                    : Переменный
Общий поток                              : 1509 Кбит/сек
Дата кодирования                         : UTC 2014-01-17 12:45:32
Дата пометки                             : UTC 2014-01-17 12:45:32
gsst                                     : 0
gstd                                     : 227555
gssd                                     : BC37A100A
gshh                                     : r7---sn-a5uuxaxjvh-gpmz.googlevideo.com

Видео
Идентификатор                            : 1
Формат                                   : AVC
Формат/Информация                        : Advanced Video Codec
Профиль формата                          :
Параметр CABAC формата                   : Да
Параметр ReFrames формата                : 1 кадр
Параметр GOP формата                     : M=1, N=60
Идентификатор кодека                     : avc1
Идентификатор кодека/Информация          : Advanced Video Coding
Продолжительность                        : 3 м. 47 с.
Битрейт                                  : 1314 Кбит/сек
Максимальный битрейт                     : 2713 Кбит/сек
Ширина                                   : 1280 пикселей
Высота                                   : 720 пикселей
Соотношение сторон                       : 16:9
Режим частоты кадров                     : Постоянный
Частота кадров                           : 25,000 кадров/сек
Цветовое пространство                    : YUV
Субдискретизация насыщенности            : 4:2:0
Битовая глубина                          : 8 бит
Тип развёртки                            : Прогрессивная
Бит/(Пиксели*Кадры)                      : 0.057
Размер потока                            : 35,6 Мбайт (87%)
Дата пометки                             : UTC 2014-01-17 12:45:33

Аудио
Идентификатор                            : 2
Формат                                   : AAC
Формат/Информация                        : Advanced Audio Codec
Профиль формата                          : LC
Идентификатор кодека                     : 40
Продолжительность                        : 3 м. 47 с.
Вид битрейта                             : Переменный
Битрейт                                  : 192 Кбит/сек
Максимальный битрейт                     : 201 Кбит/сек
Каналы                                   : 2 канала
Расположение каналов                     : Front: L R
Частота                                  : 44,1 КГц
Частота кадров                           : 43,066 кадра/сек (1024 spf)
Метод сжатия                             : С потерями
Размер потока                            : 5,21 Мбайт (13%)
Заголовок                                : IsoMedia File Produced by Google, 5-11-2011
Дата кодирования                         : UTC 2014-01-17 12:45:32
Дата пометки                             : UTC 2014-01-17 12:45:33

Скриншоты:


Время раздачи: с 6:00 до 22:00 (GMT +2)
 
Не забывайте говорить Спасибо. Не уходите с раздачи!   
Торрент: Зарегистрирован [06 дек 2015, 02:52] Скачать торрент
Скачать торрент
[ Размер 15.66 КБ / Просмотров 20 ]
Статус:
Проверен
 
.torrent скачан: 0 раз
Хэш: 943029ae4e46748178c799b539de5116fb4a4637
Размер: 2.59 ГБ (2 783 551 133 байт)
Стать Автором раздачи
 
Аватара пользователя
 
Раздал: 3.77 ТБ
Скачал: 406.3 ГБ
Ратио: 9.496
Сообщения: 468710
Зарегистрирован: 20 янв 2011, 21:15


  • Похожие торренты
    Ответы
    Просмотры
    Последнее сообщение

Вернуться в Музыкальные клипы (транзит)

Ресурс не предоставляет электронные версии произведений, а занимается лишь коллекционированием и каталогизацией ссылок, присылаемых и публикуемых на форуме нашими читателями. Если вы являетесь правообладателем какого-либо представленного материала и не желаете чтобы ссылка на него находилась в нашем каталоге, свяжитесь с нами и мы незамедлительно удалим её. Файлы для обмена на трекере предоставлены пользователями сайта, и администрация не несёт ответственности за их содержание. Просьба не заливать файлы, защищенные авторскими правами, а также файлы нелегального содержания!
cron