VA - Official UK Top 40 Video Chart (27-11-2015) WEB-DL [1080p-LQ]

 
 Статистика раздачи 
Размер: 2.09 ГБ   |  Зарегистрирован: 03 дек 2015, 19:37   |   .torrent скачан: 0 раз
Сидеров: 1  [ 0 байт/сек ]     Личеров: 0  [ 0 байт/сек ]  
  

VA - Official UK Top 40 Video Chart (27-11-2015) WEB-DL [1080p-LQ]

Сообщение Nakazhu » 03 дек 2015, 19:37

VA - Official UK Top 40 Video Chart (27-11-2015) WEB-DL

Жанр: Pop, Dance, Rock, R&B, Top40
Количество клипов: 40

Описание:
Достаточно много времени прошло с момента размещения на трекере последнего Топ-40 (Видео). 27 ноября 2015 года опубликован очередной UK Singles Chart - официальный хит-парад синглов Великобритании, отсортированных по результатам продаж за неделю. В релизе в основном использованы официальные видеоролики.

Продолжительность: 02:38:19
Качество видео: WEB-DL
Контейнер: MKV
Перевод: Отсутствует
Язык: Английский
Видео: VP9, 1920x1080 (16:9), 417 ~ 3343 kbps
Аудио: Vorbis, 2 ch, 128 kpbs, CBR

Треклист:
01. Justin Bieber - Sorry (3:25)
02. Justin Bieber - Love Yourself (4:32)
03. Adele - Hello (6:07)
04. Justin Bieber - What Do You Mean (4:58)
05. Fleur East - Sax (Official Video) (3:59)
06. Zara Larsson, MNEK - Never Forget You (4:03)
07. Take Me Home - Jess Glynne (Official Appeal Song 2015) (4:33)
08. Nathan Sykes - Over And Over Again (4:06)
09. One Direction - Perfect (Official Video) (3:49)
10. WSTRN - In2 (Official Video) (4:17)
11. The Weeknd - The Hills (3:54)
12. Rudimental - Lay It All On Me feat. Ed Sheeran [Official Video] (4:19)
13. Olly Murs - Kiss Me (Official Video) (3:16)
14. Drake - Hotline Bling (4:56)
15. Sam Smith - Writing s On The Wall (from Spectre) (4:44)
16. Justin Bieber - I ll Show You (3:21)
17. KDA - Turn The Music Louder (Rumble) ft. Tinie Tempah, Katy B (3:25)
18. Little Mix - Love Me Like You (Official Video) (3:43)
19. Naughty Boy - Runnin (Lose It All) ft. Beyonce, Arrow Benjamin (3:44)
20. The Weeknd - Can’t Feel My Face (3:38)
21. Ellie Goulding - On My Mind (4:05)
22. Calvin Harris & Disciples - How Deep Is Your Love (4:21)
23. Coldplay - Adventure Of A Lifetime (Official video) (5:16)
24. Jamie Lawson - Wasn t Expecting That [Official Video] (3:28)
25. Justin Bieber - Company (4:56)
26. Ariana Grande - Focus (3:45)
27. Skrillex, Diplo, Justin Bieber - Where Are U Now (4:38)
28. R. City - Locked Away ft. Adam Levine (4:25)
29. Adele - When We Were Young (Live at The Church Studios) (5:43)
30. Jess Glynne - Don t Be So Hard On Yourself (Official Video) (4:11)
31. Fetty Wap 679 feat. Remy Boyz (Official Video) (3:44)
32. Years & Years - Eyes Shut (3:43)
33. Justin Bieber - Mark My Words (3:04)
34. Justin Bieber - The Feeling ft. Halsey (4:23)
35. Diplo & Sleepy Tom - Be Right There (3:58)
36. One Direction - Drag Me Down (3:12)
37. Aurora - Half The World Away (John Lewis Christmas) (3:08)
38. Justin Bieber - No Pressure ft. Big Sean (3:20)
39. Sigala - Easy Love (2:57)
40. Pia Mia - Do It Again ft. Chris Brown, Tyga (3:33)
Код:
Код: Выделить всё
Общее
Уникальный идентификатор                 : 146622320473300439481813907442242480834 (0x6E4E6E87444AFCF873063F9D422CEAC2)
Полное имя                               : D:\The Official UK Top 40 Singles Chart (27-11-2015)mkv\01. Justin Bieber - Sorry (PURPOSE   The Movement).mkv
Формат                                   : Matroska
Версия формата                           : Version 4 / Version 2
Размер файла                             : 60,8 Мбайт
Продолжительность                        : 3 м. 25 с.
Режим общего битрейта                    : Переменный
Общий поток                              : 2486 Кбит/сек
Программа кодирования                    : Lavf56.40.101
Библиотека кодирования                   : Lavf56.40.101

Видео
Идентификатор                            : 1
Формат                                   : VP9
Идентификатор кодека                     : V_VP9
Битрейт                                  : 2309 Кбит/сек
Ширина                                   : 1920 пикселей
Высота                                   : 1080 пикселей
Соотношение сторон                       : 16:9
Режим частоты кадров                     : Переменный
Default                                  : Да
Forced                                   : Нет
DURATION                                 : 00:03:25.079000000

Аудио
Идентификатор                            : 2
Формат                                   : Vorbis
Параметр Floor формата                   : 1
Идентификатор кодека                     : A_VORBIS
Продолжительность                        : 3 м. 25 с.
Вид битрейта                             : Переменный
Битрейт                                  : 128 Кбит/сек
Каналы                                   : 2 канала
Частота                                  : 44,1 КГц
Метод сжатия                             : С потерями
Размер потока                            : 3,13 Мбайт (5%)
Default                                  : Да
Forced                                   : Нет
DURATION                                 : 00:03:25.123000000
Программа кодирования                    : Google

Общее
Уникальный идентификатор                 : 238596602740389996218784734521276880276 (0xB38008C053BB32D9DA44FCDD2659D594)
Полное имя                               : D:\The Official UK Top 40 Singles Chart (27-11-2015)mkv\02. Justin Bieber - Love Yourself (PURPOSE   The Movement).mkv
Формат                                   : Matroska
Версия формата                           : Version 4 / Version 2
Размер файла                             : 55,5 Мбайт
Продолжительность                        : 4 м. 32 с.
Режим общего битрейта                    : Переменный
Общий поток                              : 1710 Кбит/сек
Программа кодирования                    : Lavf56.40.101
Библиотека кодирования                   : Lavf56.40.101

Видео
Идентификатор                            : 1
Формат                                   : VP9
Идентификатор кодека                     : V_VP9
Битрейт                                  : 1548 Кбит/сек
Ширина                                   : 1920 пикселей
Высота                                   : 1080 пикселей
Соотношение сторон                       : 16:9
Режим частоты кадров                     : Переменный
Default                                  : Да
Forced                                   : Нет
DURATION                                 : 00:04:32.188000000

Аудио
Идентификатор                            : 2
Формат                                   : Vorbis
Параметр Floor формата                   : 1
Идентификатор кодека                     : A_VORBIS
Продолжительность                        : 4 м. 32 с.
Вид битрейта                             : Переменный
Битрейт                                  : 128 Кбит/сек
Каналы                                   : 2 канала
Частота                                  : 44,1 КГц
Метод сжатия                             : С потерями
Размер потока                            : 4,15 Мбайт (7%)
Default                                  : Да
Forced                                   : Нет
DURATION                                 : 00:04:32.229000000
Программа кодирования                    : Google

Общее
Уникальный идентификатор                 : 337985675757037436105578812417049568522 (0xFE45AC62122738DC19F110257B57250A)
Полное имя                               : D:\The Official UK Top 40 Singles Chart (27-11-2015)mkv\03. Adele - Hello.mkv
Формат                                   : Matroska
Версия формата                           : Version 4 / Version 2
Размер файла                             : 72,5 Мбайт
Продолжительность                        : 6 м. 6 с.
Режим общего битрейта                    : Переменный
Общий поток                              : 1659 Кбит/сек
Программа кодирования                    : Lavf56.40.101
Библиотека кодирования                   : Lavf56.40.101

Видео
Идентификатор                            : 1
Формат                                   : VP9
Идентификатор кодека                     : V_VP9
Битрейт                                  : 1498 Кбит/сек
Ширина                                   : 1920 пикселей
Высота                                   : 1080 пикселей
Соотношение сторон                       : 16:9
Режим частоты кадров                     : Переменный
Default                                  : Да
Forced                                   : Нет
DURATION                                 : 00:06:06.824000000

Аудио
Идентификатор                            : 2
Формат                                   : Vorbis
Параметр Floor формата                   : 1
Идентификатор кодека                     : A_VORBIS
Продолжительность                        : 6 м. 6 с.
Вид битрейта                             : Переменный
Битрейт                                  : 128 Кбит/сек
Каналы                                   : 2 канала
Частота                                  : 44,1 КГц
Метод сжатия                             : С потерями
Размер потока                            : 5,60 Мбайт (8%)
Default                                  : Да
Forced                                   : Нет
DURATION                                 : 00:06:06.833000000
Программа кодирования                    : Google

Общее
Уникальный идентификатор                 : 267946282279775402243546897047456216798 (0xC99493ACA32314F95D10CFA8CC8276DE)
Полное имя                               : D:\The Official UK Top 40 Singles Chart (27-11-2015)mkv\04. Justin Bieber - What Do You Mean.mkv
Формат                                   : Matroska
Версия формата                           : Version 4 / Version 2
Размер файла                             : 61,1 Мбайт
Продолжительность                        : 4 м. 57 с.
Режим общего битрейта                    : Переменный
Общий поток                              : 1721 Кбит/сек
Программа кодирования                    : Lavf56.40.101
Библиотека кодирования                   : Lavf56.40.101

Видео
Идентификатор                            : 1
Формат                                   : VP9
Идентификатор кодека                     : V_VP9
Битрейт                                  : 1559 Кбит/сек
Ширина                                   : 1920 пикселей
Высота                                   : 1080 пикселей
Соотношение сторон                       : 16:9
Режим частоты кадров                     : Переменный
Default                                  : Да
Forced                                   : Нет
DURATION                                 : 00:04:57.838000000

Аудио
Идентификатор                            : 2
Формат                                   : Vorbis
Параметр Floor формата                   : 1
Идентификатор кодека                     : A_VORBIS
Продолжительность                        : 4 м. 57 с.
Вид битрейта                             : Переменный
Битрейт                                  : 128 Кбит/сек
Каналы                                   : 2 канала
Частота                                  : 44,1 КГц
Метод сжатия                             : С потерями
Размер потока                            : 4,54 Мбайт (7%)
Default                                  : Да
Forced                                   : Нет
DURATION                                 : 00:04:57.849000000
Программа кодирования                    : Google

Общее
Уникальный идентификатор                 : 8740386939699547559110495518588034674 (0x6935658DA0B279B422C9805FCF25E72)
Полное имя                               : D:\The Official UK Top 40 Singles Chart (27-11-2015)mkv\05. Fleur East - Sax (Official Video).mkv
Формат                                   : Matroska
Версия формата                           : Version 4 / Version 2
Размер файла                             : 82,8 Мбайт
Продолжительность                        : 3 м. 59 с.
Режим общего битрейта                    : Переменный
Общий поток                              : 2901 Кбит/сек
Программа кодирования                    : Lavf56.40.101
Библиотека кодирования                   : Lavf56.40.101

Видео
Идентификатор                            : 1
Формат                                   : VP9
Идентификатор кодека                     : V_VP9
Битрейт                                  : 2715 Кбит/сек
Ширина                                   : 1920 пикселей
Высота                                   : 1080 пикселей
Соотношение сторон                       : 16:9
Режим частоты кадров                     : Переменный
Default                                  : Да
Forced                                   : Нет
DURATION                                 : 00:03:59.363000000

Аудио
Идентификатор                            : 2
Формат                                   : Vorbis
Параметр Floor формата                   : 1
Идентификатор кодека                     : A_VORBIS
Продолжительность                        : 3 м. 59 с.
Вид битрейта                             : Переменный
Битрейт                                  : 128 Кбит/сек
Каналы                                   : 2 канала
Частота                                  : 44,1 КГц
Метод сжатия                             : С потерями
Размер потока                            : 3,65 Мбайт (4%)
Default                                  : Да
Forced                                   : Нет
DURATION                                 : 00:03:59.393000000
Программа кодирования                    : Google

Общее
Уникальный идентификатор                 : 175120062091870029311610379753632151665 (0x83BEE5AB44354AB587DF316499F1B871)
Полное имя                               : D:\The Official UK Top 40 Singles Chart (27-11-2015)mkv\06. Zara Larsson, MNEK - Never Forget You.mkv
Формат                                   : Matroska
Версия формата                           : Version 4 / Version 2
Размер файла                             : 31,9 Мбайт
Продолжительность                        : 4 м. 2 с.
Режим общего битрейта                    : Переменный
Общий поток                              : 1102 Кбит/сек
Программа кодирования                    : Lavf56.40.101
Библиотека кодирования                   : Lavf56.40.101

Видео
Идентификатор                            : 1
Формат                                   : VP9
Идентификатор кодека                     : V_VP9
Продолжительность                        : 4 м. 2 с.
Битрейт                                  : 952 Кбит/сек
Ширина                                   : 1920 пикселей
Высота                                   : 1080 пикселей
Соотношение сторон                       : 16:9
Режим частоты кадров                     : Постоянный
Частота кадров                           : 24,194 кадра/сек
Бит/(Пиксели*Кадры)                      : 0.019
Размер потока                            : 27,6 Мбайт (86%)
Default                                  : Да
Forced                                   : Нет
DURATION                                 : 00:04:02.760000000

Аудио
Идентификатор                            : 2
Формат                                   : Vorbis
Параметр Floor формата                   : 1
Идентификатор кодека                     : A_VORBIS
Продолжительность                        : 4 м. 2 с.
Вид битрейта                             : Переменный
Битрейт                                  : 128 Кбит/сек
Каналы                                   : 2 канала
Частота                                  : 44,1 КГц
Метод сжатия                             : С потерями
Размер потока                            : 3,70 Мбайт (12%)
Default                                  : Да
Forced                                   : Нет
DURATION                                 : 00:04:02.777000000
Программа кодирования                    : Google

Общее
Уникальный идентификатор                 : 245507707299003965144385506024035964354 (0xB8B310837F7F85FE242A2A96A9CFD5C2)
Полное имя                               : D:\The Official UK Top 40 Singles Chart (27-11-2015)mkv\07. Take Me Home - Jess Glynne - Official Appeal Song 2015.mkv
Формат                                   : Matroska
Версия формата                           : Version 4 / Version 2
Размер файла                             : 29,2 Мбайт
Продолжительность                        : 4 м. 32 с.
Режим общего битрейта                    : Переменный
Общий поток                              : 896 Кбит/сек
Программа кодирования                    : Lavf56.40.101
Библиотека кодирования                   : Lavf56.40.101

Видео
Идентификатор                            : 1
Формат                                   : VP9
Идентификатор кодека                     : V_VP9
Продолжительность                        : 4 м. 32 с.
Битрейт                                  : 750 Кбит/сек
Ширина                                   : 1920 пикселей
Высота                                   : 1080 пикселей
Соотношение сторон                       : 16:9
Режим частоты кадров                     : Постоянный
Частота кадров                           : 25,000 кадров/сек
Бит/(Пиксели*Кадры)                      : 0.014
Размер потока                            : 24,4 Мбайт (84%)
Default                                  : Да
Forced                                   : Нет
DURATION                                 : 00:04:32.800000000

Аудио
Идентификатор                            : 2
Формат                                   : Vorbis
Параметр Floor формата                   : 1
Идентификатор кодека                     : A_VORBIS
Продолжительность                        : 4 м. 32 с.
Вид битрейта                             : Переменный
Битрейт                                  : 128 Кбит/сек
Каналы                                   : 2 канала
Частота                                  : 44,1 КГц
Метод сжатия                             : С потерями
Размер потока                            : 4,16 Мбайт (14%)
Default                                  : Да
Forced                                   : Нет
DURATION                                 : 00:04:32.815000000
Программа кодирования                    : Google

Общее
Уникальный идентификатор                 : 324029275763717776472832402158490354794 (0xF3C5C4BCC0D1FEA4EB0F4279F176046A)
Полное имя                               : D:\The Official UK Top 40 Singles Chart (27-11-2015)mkv\08. Nathan Sykes - Over And Over Again.mkv
Формат                                   : Matroska
Версия формата                           : Version 4 / Version 2
Размер файла                             : 49,1 Мбайт
Продолжительность                        : 4 м. 6 с.
Режим общего битрейта                    : Переменный
Общий поток                              : 1672 Кбит/сек
Программа кодирования                    : Lavf56.40.101
Библиотека кодирования                   : Lavf56.40.101

Видео
Идентификатор                            : 1
Формат                                   : VP9
Идентификатор кодека                     : V_VP9
Битрейт                                  : 1510 Кбит/сек
Ширина                                   : 1920 пикселей
Высота                                   : 1080 пикселей
Соотношение сторон                       : 16:9
Режим частоты кадров                     : Переменный
Default                                  : Да
Forced                                   : Нет
DURATION                                 : 00:04:06.245000000

Аудио
Идентификатор                            : 2
Формат                                   : Vorbis
Параметр Floor формата                   : 1
Идентификатор кодека                     : A_VORBIS
Продолжительность                        : 4 м. 6 с.
Вид битрейта                             : Переменный
Битрейт                                  : 128 Кбит/сек
Каналы                                   : 2 канала
Частота                                  : 44,1 КГц
Метод сжатия                             : С потерями
Размер потока                            : 3,76 Мбайт (8%)
Default                                  : Да
Forced                                   : Нет
DURATION                                 : 00:04:06.260000000
Программа кодирования                    : Google

Общее
Уникальный идентификатор                 : 92571864716776394752143990631150586396 (0x45A4B14FF9BF1BA4A597BB4A94B70A1C)
Полное имя                               : D:\The Official UK Top 40 Singles Chart (27-11-2015)mkv\09. One Direction - Perfect (Official Video).mkv
Формат                                   : Matroska
Версия формата                           : Version 4 / Version 2
Размер файла                             : 60,1 Мбайт
Продолжительность                        : 3 м. 48 с.
Режим общего битрейта                    : Переменный
Общий поток                              : 2201 Кбит/сек
Программа кодирования                    : Lavf56.40.101
Библиотека кодирования                   : Lavf56.40.101

Видео
Идентификатор                            : 1
Формат                                   : VP9
Идентификатор кодека                     : V_VP9
Битрейт                                  : 2029 Кбит/сек
Ширина                                   : 1920 пикселей
Высота                                   : 1080 пикселей
Соотношение сторон                       : 16:9
Режим частоты кадров                     : Переменный
Default                                  : Да
Forced                                   : Нет
DURATION                                 : 00:03:48.895000000

Аудио
Идентификатор                            : 2
Формат                                   : Vorbis
Параметр Floor формата                   : 1
Идентификатор кодека                     : A_VORBIS
Продолжительность                        : 3 м. 48 с.
Вид битрейта                             : Переменный
Битрейт                                  : 128 Кбит/сек
Каналы                                   : 2 канала
Частота                                  : 44,1 КГц
Метод сжатия                             : С потерями
Размер потока                            : 3,49 Мбайт (6%)
Default                                  : Да
Forced                                   : Нет
DURATION                                 : 00:03:48.912000000
Программа кодирования                    : Google

Общее
Уникальный идентификатор                 : 252962871419432374598068745518242218446 (0xBE4EE07BC38AD952FC9CBE6EAC1241CE)
Полное имя                               : D:\The Official UK Top 40 Singles Chart (27-11-2015)mkv\10. WSTRN - In2 [Official Video].mkv
Формат                                   : Matroska
Версия формата                           : Version 4 / Version 2
Размер файла                             : 80,4 Мбайт
Продолжительность                        : 4 м. 16 с.
Режим общего битрейта                    : Переменный
Общий поток                              : 2627 Кбит/сек
Программа кодирования                    : Lavf56.40.101
Библиотека кодирования                   : Lavf56.40.101

Видео
Идентификатор                            : 1
Формат                                   : VP9
Идентификатор кодека                     : V_VP9
Продолжительность                        : 4 м. 16 с.
Битрейт                                  : 2447 Кбит/сек
Ширина                                   : 1920 пикселей
Высота                                   : 1080 пикселей
Соотношение сторон                       : 16:9
Режим частоты кадров                     : Постоянный
Частота кадров                           : 25,000 кадров/сек
Бит/(Пиксели*Кадры)                      : 0.047
Размер потока                            : 74,9 Мбайт (93%)
Default                                  : Да
Forced                                   : Нет
DURATION                                 : 00:04:16.800000000

Аудио
Идентификатор                            : 2
Формат                                   : Vorbis
Параметр Floor формата                   : 1
Идентификатор кодека                     : A_VORBIS
Продолжительность                        : 4 м. 16 с.
Вид битрейта                             : Переменный
Битрейт                                  : 128 Кбит/сек
Каналы                                   : 2 канала
Частота                                  : 44,1 КГц
Метод сжатия                             : С потерями
Размер потока                            : 3,92 Мбайт (5%)
Default                                  : Да
Forced                                   : Нет
DURATION                                 : 00:04:16.811000000
Программа кодирования                    : Google

Общее
Уникальный идентификатор                 : 266581695673848297578678672735719802324 (0xC88DC45C3BE6A47B68C2FBFA12BA45D4)
Полное имя                               : D:\The Official UK Top 40 Singles Chart (27-11-2015)mkv\11. The Weeknd - The Hills.mkv
Формат                                   : Matroska
Версия формата                           : Version 4 / Version 2
Размер файла                             : 43,7 Мбайт
Продолжительность                        : 3 м. 54 с.
Режим общего битрейта                    : Переменный
Общий поток                              : 1566 Кбит/сек
Программа кодирования                    : Lavf56.40.101
Библиотека кодирования                   : Lavf56.40.101

Видео
Идентификатор                            : 1
Формат                                   : VP9
Идентификатор кодека                     : V_VP9
Битрейт                                  : 1406 Кбит/сек
Ширина                                   : 1920 пикселей
Высота                                   : 1080 пикселей
Соотношение сторон                       : 16:9
Режим частоты кадров                     : Переменный
Default                                  : Да
Forced                                   : Нет
DURATION                                 : 00:03:54.149000000

Аудио
Идентификатор                            : 2
Формат                                   : Vorbis
Параметр Floor формата                   : 1
Идентификатор кодека                     : A_VORBIS
Продолжительность                        : 3 м. 54 с.
Вид битрейта                             : Переменный
Битрейт                                  : 128 Кбит/сек
Каналы                                   : 2 канала
Частота                                  : 44,1 КГц
Метод сжатия                             : С потерями
Размер потока                            : 3,57 Мбайт (8%)
Default                                  : Да
Forced                                   : Нет
DURATION                                 : 00:03:54.189000000
Программа кодирования                    : Google

Общее
Уникальный идентификатор                 : 319905791728254721002259490653869938401 (0xF0AB9D472BCF08B36E8AE81E83DB96E1)
Полное имя                               : D:\The Official UK Top 40 Singles Chart (27-11-2015)mkv\13. Olly Murs - Kiss Me (Official Video).mkv
Формат                                   : Matroska
Версия формата                           : Version 4 / Version 2
Размер файла                             : 33,0 Мбайт
Продолжительность                        : 3 м. 16 с.
Режим общего битрейта                    : Переменный
Общий поток                              : 1411 Кбит/сек
Программа кодирования                    : Lavf56.40.101
Библиотека кодирования                   : Lavf56.40.101

Видео
Идентификатор                            : 1
Формат                                   : VP9
Идентификатор кодека                     : V_VP9
Продолжительность                        : 3 м. 16 с.
Битрейт                                  : 1255 Кбит/сек
Ширина                                   : 1920 пикселей
Высота                                   : 1080 пикселей
Соотношение сторон                       : 16:9
Режим частоты кадров                     : Постоянный
Частота кадров                           : 25,000 кадров/сек
Бит/(Пиксели*Кадры)                      : 0.024
Размер потока                            : 29,4 Мбайт (89%)
Default                                  : Да
Forced                                   : Нет
DURATION                                 : 00:03:16.440000000

Аудио
Идентификатор                            : 2
Формат                                   : Vorbis
Параметр Floor формата                   : 1
Идентификатор кодека                     : A_VORBIS
Продолжительность                        : 3 м. 16 с.
Вид битрейта                             : Переменный
Битрейт                                  : 128 Кбит/сек
Каналы                                   : 2 канала
Частота                                  : 44,1 КГц
Метод сжатия                             : С потерями
Размер потока                            : 3,00 Мбайт (9%)
Default                                  : Да
Forced                                   : Нет
DURATION                                 : 00:03:16.442000000
Программа кодирования                    : Google

Общее
Уникальный идентификатор                 : 224288297261133108096688792206610507778 (0xA8BC5AD3538BA4C9CA45BB46ED13A802)
Полное имя                               : D:\The Official UK Top 40 Singles Chart (27-11-2015)mkv\14. Drake - Hotline Bling.mkv
Формат                                   : Matroska
Версия формата                           : Version 4 / Version 2
Размер файла                             : 36,8 Мбайт
Продолжительность                        : 4 м. 55 с.
Режим общего битрейта                    : Переменный
Общий поток                              : 1044 Кбит/сек
Программа кодирования                    : Lavf56.40.101
Библиотека кодирования                   : Lavf56.40.101

Видео
Идентификатор                            : 1
Формат                                   : VP9
Идентификатор кодека                     : V_VP9
Битрейт                                  : 895 Кбит/сек
Ширина                                   : 1920 пикселей
Высота                                   : 1080 пикселей
Соотношение сторон                       : 16:9
Режим частоты кадров                     : Переменный
Default                                  : Да
Forced                                   : Нет
DURATION                                 : 00:04:55.502000000

Аудио
Идентификатор                            : 2
Формат                                   : Vorbis
Параметр Floor формата                   : 1
Идентификатор кодека                     : A_VORBIS
Продолжительность                        : 4 м. 55 с.
Вид битрейта                             : Переменный
Битрейт                                  : 128 Кбит/сек
Каналы                                   : 2 канала
Частота                                  : 44,1 КГц
Метод сжатия                             : С потерями
Размер потока                            : 4,51 Мбайт (12%)
Default                                  : Да
Forced                                   : Нет
DURATION                                 : 00:04:55.524000000
Программа кодирования                    : Google

Общее
Уникальный идентификатор                 : 174927051261990856619194768295040746832 (0x8399B980194C78344F942F8F8B358550)
Полное имя                               : D:\The Official UK Top 40 Singles Chart (27-11-2015)mkv\15. Sam Smith - Writing s On The Wall (from Spectre).mkv
Формат                                   : Matroska
Версия формата                           : Version 4 / Version 2
Размер файла                             : 33,7 Мбайт
Продолжительность                        : 4 м. 44 с.
Режим общего битрейта                    : Переменный
Общий поток                              : 994 Кбит/сек
Программа кодирования                    : Lavf56.40.101
Библиотека кодирования                   : Lavf56.40.101

Видео
Идентификатор                            : 1
Формат                                   : VP9
Идентификатор кодека                     : V_VP9
Продолжительность                        : 4 м. 44 с.
Битрейт                                  : 846 Кбит/сек
Ширина                                   : 1920 пикселей
Высота                                   : 1080 пикселей
Соотношение сторон                       : 16:9
Режим частоты кадров                     : Постоянный
Частота кадров                           : 24,194 кадра/сек
Бит/(Пиксели*Кадры)                      : 0.017
Размер потока                            : 28,7 Мбайт (85%)
Default                                  : Да
Forced                                   : Нет
DURATION                                 : 00:04:44.440000000

Аудио
Идентификатор                            : 2
Формат                                   : Vorbis
Параметр Floor формата                   : 1
Идентификатор кодека                     : A_VORBIS
Продолжительность                        : 4 м. 44 с.
Вид битрейта                             : Переменный
Битрейт                                  : 128 Кбит/сек
Каналы                                   : 2 канала
Частота                                  : 44,1 КГц
Метод сжатия                             : С потерями
Размер потока                            : 4,34 Мбайт (13%)
Default                                  : Да
Forced                                   : Нет
DURATION                                 : 00:04:44.457000000
Программа кодирования                    : Google

Общее
Уникальный идентификатор                 : 227719054298343170527620823014087027792 (0xAB511834F533AC6ADCB3E171AB276C50)
Полное имя                               : D:\The Official UK Top 40 Singles Chart (27-11-2015)mkv\16. Justin Bieber - I ll Show You.mkv
Формат                                   : Matroska
Версия формата                           : Version 4 / Version 2
Размер файла                             : 55,4 Мбайт
Продолжительность                        : 3 м. 20 с.
Режим общего битрейта                    : Переменный
Общий поток                              : 2315 Кбит/сек
Программа кодирования                    : Lavf56.40.101
Библиотека кодирования                   : Lavf56.40.101

Видео
Идентификатор                            : 1
Формат                                   : VP9
Идентификатор кодека                     : V_VP9
Битрейт                                  : 2141 Кбит/сек
Ширина                                   : 1920 пикселей
Высота                                   : 1080 пикселей
Соотношение сторон                       : 16:9
Режим частоты кадров                     : Переменный
Default                                  : Да
Forced                                   : Нет
DURATION                                 : 00:03:20.824000000

Аудио
Идентификатор                            : 2
Формат                                   : Vorbis
Параметр Floor формата                   : 1
Идентификатор кодека                     : A_VORBIS
Продолжительность                        : 3 м. 20 с.
Вид битрейта                             : Переменный
Битрейт                                  : 128 Кбит/сек
Каналы                                   : 2 канала
Частота                                  : 44,1 КГц
Метод сжатия                             : С потерями
Размер потока                            : 3,06 Мбайт (6%)
Default                                  : Да
Forced                                   : Нет
DURATION                                 : 00:03:20.834000000
Программа кодирования                    : Google

Общее
Уникальный идентификатор                 : 154631931010359012334363979593525449769 (0x745506D12A9E488EDE2854F8748B5429)
Полное имя                               : D:\The Official UK Top 40 Singles Chart (27-11-2015)mkv\17. KDA - Turn The Music Louder (Rumble) ft. Tinie Tempah, Katy B.mkv
Формат                                   : Matroska
Версия формата                           : Version 4 / Version 2
Размер файла                             : 49,7 Мбайт
Продолжительность                        : 3 м. 25 с.
Режим общего битрейта                    : Переменный
Общий поток                              : 2031 Кбит/сек
Программа кодирования                    : Lavf56.40.101
Библиотека кодирования                   : Lavf56.40.101

Видео
Идентификатор                            : 1
Формат                                   : VP9
Идентификатор кодека                     : V_VP9
Продолжительность                        : 3 м. 25 с.
Битрейт                                  : 1863 Кбит/сек
Ширина                                   : 1920 пикселей
Высота                                   : 1080 пикселей
Соотношение сторон                       : 16:9
Режим частоты кадров                     : Постоянный
Частота кадров                           : 25,000 кадров/сек
Бит/(Пиксели*Кадры)                      : 0.036
Размер потока                            : 45,6 Мбайт (92%)
Default                                  : Да
Forced                                   : Нет
DURATION                                 : 00:03:25.360000000

Аудио
Идентификатор                            : 2
Формат                                   : Vorbis
Параметр Floor формата                   : 1
Идентификатор кодека                     : A_VORBIS
Продолжительность                        : 3 м. 25 с.
Вид битрейта                             : Переменный
Битрейт                                  : 128 Кбит/сек
Каналы                                   : 2 канала
Частота                                  : 44,1 КГц
Метод сжатия                             : С потерями
Размер потока                            : 3,13 Мбайт (6%)
Default                                  : Да
Forced                                   : Нет
DURATION                                 : 00:03:25.385000000
Программа кодирования                    : Google

Общее
Уникальный идентификатор                 : 8008466185700368857432393755821008402 (0x6065FDE27A9D716F59382B04292E612)
Полное имя                               : D:\The Official UK Top 40 Singles Chart (27-11-2015)mkv\18. Little Mix - Love Me Like You (Official Video).mkv
Формат                                   : Matroska
Версия формата                           : Version 4 / Version 2
Размер файла                             : 74,0 Мбайт
Продолжительность                        : 3 м. 43 с.
Режим общего битрейта                    : Переменный
Общий поток                              : 2779 Кбит/сек
Программа кодирования                    : Lavf56.40.101
Библиотека кодирования                   : Lavf56.40.101

Видео
Идентификатор                            : 1
Формат                                   : VP9
Идентификатор кодека                     : V_VP9
Битрейт                                  : 2596 Кбит/сек
Ширина                                   : 1920 пикселей
Высота                                   : 1080 пикселей
Соотношение сторон                       : 16:9
Режим частоты кадров                     : Переменный
Default                                  : Да
Forced                                   : Нет
DURATION                                 : 00:03:43.389000000

Аудио
Идентификатор                            : 2
Формат                                   : Vorbis
Параметр Floor формата                   : 1
Идентификатор кодека                     : A_VORBIS
Продолжительность                        : 3 м. 43 с.
Вид битрейта                             : Переменный
Битрейт                                  : 128 Кбит/сек
Каналы                                   : 2 канала
Частота                                  : 44,1 КГц
Метод сжатия                             : С потерями
Размер потока                            : 3,41 Мбайт (5%)
Default                                  : Да
Forced                                   : Нет
DURATION                                 : 00:03:43.415000000
Программа кодирования                    : Google

Общее
Уникальный идентификатор                 : 75749014489825651021984922439774787868 (0x38FCBAC23D9E26B14AF25F8BF72A591C)
Полное имя                               : D:\The Official UK Top 40 Singles Chart (27-11-2015)mkv\19. Naughty Boy - Runnin  (Lose It All) ft. Beyoncé, Arrow Benjamin.mkv
Формат                                   : Matroska
Версия формата                           : Version 4 / Version 2
Размер файла                             : 59,8 Мбайт
Продолжительность                        : 3 м. 43 с.
Режим общего битрейта                    : Переменный
Общий поток                              : 2239 Кбит/сек
Программа кодирования                    : Lavf56.40.101
Библиотека кодирования                   : Lavf56.40.101

Видео
Идентификатор                            : 1
Формат                                   : VP9
Идентификатор кодека                     : V_VP9
Продолжительность                        : 3 м. 43 с.
Битрейт                                  : 2067 Кбит/сек
Ширина                                   : 1920 пикселей
Высота                                   : 1080 пикселей
Соотношение сторон                       : 16:9
Режим частоты кадров                     : Постоянный
Частота кадров                           : 25,000 кадров/сек
Бит/(Пиксели*Кадры)                      : 0.040
Размер потока                            : 55,2 Мбайт (92%)
Default                                  : Да
Forced                                   : Нет
DURATION                                 : 00:03:43.840000000

Аудио
Идентификатор                            : 2
Формат                                   : Vorbis
Параметр Floor формата                   : 1
Идентификатор кодека                     : A_VORBIS
Продолжительность                        : 3 м. 43 с.
Вид битрейта                             : Переменный
Битрейт                                  : 128 Кбит/сек
Каналы                                   : 2 канала
Частота                                  : 44,1 КГц
Метод сжатия                             : С потерями
Размер потока                            : 3,42 Мбайт (6%)
Default                                  : Да
Forced                                   : Нет
DURATION                                 : 00:03:43.850000000
Программа кодирования                    : Google

Общее
Уникальный идентификатор                 : 5362199374697199792454524281724440281 (0x408B8D73E417DDF7CBB308D06B98ED9)
Полное имя                               : D:\The Official UK Top 40 Singles Chart (27-11-2015)mkv\20. The Weeknd - Can’t Feel My Face.mkv
Формат                                   : Matroska
Версия формата                           : Version 4 / Version 2
Размер файла                             : 59,5 Мбайт
Продолжительность                        : 3 м. 38 с.
Режим общего битрейта                    : Переменный
Общий поток                              : 2285 Кбит/сек
Программа кодирования                    : Lavf56.40.101
Библиотека кодирования                   : Lavf56.40.101

Видео
Идентификатор                            : 1
Формат                                   : VP9
Идентификатор кодека                     : V_VP9
Битрейт                                  : 2111 Кбит/сек
Ширина                                   : 1920 пикселей
Высота                                   : 1080 пикселей
Соотношение сторон                       : 16:9
Режим частоты кадров                     : Переменный
Default                                  : Да
Forced                                   : Нет
DURATION                                 : 00:03:38,425000000

Аудио
Идентификатор                            : 2
Формат                                   : Vorbis
Параметр Floor формата                   : 1
Идентификатор кодека                     : A_VORBIS
Продолжительность                        : 3 м. 38 с.
Вид битрейта                             : Переменный
Битрейт                                  : 128 Кбит/сек
Каналы                                   : 2 канала
Частота                                  : 44,1 КГц
Метод сжатия                             : С потерями
Размер потока                            : 3,33 Мбайт (6%)
Default                                  : Да
Forced                                   : Нет
DURATION                                 : 00:03:38,449000000
Программа кодирования                    : Google

Общее
Уникальный идентификатор                 : 160028335833858726662724172062194093722 (0x7864561DDEDCE3EC2710D99DD3AF4E9A)
Полное имя                               : D:\The Official UK Top 40 Singles Chart (27-11-2015)mkv\21. Ellie Goulding - On My Mind.mkv
Формат                                   : Matroska
Версия формата                           : Version 4 / Version 2
Размер файла                             : 58,7 Мбайт
Продолжительность                        : 4 м. 4 с.
Режим общего битрейта                    : Переменный
Общий поток                              : 2011 Кбит/сек
Программа кодирования                    : Lavf56.40.101
Библиотека кодирования                   : Lavf56.40.101

Видео
Идентификатор                            : 1
Формат                                   : VP9
Идентификатор кодека                     : V_VP9
Битрейт                                  : 1843 Кбит/сек
Ширина                                   : 1920 пикселей
Высота                                   : 1080 пикселей
Соотношение сторон                       : 16:9
Режим частоты кадров                     : Переменный
Default                                  : Да
Forced                                   : Нет
DURATION                                 : 00:04:04.619000000

Аудио
Идентификатор                            : 2
Формат                                   : Vorbis
Параметр Floor формата                   : 1
Идентификатор кодека                     : A_VORBIS
Продолжительность                        : 4 м. 4 с.
Вид битрейта                             : Переменный
Битрейт                                  : 128 Кбит/сек
Каналы                                   : 2 канала
Частота                                  : 44,1 КГц
Метод сжатия                             : С потерями
Размер потока                            : 3,73 Мбайт (6%)
Default                                  : Да
Forced                                   : Нет
DURATION                                 : 00:04:04.638000000
Программа кодирования                    : Google

Общее
Уникальный идентификатор                 : 62953764387254473147901193534983733614 (0x2F5C7438FC5022508EA04F89B8A1816E)
Полное имя                               : D:\The Official UK Top 40 Singles Chart (27-11-2015)mkv\22. Calvin Harris & Disciples - How Deep Is Your Love.mkv
Формат                                   : Matroska
Версия формата                           : Version 4 / Version 2
Размер файла                             : 56,0 Мбайт
Продолжительность                        : 4 м. 20 с.
Режим общего битрейта                    : Переменный
Общий поток                              : 1802 Кбит/сек
Программа кодирования                    : Lavf56.40.101
Библиотека кодирования                   : Lavf56.40.101

Видео
Идентификатор                            : 1
Формат                                   : VP9
Идентификатор кодека                     : V_VP9
Битрейт                                  : 1638 Кбит/сек
Ширина                                   : 1920 пикселей
Высота                                   : 1080 пикселей
Соотношение сторон                       : 16:9
Режим частоты кадров                     : Переменный
Default                                  : Да
Forced                                   : Нет
DURATION                                 : 00:04:20,510000000

Аудио
Идентификатор                            : 2
Формат                                   : Vorbis
Параметр Floor формата                   : 1
Идентификатор кодека                     : A_VORBIS
Продолжительность                        : 4 м. 20 с.
Вид битрейта                             : Переменный
Битрейт                                  : 128 Кбит/сек
Каналы                                   : 2 канала
Частота                                  : 44,1 КГц
Метод сжатия                             : С потерями
Размер потока                            : 3,98 Мбайт (7%)
Default                                  : Да
Forced                                   : Нет
DURATION                                 : 00:04:20,529000000
Программа кодирования                    : Google

Общее
Уникальный идентификатор                 : 298323457072384231796249072766896204825 (0xE06F02065107A51D74B9F981FF626C19)
Полное имя                               : D:\The Official UK Top 40 Singles Chart (27-11-2015)mkv\23. Coldplay - Adventure Of A Lifetime (Official video).mkv
Формат                                   : Matroska
Версия формата                           : Version 4 / Version 2
Размер файла                             : 105 Мбайт
Продолжительность                        : 5 м. 15 с.
Режим общего битрейта                    : Переменный
Общий поток                              : 2802 Кбит/сек
Программа кодирования                    : Lavf56.40.101
Библиотека кодирования                   : Lavf56.40.101

Видео
Идентификатор                            : 1
Формат                                   : VP9
Идентификатор кодека                     : V_VP9
Продолжительность                        : 5 м. 15 с.
Битрейт                                  : 2618 Кбит/сек
Ширина                                   : 1920 пикселей
Высота                                   : 1080 пикселей
Соотношение сторон                       : 16:9
Режим частоты кадров                     : Постоянный
Частота кадров                           : 25,000 кадров/сек
Бит/(Пиксели*Кадры)                      : 0.051
Размер потока                            : 98,5 Мбайт (93%)
Default                                  : Да
Forced                                   : Нет
DURATION                                 : 00:05:15,560000000

Аудио
Идентификатор                            : 2
Формат                                   : Vorbis
Параметр Floor формата                   : 1
Идентификатор кодека                     : A_VORBIS
Продолжительность                        : 5 м. 15 с.
Вид битрейта                             : Переменный
Битрейт                                  : 128 Кбит/сек
Каналы                                   : 2 канала
Частота                                  : 44,1 КГц
Метод сжатия                             : С потерями
Размер потока                            : 4,82 Мбайт (5%)
Default                                  : Да
Forced                                   : Нет
DURATION                                 : 00:05:15,587000000
Программа кодирования                    : Google

Общее
Уникальный идентификатор                 : 108053062170022831087075281024458083004 (0x514A4346F72DDE014A8FF7785382CABC)
Полное имя                               : D:\The Official UK Top 40 Singles Chart (27-11-2015)mkv\24. Jamie Lawson - Wasn t Expecting That [Official Video].mkv
Формат                                   : Matroska
Версия формата                           : Version 4 / Version 2
Размер файла                             : 37,7 Мбайт
Продолжительность                        : 3 м. 28 с.
Режим общего битрейта                    : Переменный
Общий поток                              : 1518 Кбит/сек
Программа кодирования                    : Lavf56.40.101
Библиотека кодирования                   : Lavf56.40.101

Видео
Идентификатор                            : 1
Формат                                   : VP9
Идентификатор кодека                     : V_VP9
Продолжительность                        : 3 м. 28 с.
Битрейт                                  : 1360 Кбит/сек
Ширина                                   : 1920 пикселей
Высота                                   : 1080 пикселей
Соотношение сторон                       : 16:9
Режим частоты кадров                     : Постоянный
Частота кадров                           : 24,194 кадра/сек
Бит/(Пиксели*Кадры)                      : 0.027
Размер потока                            : 33,8 Мбайт (90%)
Default                                  : Да
Forced                                   : Нет
DURATION                                 : 00:03:28.360000000

Аудио
Идентификатор                            : 2
Формат                                   : Vorbis
Параметр Floor формата                   : 1
Идентификатор кодека                     : A_VORBIS
Продолжительность                        : 3 м. 28 с.
Вид битрейта                             : Переменный
Битрейт                                  : 128 Кбит/сек
Каналы                                   : 2 канала
Частота                                  : 44,1 КГц
Метод сжатия                             : С потерями
Размер потока                            : 3,18 Мбайт (8%)
Default                                  : Да
Forced                                   : Нет
DURATION                                 : 00:03:28.389000000
Программа кодирования                    : Google

Общее
Уникальный идентификатор                 : 168293010374220731464344374366277604877 (0x7E9C0E08194CF22682C825953FDA160D)
Полное имя                               : D:\The Official UK Top 40 Singles Chart (27-11-2015)mkv\25. Justin Bieber - Company (PURPOSE   The Movement).mkv
Формат                                   : Matroska
Версия формата                           : Version 4 / Version 2
Размер файла                             : 84,8 Мбайт
Продолжительность                        : 4 м. 55 с.
Режим общего битрейта                    : Переменный
Общий поток                              : 2403 Кбит/сек
Программа кодирования                    : Lavf56.40.101
Библиотека кодирования                   : Lavf56.40.101

Видео
Идентификатор                            : 1
Формат                                   : VP9
Идентификатор кодека                     : V_VP9
Битрейт                                  : 2227 Кбит/сек
Ширина                                   : 1920 пикселей
Высота                                   : 1080 пикселей
Соотношение сторон                       : 16:9
Режим частоты кадров                     : Переменный
Default                                  : Да
Forced                                   : Нет
DURATION                                 : 00:04:55.919000000

Аудио
Идентификатор                            : 2
Формат                                   : Vorbis
Параметр Floor формата                   : 1
Идентификатор кодека                     : A_VORBIS
Продолжительность                        : 4 м. 55 с.
Вид битрейта                             : Переменный
Битрейт                                  : 128 Кбит/сек
Каналы                                   : 2 канала
Частота                                  : 44,1 КГц
Метод сжатия                             : С потерями
Размер потока                            : 4,52 Мбайт (5%)
Default                                  : Да
Forced                                   : Нет
DURATION                                 : 00:04:55.940000000
Программа кодирования                    : Google

Общее
Уникальный идентификатор                 : 207260348268795879010160262213538293174 (0x9BECE41F3A586C984B724F4B212625B6)
Полное имя                               : D:\The Official UK Top 40 Singles Chart (27-11-2015)mkv\26. Ariana Grande - Focus.mkv
Формат                                   : Matroska
Версия формата                           : Version 4 / Version 2
Размер файла                             : 54,2 Мбайт
Продолжительность                        : 3 м. 44 с.
Режим общего битрейта                    : Переменный
Общий поток                              : 2022 Кбит/сек
Программа кодирования                    : Lavf56.40.101
Библиотека кодирования                   : Lavf56.40.101

Видео
Идентификатор                            : 1
Формат                                   : VP9
Идентификатор кодека                     : V_VP9
Битрейт                                  : 1854 Кбит/сек
Ширина                                   : 1920 пикселей
Высота                                   : 1080 пикселей
Соотношение сторон                       : 16:9
Режим частоты кадров                     : Переменный
Default                                  : Да
Forced                                   : Нет
DURATION                                 : 00:03:44.932000000

Аудио
Идентификатор                            : 2
Формат                                   : Vorbis
Параметр Floor формата                   : 1
Идентификатор кодека                     : A_VORBIS
Продолжительность                        : 3 м. 44 с.
Вид битрейта                             : Переменный
Битрейт                                  : 128 Кбит/сек
Каналы                                   : 2 канала
Частота                                  : 44,1 КГц
Метод сжатия                             : С потерями
Размер потока                            : 3,43 Мбайт (6%)
Default                                  : Да
Forced                                   : Нет
DURATION                                 : 00:03:44.959000000
Программа кодирования                    : Google

Общее
Уникальный идентификатор                 : 55666481613633852970697927913997846548 (0x29E0F971381D80C0A0EEF7FF7F13C814)
Полное имя                               : D:\The Official UK Top 40 Singles Chart (27-11-2015)mkv\27. Skrillex, Diplo, Justin Bieber - Where Are Ü Now (PURPOSE   The Movement).mkv
Формат                                   : Matroska
Версия формата                           : Version 4 / Version 2
Размер файла                             : 90,7 Мбайт
Продолжительность                        : 4 м. 38 с.
Режим общего битрейта                    : Переменный
Общий поток                              : 2734 Кбит/сек
Программа кодирования                    : Lavf56.40.101
Библиотека кодирования                   : Lavf56.40.101

Видео
Идентификатор                            : 1
Формат                                   : VP9
Идентификатор кодека                     : V_VP9
Битрейт                                  : 2552 Кбит/сек
Ширина                                   : 1920 пикселей
Высота                                   : 1080 пикселей
Соотношение сторон                       : 16:9
Режим частоты кадров                     : Переменный
Default                                  : Да
Forced                                   : Нет
DURATION                                 : 00:04:38.194000000

Аудио
Идентификатор                            : 2
Формат                                   : Vorbis
Параметр Floor формата                   : 1
Идентификатор кодека                     : A_VORBIS
Продолжительность                        : 4 м. 38 с.
Вид битрейта                             : Переменный
Битрейт                                  : 128 Кбит/сек
Каналы                                   : 2 канала
Частота                                  : 44,1 КГц
Метод сжатия                             : С потерями
Размер потока                            : 4,25 Мбайт (5%)
Default                                  : Да
Forced                                   : Нет
DURATION                                 : 00:04:38.220000000
Программа кодирования                    : Google

Общее
Уникальный идентификатор                 : 145419962055221396439842262145215155757 (0x6D66DDAE772413749908070A264ACE2D)
Полное имя                               : D:\The Official UK Top 40 Singles Chart (27-11-2015)mkv\28. R. City - Locked Away ft. Adam Levine.mkv
Формат                                   : Matroska
Версия формата                           : Version 4 / Version 2
Размер файла                             : 44,8 Мбайт
Продолжительность                        : 4 м. 25 с.
Режим общего битрейта                    : Переменный
Общий поток                              : 1418 Кбит/сек
Программа кодирования                    : Lavf56.40.101
Библиотека кодирования                   : Lavf56.40.101

Видео
Идентификатор                            : 1
Формат                                   : VP9
Идентификатор кодека                     : V_VP9
Битрейт                                  : 1261 Кбит/сек
Ширина                                   : 1920 пикселей
Высота                                   : 1080 пикселей
Соотношение сторон                       : 16:9
Режим частоты кадров                     : Переменный
Default                                  : Да
Forced                                   : Нет
DURATION                                 : 00:04:25.097000000

Аудио
Идентификатор                            : 2
Формат                                   : Vorbis
Параметр Floor формата                   : 1
Идентификатор кодека                     : A_VORBIS
Продолжительность                        : 4 м. 25 с.
Вид битрейта                             : Переменный
Битрейт                                  : 128 Кбит/сек
Каналы                                   : 2 канала
Частота                                  : 44,1 КГц
Метод сжатия                             : С потерями
Размер потока                            : 4,05 Мбайт (9%)
Default                                  : Да
Forced                                   : Нет
DURATION                                 : 00:04:25.112000000
Программа кодирования                    : Google

Общее
Уникальный идентификатор                 : 40505641739552145047366296302246967177 (0x1E791A5358F83A93B9638993C5F43789)
Полное имя                               : D:\The Official UK Top 40 Singles Chart (27-11-2015)mkv\29. Adele - When We Were Young (Live at The Church Studios).mkv
Формат                                   : Matroska
Версия формата                           : Version 4 / Version 2
Размер файла                             : 69,2 Мбайт
Продолжительность                        : 5 м. 42 с.
Режим общего битрейта                    : Переменный
Общий поток                              : 1695 Кбит/сек
Программа кодирования                    : Lavf56.40.101
Библиотека кодирования                   : Lavf56.40.101

Видео
Идентификатор                            : 1
Формат                                   : VP9
Идентификатор кодека                     : V_VP9
Продолжительность                        : 5 м. 42 с.
Битрейт                                  : 1533 Кбит/сек
Ширина                                   : 1920 пикселей
Высота                                   : 1080 пикселей
Соотношение сторон                       : 16:9
Режим частоты кадров                     : Постоянный
Частота кадров                           : 25,000 кадров/сек
Бит/(Пиксели*Кадры)                      : 0.030
Размер потока                            : 62,6 Мбайт (90%)
Default                                  : Да
Forced                                   : Нет
DURATION                                 : 00:05:42.680000000

Аудио
Идентификатор                            : 2
Формат                                   : Vorbis
Параметр Floor формата                   : 1
Идентификатор кодека                     : A_VORBIS
Продолжительность                        : 5 м. 42 с.
Вид битрейта                             : Переменный
Битрейт                                  : 128 Кбит/сек
Каналы                                   : 2 канала
Частота                                  : 44,1 КГц
Метод сжатия                             : С потерями
Размер потока                            : 5,23 Мбайт (8%)
Default                                  : Да
Forced                                   : Нет
DURATION                                 : 00:05:42.702000000
Программа кодирования                    : Google

Общее
Уникальный идентификатор                 : 309351581961831161190310533675577238351 (0xE8BAF28FA5BBA58A79AC812C956BE34F)
Полное имя                               : D:\The Official UK Top 40 Singles Chart (27-11-2015)mkv\30. Jess Glynne - Don t Be So Hard On Yourself [Official Video].mkv
Формат                                   : Matroska
Версия формата                           : Version 4 / Version 2
Размер файла                             : 45,2 Мбайт
Продолжительность                        : 4 м. 10 с.
Режим общего битрейта                    : Переменный
Общий поток                              : 1512 Кбит/сек
Программа кодирования                    : Lavf56.40.101
Библиотека кодирования                   : Lavf56.40.101

Видео
Идентификатор                            : 1
Формат                                   : VP9
Идентификатор кодека                     : V_VP9
Продолжительность                        : 4 м. 10 с.
Битрейт                                  : 1353 Кбит/сек
Ширина                                   : 1920 пикселей
Высота                                   : 1080 пикселей
Соотношение сторон                       : 16:9
Режим частоты кадров                     : Постоянный
Частота кадров                           : 25,000 кадров/сек
Бит/(Пиксели*Кадры)                      : 0.026
Размер потока                            : 40,4 Мбайт (90%)
Default                                  : Да
Forced                                   : Нет
DURATION                                 : 00:04:10.560000000

Аудио
Идентификатор                            : 2
Формат                                   : Vorbis
Параметр Floor формата                   : 1
Идентификатор кодека                     : A_VORBIS
Продолжительность                        : 4 м. 10 с.
Вид битрейта                             : Переменный
Битрейт                                  : 128 Кбит/сек
Каналы                                   : 2 канала
Частота                                  : 44,1 КГц
Метод сжатия                             : С потерями
Размер потока                            : 3,82 Мбайт (8%)
Default                                  : Да
Forced                                   : Нет
DURATION                                 : 00:04:10.582000000
Программа кодирования                    : Google

Общее
Уникальный идентификатор                 : 218690187865390728878211895248622224979 (0xA48632B8FFC69A540CADB2F43DB08653)
Полное имя                               : D:\The Official UK Top 40 Singles Chart (27-11-2015)mkv\31. Fetty Wap  679  feat. Remy Boyz [Official Video].mkv
Формат                                   : Matroska
Версия формата                           : Version 4 / Version 2
Размер файла                             : 63,4 Мбайт
Продолжительность                        : 3 м. 43 с.
Режим общего битрейта                    : Переменный
Общий поток                              : 2379 Кбит/сек
Программа кодирования                    : Lavf56.40.101
Библиотека кодирования                   : Lavf56.40.101

Видео
Идентификатор                            : 1
Формат                                   : VP9
Идентификатор кодека                     : V_VP9
Битрейт                                  : 2204 Кбит/сек
Ширина                                   : 1920 пикселей
Высота                                   : 1080 пикселей
Соотношение сторон                       : 16:9
Режим частоты кадров                     : Переменный
Default                                  : Да
Forced                                   : Нет
DURATION                                 : 00:03:43.665000000

Аудио
Идентификатор                            : 2
Формат                                   : Vorbis
Параметр Floor формата                   : 1
Идентификатор кодека                     : A_VORBIS
Продолжительность                        : 3 м. 43 с.
Вид битрейта                             : Переменный
Битрейт                                  : 128 Кбит/сек
Каналы                                   : 2 канала
Частота                                  : 44,1 КГц
Метод сжатия                             : С потерями
Размер потока                            : 3,41 Мбайт (5%)
Default                                  : Да
Forced                                   : Нет
DURATION                                 : 00:03:43.694000000
Программа кодирования                    : Google

Общее
Уникальный идентификатор                 : 250052637698532738002954380712965408877 (0xBC1E62E20B549C4CB0BA5D732CD1886D)
Полное имя                               : D:\The Official UK Top 40 Singles Chart (27-11-2015)mkv\32. Years & Years - Eyes Shut.mkv
Формат                                   : Matroska
Версия формата                           : Version 4 / Version 2
Размер файла                             : 34,9 Мбайт
Продолжительность                        : 3 м. 43 с.
Режим общего битрейта                    : Переменный
Общий поток                              : 1311 Кбит/сек
Программа кодирования                    : Lavf56.40.101
Библиотека кодирования                   : Lavf56.40.101

Видео
Идентификатор                            : 1
Формат                                   : VP9
Идентификатор кодека                     : V_VP9
Продолжительность                        : 3 м. 43 с.
Битрейт                                  : 1157 Кбит/сек
Ширина                                   : 1920 пикселей
Высота                                   : 1080 пикселей
Соотношение сторон                       : 16:9
Режим частоты кадров                     : Постоянный
Частота кадров                           : 25,000 кадров/сек
Бит/(Пиксели*Кадры)                      : 0.022
Размер потока                            : 30,8 Мбайт (88%)
Default                                  : Да
Forced                                   : Нет
DURATION                                 : 00:03:43.120000000

Аудио
Идентификатор                            : 2
Формат                                   : Vorbis
Параметр Floor формата                   : 1
Идентификатор кодека                     : A_VORBIS
Продолжительность                        : 3 м. 43 с.
Вид битрейта                             : Переменный
Битрейт                                  : 128 Кбит/сек
Каналы                                   : 2 канала
Частота                                  : 44,1 КГц
Метод сжатия                             : С потерями
Размер потока                            : 3,40 Мбайт (10%)
Default                                  : Да
Forced                                   : Нет
DURATION                                 : 00:03:43.136000000
Программа кодирования                    : Google

Общее
Уникальный идентификатор                 : 202235428743371564002290455395378365005 (0x982520762E1A452B219B32911AE7824D)
Полное имя                               : D:\The Official UK Top 40 Singles Chart (27-11-2015)mkv\33. Justin Bieber - Mark My Words (PURPOSE   The Movement).mkv
Формат                                   : Matroska
Версия формата                           : Version 4 / Version 2
Размер файла                             : 33,6 Мбайт
Продолжительность                        : 3 м. 3 с.
Режим общего битрейта                    : Переменный
Общий поток                              : 1536 Кбит/сек
Программа кодирования                    : Lavf56.40.101
Библиотека кодирования                   : Lavf56.40.101

Видео
Идентификатор                            : 1
Формат                                   : VP9
Идентификатор кодека                     : V_VP9
Битрейт                                  : 1377 Кбит/сек
Ширина                                   : 1920 пикселей
Высота                                   : 1080 пикселей
Соотношение сторон                       : 16:9
Режим частоты кадров                     : Переменный
Default                                  : Да
Forced                                   : Нет
DURATION                                 : 00:03:03.515000000

Аудио
Идентификатор                            : 2
Формат                                   : Vorbis
Параметр Floor формата                   : 1
Идентификатор кодека                     : A_VORBIS
Продолжительность                        : 3 м. 3 с.
Вид битрейта                             : Переменный
Битрейт                                  : 128 Кбит/сек
Каналы                                   : 2 канала
Частота                                  : 44,1 КГц
Метод сжатия                             : С потерями
Размер потока                            : 2,80 Мбайт (8%)
Default                                  : Да
Forced                                   : Нет
DURATION                                 : 00:03:03.538000000
Программа кодирования                    : Google

Общее
Уникальный идентификатор                 : 168094312742287168672794924564907369423 (0x7E75C97B65ED4E2E878EF9B9890923CF)
Полное имя                               : D:\The Official UK Top 40 Singles Chart (27-11-2015)mkv\34. Justin Bieber - The Feeling (PURPOSE   The Movement) ft. Halsey.mkv
Формат                                   : Matroska
Версия формата                           : Version 4 / Version 2
Размер файла                             : 37,9 Мбайт
Продолжительность                        : 4 м. 22 с.
Режим общего битрейта                    : Переменный
Общий поток                              : 1211 Кбит/сек
Программа кодирования                    : Lavf56.40.101
Библиотека кодирования                   : Lavf56.40.101

Видео
Идентификатор                            : 1
Формат                                   : VP9
Идентификатор кодека                     : V_VP9
Битрейт                                  : 1059 Кбит/сек
Ширина                                   : 1920 пикселей
Высота                                   : 1080 пикселей
Соотношение сторон                       : 16:9
Режим частоты кадров                     : Переменный
Default                                  : Да
Forced                                   : Нет
DURATION                                 : 00:04:22.470000000

Аудио
Идентификатор                            : 2
Формат                                   : Vorbis
Параметр Floor формата                   : 1
Идентификатор кодека                     : A_VORBIS
Продолжительность                        : 4 м. 22 с.
Вид битрейта                             : Переменный
Битрейт                                  : 128 Кбит/сек
Каналы                                   : 2 канала
Частота                                  : 44,1 КГц
Метод сжатия                             : С потерями
Размер потока                            : 4,01 Мбайт (11%)
Default                                  : Да
Forced                                   : Нет
DURATION                                 : 00:04:22.500000000
Программа кодирования                    : Google

Общее
Уникальный идентификатор                 : 326893792380526630912364825615227005527 (0xF5ED744F7EB244F576DB3B8E3091AA57)
Полное имя                               : D:\The Official UK Top 40 Singles Chart (27-11-2015)mkv\35. Diplo & Sleepy Tom - Be Right There.mkv
Формат                                   : Matroska
Версия формата                           : Version 4 / Version 2
Размер файла                             : 44,7 Мбайт
Продолжительность                        : 3 м. 57 с.
Режим общего битрейта                    : Переменный
Общий поток                              : 1579 Кбит/сек
Программа кодирования                    : Lavf56.40.101
Библиотека кодирования                   : Lavf56.40.101

Видео
Идентификатор                            : 1
Формат                                   : VP9
Идентификатор кодека                     : V_VP9
Битрейт                                  : 1419 Кбит/сек
Ширина                                   : 1280 пикселей
Высота                                   : 720 пикселей
Соотношение сторон                       : 16:9
Режим частоты кадров                     : Переменный
Default                                  : Да
Forced                                   : Нет
DURATION                                 : 00:03:57,666000000

Аудио
Идентификатор                            : 2
Формат                                   : Vorbis
Параметр Floor формата                   : 1
Идентификатор кодека                     : A_VORBIS
Продолжительность                        : 3 м. 57 с.
Вид битрейта                             : Переменный
Битрейт                                  : 128 Кбит/сек
Каналы                                   : 2 канала
Частота                                  : 44,1 КГц
Метод сжатия                             : С потерями
Размер потока                            : 3,63 Мбайт (8%)
Default                                  : Да
Forced                                   : Нет
DURATION                                 : 00:03:57,686000000
Программа кодирования                    : Google

Общее
Уникальный идентификатор                 : 248335455295829334089194353935103500179 (0xBAD3AB41029F210968FF311CEA0F1F93)
Полное имя                               : D:\The Official UK Top 40 Singles Chart (27-11-2015)mkv\36. One Direction - Drag Me Down.mkv
Формат                                   : Matroska
Версия формата                           : Version 4 / Version 2
Размер файла                             : 45,6 Мбайт
Продолжительность                        : 3 м. 11 с.
Режим общего битрейта                    : Переменный
Общий поток                              : 1996 Кбит/сек
Программа кодирования                    : Lavf56.40.101
Библиотека кодирования                   : Lavf56.40.101

Видео
Идентификатор                            : 1
Формат                                   : VP9
Идентификатор кодека                     : V_VP9
Битрейт                                  : 1828 Кбит/сек
Ширина                                   : 1920 пикселей
Высота                                   : 1080 пикселей
Соотношение сторон                       : 16:9
Режим частоты кадров                     : Переменный
Default                                  : Да
Forced                                   : Нет
DURATION                                 : 00:03:11.732000000

Аудио
Идентификатор                            : 2
Формат                                   : Vorbis
Параметр Floor формата                   : 1
Идентификатор кодека                     : A_VORBIS
Продолжительность                        : 3 м. 11 с.
Вид битрейта                             : Переменный
Битрейт                                  : 128 Кбит/сек
Каналы                                   : 2 канала
Частота                                  : 44,1 КГц
Метод сжатия                             : С потерями
Размер потока                            : 2,93 Мбайт (6%)
Default                                  : Да
Forced                                   : Нет
DURATION                                 : 00:03:11.752000000
Программа кодирования                    : Google

Общее
Уникальный идентификатор                 : 103573681149458892010123118862116202072 (0x4DEB90BDE5ED61BF54CDF5F77AFE2658)
Полное имя                               : D:\The Official UK Top 40 Singles Chart (27-11-2015)mkv\37. Aurora - Half The World Away #TheManOnTheMoon (John Lewis Christmas).mkv
Формат                                   : Matroska
Версия формата                           : Version 4 / Version 2
Размер файла                             : 12,5 Мбайт
Продолжительность                        : 3 м. 8 с.
Режим общего битрейта                    : Переменный
Общий поток                              : 556 Кбит/сек
Программа кодирования                    : Lavf56.40.101
Библиотека кодирования                   : Lavf56.40.101

Видео
Идентификатор                            : 1
Формат                                   : VP9
Идентификатор кодека                     : V_VP9
Продолжительность                        : 3 м. 8 с.
Битрейт                                  : 417 Кбит/сек
Ширина                                   : 1920 пикселей
Высота                                   : 1080 пикселей
Соотношение сторон                       : 16:9
Режим частоты кадров                     : Постоянный
Частота кадров                           : 24,194 кадра/сек
Бит/(Пиксели*Кадры)                      : 0.008
Размер потока                            : 9,35 Мбайт (75%)
Default                                  : Да
Forced                                   : Нет
DURATION                                 : 00:03:08,360000000

Аудио
Идентификатор                            : 2
Формат                                   : Vorbis
Параметр Floor формата                   : 1
Идентификатор кодека                     : A_VORBIS
Продолжительность                        : 3 м. 8 с.
Вид битрейта                             : Переменный
Битрейт                                  : 128 Кбит/сек
Каналы                                   : 2 канала
Частота                                  : 44,1 КГц
Метод сжатия                             : С потерями
Размер потока                            : 2,87 Мбайт (23%)
Default                                  : Да
Forced                                   : Нет
DURATION                                 : 00:03:08,364000000
Программа кодирования                    : Google

Общее
Уникальный идентификатор                 : 148510823803912231723260395924479069304 (0x6FBA24EE6ACAE22754CD647D5D54CC78)
Полное имя                               : D:\The Official UK Top 40 Singles Chart (27-11-2015)mkv\38. Justin Bieber - No Pressure (PURPOSE   The Movement) ft. Big Sean.mkv
Формат                                   : Matroska
Версия формата                           : Version 4 / Version 2
Размер файла                             : 24,3 Мбайт
Продолжительность                        : 3 м. 19 с.
Режим общего битрейта                    : Переменный
Общий поток                              : 1018 Кбит/сек
Программа кодирования                    : Lavf56.40.101
Библиотека кодирования                   : Lavf56.40.101

Видео
Идентификатор                            : 1
Формат                                   : VP9
Идентификатор кодека                     : V_VP9
Битрейт                                  : 870 Кбит/сек
Ширина                                   : 1920 пикселей
Высота                                   : 1080 пикселей
Соотношение сторон                       : 16:9
Режим частоты кадров                     : Переменный
Default                                  : Да
Forced                                   : Нет
DURATION                                 : 00:03:19.948000000

Аудио
Идентификатор                            : 2
Формат                                   : Vorbis
Параметр Floor формата                   : 1
Идентификатор кодека                     : A_VORBIS
Продолжительность                        : 3 м. 19 с.
Вид битрейта                             : Переменный
Битрейт                                  : 128 Кбит/сек
Каналы                                   : 2 канала
Частота                                  : 44,1 КГц
Метод сжатия                             : С потерями
Размер потока                            : 3,05 Мбайт (13%)
Default                                  : Да
Forced                                   : Нет
DURATION                                 : 00:03:19.971000000
Программа кодирования                    : Google

Общее
Уникальный идентификатор                 : 189111808089580119465239625370382118322 (0x8E459C01E1657F6024FDA85C2DD02DB2)
Полное имя                               : D:\The Official UK Top 40 Singles Chart (27-11-2015)mkv\39. Sigala - Easy Love.mkv
Формат                                   : Matroska
Версия формата                           : Version 4 / Version 2
Размер файла                             : 62,2 Мбайт
Продолжительность                        : 2 м. 57 с.
Режим общего битрейта                    : Переменный
Общий поток                              : 2947 Кбит/сек
Программа кодирования                    : Lavf56.40.101
Библиотека кодирования                   : Lavf56.40.101

Видео
Идентификатор                            : 1
Формат                                   : VP9
Идентификатор кодека                     : V_VP9
Продолжительность                        : 2 м. 57 с.
Битрейт                                  : 2760 Кбит/сек
Ширина                                   : 1920 пикселей
Высота                                   : 1080 пикселей
Соотношение сторон                       : 16:9
Режим частоты кадров                     : Постоянный
Частота кадров                           : 25,000 кадров/сек
Бит/(Пиксели*Кадры)                      : 0.053
Размер потока                            : 58,3 Мбайт (94%)
Default                                  : Да
Forced                                   : Нет
DURATION                                 : 00:02:57.080000000

Аудио
Идентификатор                            : 2
Формат                                   : Vorbis
Параметр Floor формата                   : 1
Идентификатор кодека                     : A_VORBIS
Продолжительность                        : 2 м. 57 с.
Вид битрейта                             : Переменный
Битрейт                                  : 128 Кбит/сек
Каналы                                   : 2 канала
Частота                                  : 44,1 КГц
Метод сжатия                             : С потерями
Размер потока                            : 2,70 Мбайт (4%)
Default                                  : Да
Forced                                   : Нет
DURATION                                 : 00:02:57.143000000
Программа кодирования                    : Google

Общее
Уникальный идентификатор                 : 135779899653727865684457684927286237537 (0x662641E8D3973F082635D0496EC25961)
Полное имя                               : D:\The Official UK Top 40 Singles Chart (27-11-2015)mkv\40. Pia Mia - Do It Again ft. Chris Brown, Tyga.mkv
Формат                                   : Matroska
Версия формата                           : Version 4 / Version 2
Размер файла                             : 76,9 Мбайт
Продолжительность                        : 3 м. 33 с.
Режим общего битрейта                    : Переменный
Общий поток                              : 3023 Кбит/сек
Программа кодирования                    : Lavf56.40.101
Библиотека кодирования                   : Lavf56.40.101

Видео
Идентификатор                            : 1
Формат                                   : VP9
Идентификатор кодека                     : V_VP9
Битрейт                                  : 2835 Кбит/сек
Ширина                                   : 1920 пикселей
Высота                                   : 1080 пикселей
Соотношение сторон                       : 16:9
Режим частоты кадров                     : Переменный
Default                                  : Да
Forced                                   : Нет
DURATION                                 : 00:03:33.379000000

Аудио
Идентификатор                            : 2
Формат                                   : Vorbis
Параметр Floor формата                   : 1
Идентификатор кодека                     : A_VORBIS
Продолжительность                        : 3 м. 33 с.
Вид битрейта                             : Переменный
Битрейт                                  : 128 Кбит/сек
Каналы                                   : 2 канала
Частота                                  : 44,1 КГц
Метод сжатия                             : С потерями
Размер потока                            : 3,26 Мбайт (4%)
Default                                  : Да
Forced                                   : Нет
DURATION                                 : 00:03:33.398000000
Программа кодирования                    : Google

Скриншоты:



Время раздачи: 24/7 (круглосуточно) до устойчивого сидирования
 
Не забывайте говорить Спасибо. Не уходите с раздачи!   
Торрент: Зарегистрирован [03 дек 2015, 19:37] Скачать торрент
Скачать торрент
[ Размер 14.36 КБ / Просмотров 13 ]
Статус:
Проверен
 
.torrent скачан: 0 раз
Хэш: aed724c2bcd02abd5b2496c60a778465b4fb2d50
Размер: 2.09 ГБ (2 244 543 202 байт)
Стать Автором раздачи
 
 
Раздал: 0 байт
Скачал: 0 байт
Ратио: Inf.
Сообщения: 487468
Зарегистрирован: 17 апр 2014, 13:57


  • Похожие торренты
    Ответы
    Просмотры
    Последнее сообщение

Вернуться в Музыкальные клипы (транзит)

Ресурс не предоставляет электронные версии произведений, а занимается лишь коллекционированием и каталогизацией ссылок, присылаемых и публикуемых на форуме нашими читателями. Если вы являетесь правообладателем какого-либо представленного материала и не желаете чтобы ссылка на него находилась в нашем каталоге, свяжитесь с нами и мы незамедлительно удалим её. Файлы для обмена на трекере предоставлены пользователями сайта, и администрация не несёт ответственности за их содержание. Просьба не заливать файлы, защищенные авторскими правами, а также файлы нелегального содержания!
cron