Тихий Дон (2015) HDTVRip (серии 1-9 из 14) [H.264] [MP4|960х544]

 
 Статистика раздачи 
Размер: 6.86 ГБ   |  Зарегистрирован: 03 дек 2015, 19:19   |   .torrent скачан: 0 раз
Сидеров: 1  [ 0 байт/сек ]     Личеров: 0  [ 0 байт/сек ]  
  

Тихий Дон (2015) HDTVRip (серии 1-9 из 14) [H.264] [MP4|960х544]

Сообщение Nakazhu » 03 дек 2015, 19:19

Тихий Дон (2015) HDTVRip

Производство: Россия; Первый канал
Жанр: Драма

Режиссер: Сергей Урсуляк
Актеры: Евгений Ткачук, Полина Чернышова, Сергей Маковецкий, Людмила Зайцева, Дарья Урсуляк, Никита Ефремов, Анастасия Веденская, Артур Иванов, Надежда Лумпова, Александр Яценко и другие

Описание:
Действие начинается в 1912 году. Герои картины — соседи, станичники, казаки с хутора Татарский станицы Вёшенской — живут на этой земле испокон веков, они связаны родством, дружбой, любовью, общим трудом и военной службой. Но этот прочный и самодостаточный мир со своим неповторимым жизненным укладом, привычками и особой системой взглядов и ценностей рушится под натиском кровавой смуты и революции. Дон разделён ненавистью. Казавшиеся незыблемыми вековые основы донской жизни — земля, хутор, семья, воинский долг растворяются в горниле братоубийственной войны. Семьи Мелеховых, Коршуновых, Астаховых вовлечены в круговорот военных и политических событий.
На фоне эпохальных событий начала ХХ века разворачивается история любви казака Григория Мелехова и замужней красавицы Аксиньи Астаховой. Исторический перелом, разрушивший древний уклад донского казачества, совпал с трагическим переломом и в личной жизни Григория. Неразрешимый моральный выбор — «С кем быть? Кому и чему служить?» — красной нитью проходит через все события картины. Всю жизнь Григорий сражался за свободу и правду, но не сумел понять, на чьей стороне эта правда и с кем ему по пути: с красными или с белыми.


Дата премьеры в России: 29 ноября 2015

Продолжительность: ~ 00:45:00 серия
Качество видео: HDTVRip

Видео: AVC/H.264, 960х544, ~2345 Kbps
Аудио: AAC, 2 ch, 160 Kbps
Код:
Код: Выделить всё
General
Complete name                            : Тихий Дон 01 серия (2015).mp4
Format                                   : MPEG-4
Format profile                           : Base Media
Codec ID                                 : isom
File size                                : 801 MiB
Duration                                 : 44mn 37s
Overall bit rate mode                    : Variable
Overall bit rate                         : 2 511 Kbps
Movie name                               : Тихий Дон 01 серия (2015) [NoNaMe-Club rip by alien.09]
ContentType                              : Short Film
Encoded date                             : UTC 2015-11-30 22:52:44
Tagged date                              : UTC 2015-11-30 22:53:25

Video
ID                                       : 1
Format                                   : AVC
Format/Info                              : Advanced Video Codec
Format profile                           :
Format settings, CABAC                   : Yes
Format settings, ReFrames                : 3 frames
Codec ID                                 : avc1
Codec ID/Info                            : Advanced Video Coding
Duration                                 : 44mn 37s
Bit rate                                 : 2 345 Kbps
Maximum bit rate                         : 6 129 Kbps
Width                                    : 960 pixels
Height                                   : 544 pixels
Display aspect ratio                     : 16:9
Frame rate mode                          : Constant
Frame rate                               : 25.000 fps
Color space                              : YUV
Chroma subsampling                       : 4:2:0
Bit depth                                : 8 bits
Scan type                                : Progressive
Bits/(Pixel*Frame)                       : 0.180
Stream size                              : 748 MiB (93%)
Writing library                          : x264 core 128 r2216M 198a7ea
Encoding settings                        : cabac=1 / ref=3 / deblock=1:-1:-1 / analyse=0x1:0x131 / me=hex / subme=7 / psy=1 / psy_rd=0.40:0.15 / mixed_ref=1 / me_range=16 / chroma_me=1 / trellis=1 / 8x8dct=0 / cqm=0 / deadzone=21,11 / fast_pskip=1 / chroma_qp_offset=-3 / threads=8 / lookahead_threads=1 / sliced_threads=0 / nr=0 / decimate=1 / interlaced=0 / bluray_compat=0 / constrained_intra=0 / bframes=3 / b_pyramid=0 / b_adapt=2 / b_bias=0 / direct=3 / weightb=1 / open_gop=0 / weightp=0 / keyint=250 / keyint_min=25 / scenecut=40 / intra_refresh=0 / rc_lookahead=40 / rc=2pass / mbtree=1 / bitrate=2345 / ratetol=1.0 / qcomp=0.60 / qpmin=10 / qpmax=51 / qpstep=4 / cplxblur=20.0 / qblur=0.5 / vbv_maxrate=5000 / vbv_bufsize=1835 / nal_hrd=none / ip_ratio=1.40 / aq=1:0.60
Language                                 : English
Encoded date                             : UTC 2015-11-30 22:52:44
Tagged date                              : UTC 2015-11-30 22:53:01

Audio
ID                                       : 2
Format                                   : AAC
Format/Info                              : Advanced Audio Codec
Format profile                           : LC
Codec ID                                 : 40
Duration                                 : 44mn 37s
Bit rate mode                            : Variable
Bit rate                                 : 160 Kbps
Maximum bit rate                         : 289 Kbps
Channel count                            : 2 channels
Channel positions                        : Front: L R
Sampling rate                            : 48.0 KHz
Compression mode                         : Lossy
Stream size                              : 51.1 MiB (6%)
Language                                 : Russian
Encoded date                             : UTC 2015-11-30 22:53:00
Tagged date                              : UTC 2015-11-30 22:53:01
Внимание! Раздача ведётся путём добавления новых серий; при каждом добавлении создаётся новый торрент.
Чтобы начать докачку новой серии, пользователям необходимо сделать следующее:
1. Остановить скачивание;
2. Удалить старый торрент у себя из клиента (старые серии удалять не надо);
3. Скачать новый торрент и запустить его у себя в клиенте вместо старого, при этом указать клиенту путь в старую папку куда и должно происходить скачивание новых серий. Ваш клиент при этом должен произвести хеширование (проверку) старой папки и будет докачивать только те серии, которых у вас ещё нет. Старые серии при этом не удаляются, а продолжают раздаваться! Eсли вы уже удалили старые серии, то предотвратить повторную закачку старых серий можно, отжав галочку в соответствующих местах при запуске нового торрента.

Скриншоты:




Время раздачи: 24/7 до трёх скачавших
 
Не забывайте говорить Спасибо. Не уходите с раздачи!   
Торрент: Зарегистрирован [03 дек 2015, 19:19] Для скачивания .torrent
необходима регистрация
Или скачать с помощью
MediaGet
Статус:
Проверен
 
.torrent скачан: 0 раз
Хэш: 7264be40a1ce90d1220f1718167c43226e5a8fe1
Размер: 6.86 ГБ (7 367 386 524 байт)
Стать Автором раздачи
 
 
Раздал: 0 байт
Скачал: 0 байт
Ратио: Inf.
Сообщения: 358740
Зарегистрирован: 17 апр 2014, 13:57


  • Похожие торренты
    Ответы
    Просмотры
    Последнее сообщение

Вернуться в Видео для мобильных устройств

Ресурс не предоставляет электронные версии произведений, а занимается лишь коллекционированием и каталогизацией ссылок, присылаемых и публикуемых на форуме нашими читателями. Если вы являетесь правообладателем какого-либо представленного материала и не желаете чтобы ссылка на него находилась в нашем каталоге, свяжитесь с нами и мы незамедлительно удалим её. Файлы для обмена на трекере предоставлены пользователями сайта, и администрация не несёт ответственности за их содержание. Просьба не заливать файлы, защищенные авторскими правами, а также файлы нелегального содержания!
cron