Selena Gomez - Good For You (2015) HDTVRip [H.264/1080p]

 
 Статистика раздачи 
Размер: 189.62 МБ   |  Зарегистрирован: 25 ноя 2015, 02:21   |   .torrent скачан: 0 раз
Сидеров: 1  [ 0 байт/сек ]     Личеров: 0  [ 0 байт/сек ]  
  

Selena Gomez - Good For You (2015) HDTVRip [H.264/1080p]

Сообщение bagouser » 25 ноя 2015, 02:21

Selena Gomez - Good For You (2015) HDTVRip [H.264/1080p]

Исполнитель: Selena Gomez
Год выпуска: 2015
Жанр: Pop
Продолжительность: 00:03:15

Описание:
Американская актриса и певица Селена Гомес (Selena Gomez) покорила интернет клипом к новой композиции Good For You. Изначально трек был записан при участии известного рэпера A$AP Rocky. Но для съемок видео певица выбрала урезанную и чуть менее откровенную версию сингла.

Качество видео: HDTVRip [1080p]
Видеокодек: MPEG-4 AVC/H.264
Битрейт видео: ~7797 kbps
Размер кадра: 1920x1080 (16:9), 23,976 кадра/с
Аудиокодек: AAC, 2 ch, stereo
Битрейт аудио: 317 kbps
Код:
Код: Выделить всё
Общее
Полное имя                               : Selena Gomez - Good For You.mp4
Формат                                   : MPEG-4
Профиль формата                          : Base Media / Version 2
Идентификатор кодека                     : mp42
Размер файла                             : 190 Мбайт
Продолжительность                        : 3 м. 15 с.
Режим общего битрейта                    : Переменный
Общий поток                              : 8118 Кбит/сек

Видео
Идентификатор                            : 1
Формат                                   : AVC
Формат/Информация                        : Advanced Video Codec
Профиль формата                          :
Параметр CABAC формата                   : Нет
Параметр ReFrames формата                : 1 кадр
Параметр GOP формата                     : M=1, N=71
Идентификатор кодека                     : avc1
Идентификатор кодека/Информация          : Advanced Video Coding
Продолжительность                        : 3 м. 15 с.
Продолжительность оригинала              : 3 м. 15 с.
Вид битрейта                             : Переменный
Битрейт                                  : 7797 Кбит/сек
Максимальный битрейт                     : 16,0 Мбит/сек
Ширина                                   : 1920 пикселей
Высота                                   : 1080 пикселей
Соотношение сторон                       : 16:9
Режим частоты кадров                     : Переменный
Частота кадров                           : 23,976 кадра/сек
Минимальная частота кадров               : 23,974 кадра/сек
Максимальная частота кадров              : 23,981 кадра/сек
Цветовое пространство                    : YUV
Субдискретизация насыщенности            : 4:2:0
Битовая глубина                          : 8 бит
Тип развёртки                            : Прогрессивная
Бит/(Пиксели*Кадры)                      : 0.157
Размер потока                            : 182 Мбайт (96%)
Размер потока оригинала                  : 182 Мбайт (96%)
Язык                                     : English
Цветовой диапазон                        : Limited
Основные цвета                           : BT.709
Характеристики трансфера                 : BT.709
Коэффициенты матрицы                     : BT.709
mdhd_Duration                            : 195946

Аудио
Идентификатор                            : 2
Формат                                   : AAC
Формат/Информация                        : Advanced Audio Codec
Профиль формата                          : LC
Идентификатор кодека                     : 40
Продолжительность                        : 3 м. 15 с.
Продолжительность оригинала              : 3 м. 15 с.
Вид битрейта                             : Переменный
Битрейт                                  : 317 Кбит/сек
Каналы                                   : 2 канала
Расположение каналов                     : Front: L R
Частота                                  : 48,0 КГц
Метод сжатия                             : С потерями
Размер потока                            : 7,41 Мбайт (4%)
Размер потока оригинала                  : 7,41 Мбайт (4%)
Язык                                     : English
mdhd_Duration                            : 195925

Скриншоты:

 
Не забывайте говорить Спасибо. Не уходите с раздачи!   
Торрент: Зарегистрирован [25 ноя 2015, 02:21] Скачать торрент
Скачать торрент
[ Размер 15.5 КБ / Просмотров 19 ]
Статус:
Проверен
 
.torrent скачан: 0 раз
Хэш: 5d10aa81b05b8514119bb42f0ff49f713a4e670f
Размер: 189.62 МБ (198 828 833 байт)
Стать Автором раздачи
 
Аватара пользователя
 
Раздал: 3.77 ТБ
Скачал: 406.3 ГБ
Ратио: 9.496
Сообщения: 468709
Зарегистрирован: 20 янв 2011, 21:15


  • Похожие торренты
    Ответы
    Просмотры
    Последнее сообщение

Вернуться в Музыкальные клипы (транзит)

Ресурс не предоставляет электронные версии произведений, а занимается лишь коллекционированием и каталогизацией ссылок, присылаемых и публикуемых на форуме нашими читателями. Если вы являетесь правообладателем какого-либо представленного материала и не желаете чтобы ссылка на него находилась в нашем каталоге, свяжитесь с нами и мы незамедлительно удалим её. Файлы для обмена на трекере предоставлены пользователями сайта, и администрация не несёт ответственности за их содержание. Просьба не заливать файлы, защищенные авторскими правами, а также файлы нелегального содержания!
cron