Молодость / Youth (2015) HDRip [H.264] Line [MP4|960х400]

 
 Статистика раздачи 
Размер: 2.17 ГБ   |  Зарегистрирован: 23 ноя 2015, 12:27   |   .torrent скачан: 0 раз
Сидеров: 1  [ 0 байт/сек ]     Личеров: 0  [ 0 байт/сек ]  
  

Молодость / Youth (2015) HDRip [H.264] Line [MP4|960х400]

Сообщение BitFire » 23 ноя 2015, 12:27

Молодость / Youth (2015) HDRip

Производство: Италия, Франция, Швейцария, Великобритания
Жанр: Драма

Режиссер: Паоло Соррентино
Актеры: Майкл Кейн, Харви Кейтель, Рэйчел Вайз, Пол Дано, Джейн Фонда, Марк Козелек, Роберт Ситалер, Алекс МакКуин, Луна Зимич Мийович, Том Липински, Хлоя Пирри, Алекс Бекетт, Марк Жесснер, Палома Фэйт, Эд Стоппард, Соня Жесне, Мадалина Диана Генея, Суми Джо, Леони Амандин, Йозеф Аоки

Описание:
Фрэд — прославленный композитор и дирижер, вопреки просьбам Ее Величества, отказывается выступить на дне рождения принца Филиппа, и на это у него есть веская причина. Мик, оскароносный режиссер, вовсю работает над новым сценарием «фильма-откровения», но дело не слишком спорится.
Фрэд и Мик уже полвека дружат, смеются над собой и дивятся красоте и несправедливости этого мира. Это лето они проводят на альпийском курорте, где любовные переживания уже взрослых детей, случайно подсмотренные драмы и откровения далекого прошлого навсегда изменят судьбы друзей.


Дата мировой премьеры: 20 мая 2015
Дата премьеры в России: 22 октября 2015, «A-One Films»

Продолжительность: 02:03:33
Качество видео: HDRip
Перевод: Дублированный (Line)

Видео: AVC/H.264, 960х400 pixels, ~2345 Kbps
Аудио: AAC, 2 ch, 160 Kbps, Русский
Код:
Код: Выделить всё
General
Complete name                            : Молодость (2015).mp4
Format                                   : MPEG-4
Format profile                           : Base Media
Codec ID                                 : isom
File size                                : 2.17 GiB
Duration                                 : 2h 3mn
Overall bit rate mode                    : Variable
Overall bit rate                         : 2 510 Kbps
Movie name                               : Youth (2015) Line [NoNaMe-Club rip by alien.09]
ContentType                              : Short Film
Encoded date                             : UTC 2015-11-21 22:30:50
Tagged date                              : UTC 2015-11-21 22:32:23

Video
ID                                       : 1
Format                                   : AVC
Format/Info                              : Advanced Video Codec
Format profile                           :
Format settings, CABAC                   : Yes
Format settings, ReFrames                : 3 frames
Codec ID                                 : avc1
Codec ID/Info                            : Advanced Video Coding
Duration                                 : 2h 3mn
Bit rate                                 : 2 345 Kbps
Maximum bit rate                         : 6 097 Kbps
Width                                    : 960 pixels
Height                                   : 400 pixels
Display aspect ratio                     : 2.40:1
Frame rate mode                          : Constant
Frame rate                               : 23.976 fps
Color space                              : YUV
Chroma subsampling                       : 4:2:0
Bit depth                                : 8 bits
Scan type                                : Progressive
Bits/(Pixel*Frame)                       : 0.255
Stream size                              : 2.02 GiB (93%)
Writing library                          : x264 core 128 r2216M 198a7ea
Encoding settings                        : cabac=1 / ref=3 / deblock=1:-1:-1 / analyse=0x1:0x131 / me=hex / subme=7 / psy=1 / psy_rd=0.40:0.15 / mixed_ref=1 / me_range=16 / chroma_me=1 / trellis=1 / 8x8dct=0 / cqm=0 / deadzone=21,11 / fast_pskip=1 / chroma_qp_offset=-3 / threads=8 / lookahead_threads=1 / sliced_threads=0 / nr=0 / decimate=1 / interlaced=0 / bluray_compat=0 / constrained_intra=0 / bframes=3 / b_pyramid=0 / b_adapt=2 / b_bias=0 / direct=3 / weightb=1 / open_gop=0 / weightp=0 / keyint=230 / keyint_min=23 / scenecut=40 / intra_refresh=0 / rc_lookahead=40 / rc=2pass / mbtree=1 / bitrate=2345 / ratetol=1.0 / qcomp=0.60 / qpmin=10 / qpmax=51 / qpstep=4 / cplxblur=20.0 / qblur=0.5 / vbv_maxrate=5000 / vbv_bufsize=1835 / nal_hrd=none / ip_ratio=1.40 / aq=1:0.60
Language                                 : English
Encoded date                             : UTC 2015-11-21 22:30:50
Tagged date                              : UTC 2015-11-21 22:31:26

Audio
ID                                       : 2
Format                                   : AAC
Format/Info                              : Advanced Audio Codec
Format profile                           : LC
Codec ID                                 : 40
Duration                                 : 2h 3mn
Bit rate mode                            : Variable
Bit rate                                 : 160 Kbps
Maximum bit rate                         : 222 Kbps
Channel count                            : 2 channels
Channel positions                        : Front: L R
Sampling rate                            : 48.0 KHz
Compression mode                         : Lossy
Stream size                              : 141 MiB (6%)
Language                                 : Russian
Encoded date                             : UTC 2015-11-21 22:31:22
Tagged date                              : UTC 2015-11-21 22:31:26

Скриншоты:



Время раздачи: 24/7 до трёх скачавших (после присвоения статуса "Оформление проверено модератором")
 
Не забывайте говорить Спасибо. Не уходите с раздачи!   
Торрент: Зарегистрирован [23 ноя 2015, 12:27] Для скачивания .torrent
необходима регистрация
Или скачать с помощью
MediaGet
Статус:
Проверен
 
.torrent скачан: 0 раз
Хэш: 6be824138011ed4f95b1c1603c754f99b4d72255
Размер: 2.17 ГБ (2 325 575 525 байт)
Стать Автором раздачи
 
 
Раздал: 398.6 ГБ
Скачал: 172 МБ
Ратио: 2373.085
Сообщения: 228130
Зарегистрирован: 17 апр 2014, 15:26


  • Похожие торренты
    Ответы
    Просмотры
    Последнее сообщение

Вернуться в Видео для мобильных устройств

Ресурс не предоставляет электронные версии произведений, а занимается лишь коллекционированием и каталогизацией ссылок, присылаемых и публикуемых на форуме нашими читателями. Если вы являетесь правообладателем какого-либо представленного материала и не желаете чтобы ссылка на него находилась в нашем каталоге, свяжитесь с нами и мы незамедлительно удалим её. Файлы для обмена на трекере предоставлены пользователями сайта, и администрация не несёт ответственности за их содержание. Просьба не заливать файлы, защищенные авторскими правами, а также файлы нелегального содержания!
cron