Ciara - Dance Like We're Making Love (2015) HDTVRip [H.264/1080p]

 
 Статистика раздачи 
Размер: 267.61 МБ   |  Зарегистрирован: 23 ноя 2015, 12:00   |   .torrent скачан: 0 раз
Сидеров: 1  [ 0 байт/сек ]     Личеров: 0  [ 0 байт/сек ]  
  

Ciara - Dance Like We're Making Love (2015) HDTVRip [H.264/1080p]

Сообщение BitFire » 23 ноя 2015, 12:00

Ciara - Dance Like We're Making Love (2015) HDTVRip

Исполнитель: Ciara
Год выпуска: 2015
Жанр: Pop
Продолжительность: 00:04:27

Описание:
Изысканная эротика – именно так можно охарактеризовать новый клип американской исполнительницы Сиары (Ciara) к композиции Dance Like We're Making Love. Артистка на видео выглядит обворожительно, стильно и очень сексуально. Поэтому ролик буквально взорвал интернет. Режиссером утонченного видео стал один из самых знаменитых и талантливых клипмейкеров Дэйв Мейерс. Он снимает музыкальные ролики с 1997 года. За это время Мейерс успел поработать со всей зарубежной звездной элитой и стать обладателем многих престижных премий.

Качество видео: HDTVRip [1080p]
Видеокодек: MPEG-4 AVC/H.264
Битрейт видео: ~ 8060 kbps
Размер кадра: 1920x1080 (16:9), 23,976 кадра/с
Аудиокодек: AAC, 2 ch, stereo
Битрейт аудио: 317 kbps
Код:
Код: Выделить всё
Общее
Полное имя                               : Ciara - Dance Like We're Making Love.mp4
Формат                                   : MPEG-4
Профиль формата                          : Base Media / Version 2
Идентификатор кодека                     : mp42
Размер файла                             : 268 Мбайт
Продолжительность                        : 4 м. 27 с.
Режим общего битрейта                    : Переменный
Общий поток                              : 8381 Кбит/сек

Видео
Идентификатор                            : 1
Формат                                   : AVC
Формат/Информация                        : Advanced Video Codec
Профиль формата                          :
Параметр CABAC формата                   : Нет
Параметр ReFrames формата                : 1 кадр
Параметр GOP формата                     : M=1, N=71
Идентификатор кодека                     : avc1
Идентификатор кодека/Информация          : Advanced Video Coding
Продолжительность                        : 4 м. 27 с.
Продолжительность оригинала              : 4 м. 27 с.
Вид битрейта                             : Переменный
Битрейт                                  : 8060 Кбит/сек
Максимальный битрейт                     : 16,0 Мбит/сек
Ширина                                   : 1920 пикселей
Высота                                   : 1080 пикселей
Соотношение сторон                       : 16:9
Режим частоты кадров                     : Переменный
Частота кадров                           : 23,976 кадра/сек
Минимальная частота кадров               : 23,974 кадра/сек
Максимальная частота кадров              : 23,981 кадра/сек
Цветовое пространство                    : YUV
Субдискретизация насыщенности            : 4:2:0
Битовая глубина                          : 8 бит
Тип развёртки                            : Прогрессивная
Бит/(Пиксели*Кадры)                      : 0.162
Размер потока                            : 257 Мбайт (96%)
Размер потока оригинала                  : 257 Мбайт (96%)
Язык                                     : English
Цветовой диапазон                        : Limited
Основные цвета                           : BT.709
Характеристики трансфера                 : BT.709
Коэффициенты матрицы                     : BT.709
mdhd_Duration                            : 267851

Аудио
Идентификатор                            : 2
Формат                                   : AAC
Формат/Информация                        : Advanced Audio Codec
Профиль формата                          : LC
Идентификатор кодека                     : 40
Продолжительность                        : 4 м. 27 с.
Продолжительность оригинала              : 4 м. 27 с.
Вид битрейта                             : Переменный
Битрейт                                  : 317 Кбит/сек
Каналы                                   : 2 канала
Расположение каналов                     : Front: L R
Частота                                  : 48,0 КГц
Метод сжатия                             : С потерями
Размер потока                            : 10,1 Мбайт (4%)
Размер потока оригинала                  : 10,1 Мбайт (4%)
Язык                                     : English
mdhd_Duration                            : 267840
 
Не забывайте говорить Спасибо. Не уходите с раздачи!   
Торрент: Зарегистрирован [23 ноя 2015, 12:00] Скачать торрент
Скачать торрент
[ Размер 11.16 КБ / Просмотров 17 ]
Статус:
Проверен
 
.torrent скачан: 0 раз
Хэш: 9d508c21db622fd33bef08028252a760691e3b12
Размер: 267.61 МБ (280 605 340 байт)
Стать Автором раздачи
 
 
Раздал: 398.6 ГБ
Скачал: 172 МБ
Ратио: 2373.085
Сообщения: 228130
Зарегистрирован: 17 апр 2014, 15:26


  • Похожие торренты
    Ответы
    Просмотры
    Последнее сообщение

Вернуться в Музыкальные клипы (транзит)

Ресурс не предоставляет электронные версии произведений, а занимается лишь коллекционированием и каталогизацией ссылок, присылаемых и публикуемых на форуме нашими читателями. Если вы являетесь правообладателем какого-либо представленного материала и не желаете чтобы ссылка на него находилась в нашем каталоге, свяжитесь с нами и мы незамедлительно удалим её. Файлы для обмена на трекере предоставлены пользователями сайта, и администрация не несёт ответственности за их содержание. Просьба не заливать файлы, защищенные авторскими правами, а также файлы нелегального содержания!
cron