Ольги Романовской -Держи меня крепче (2015) HDTVRip [H.264/1080p]

 
 Статистика раздачи 
Размер: 263.8 МБ   |  Зарегистрирован: 22 ноя 2015, 12:38   |   .torrent скачан: 0 раз
Сидеров: 1  [ 0 байт/сек ]     Личеров: 0  [ 0 байт/сек ]  
  

Ольги Романовской -Держи меня крепче (2015) HDTVRip [H.264/1080p]

Сообщение bagouser » 22 ноя 2015, 12:38

Ольги Романовской -Держи меня крепче (2015) HDTVRip [H.264/1080p]

Исполнитель: Ольги Романовской
Год выпуска: 2015
Жанр: Pop
Продолжительность: 00:03:35

Описание:
Бывшая участница группы «ВИА Гра», дизайнер модной одежды и сольная исполнительница Ольга Романовская представила клип к новой композиции «Держи меня крепче». Режиссером ролика стал известный украинский клипмейкер Евгений Тимохин. Съемочный процесс подводной части ролика занял у команды целых четыре дня. Предварительно артистке пришлось тщательно готовиться к такому испытанию. Она посещала курсы плаванья и даже ныряла с аквалангом, чтобы научиться технике дыхания и движений под водой. Все трюки на глубине Романовская принципиально выполняла самостоятельно.

Качество видео: HDTVRip [1080p]
Видеокодек: MPEG-4 AVC/H.264
Битрейт видео: ~ 9971 Кбит/с
Размер кадра: 1920x1080 (16:9), 25,000 кадров/с
Аудиокодек: AAC, 2 ch, stereo
Битрейт аудио: 317 Кбит/с
Код:
Код: Выделить всё
Общее
Полное имя                               : Ольги Романовской -Держи меня крепче.mp4
Формат                                   : MPEG-4
Профиль формата                          : Base Media / Version 2
Идентификатор кодека                     : mp42
Размер файла                             : 264 Мбайт
Продолжительность                        : 3 м. 35 с.
Режим общего битрейта                    : Переменный
Общий поток                              : 10,3 Мбит/сек
Дата кодирования                         : UTC 2015-11-19 13:43:04
Дата пометки                             : UTC 2015-11-19 13:43:08
©TIM                                     : 00:00:00:00
©TSC                                     : 25
©TSZ                                     : 1

Видео
Идентификатор                            : 1
Формат                                   : AVC
Формат/Информация                        : Advanced Video Codec
Профиль формата                          :
Параметр CABAC формата                   : Да
Параметр ReFrames формата                : 3 кадра
Идентификатор кодека                     : avc1
Идентификатор кодека/Информация          : Advanced Video Coding
Продолжительность                        : 3 м. 35 с.
Вид битрейта                             : Переменный
Битрейт                                  : 9971 Кбит/сек
Максимальный битрейт                     : 12,0 Мбит/сек
Ширина                                   : 1920 пикселей
Высота                                   : 1080 пикселей
Соотношение сторон                       : 16:9
Режим частоты кадров                     : Постоянный
Частота кадров                           : 25,000 кадров/сек
Стандарт вещания                         : PAL
Цветовое пространство                    : YUV
Субдискретизация насыщенности            : 4:2:0
Битовая глубина                          : 8 бит
Тип развёртки                            : Чересстрочная
Порядок развёртки                        : Верхнее поле первое
Бит/(Пиксели*Кадры)                      : 0.192
Размер потока                            : 256 Мбайт (97%)
Язык                                     : English
Дата кодирования                         : UTC 2015-11-19 13:43:04
Дата пометки                             : UTC 2015-11-19 13:43:04
Цветовой диапазон                        : Limited
Основные цвета                           : BT.709
Характеристики трансфера                 : BT.709
Коэффициенты матрицы                     : BT.709

Аудио
Идентификатор                            : 2
Формат                                   : AAC
Формат/Информация                        : Advanced Audio Codec
Профиль формата                          : LC
Идентификатор кодека                     : 40
Продолжительность                        : 3 м. 35 с.
Продолжительность оригинала              : 3 м. 35 с.
Вид битрейта                             : Переменный
Битрейт                                  : 317 Кбит/сек
Максимальный битрейт                     : 391 Кбит/сек
Каналы                                   : 2 канала
Расположение каналов                     : Front: L R
Частота                                  : 48,0 КГц
Метод сжатия                             : С потерями
Размер потока                            : 8,13 Мбайт (3%)
Размер потока оригинала                  : 8,14 Мбайт (3%)
Язык                                     : English
Дата кодирования                         : UTC 2015-11-19 13:43:04
Дата пометки                             : UTC 2015-11-19 13:43:04

Скриншоты:


 
Не забывайте говорить Спасибо. Не уходите с раздачи!   
Торрент: Зарегистрирован [22 ноя 2015, 12:38] Скачать торрент
Скачать торрент
[ Размер 11.09 КБ / Просмотров 13 ]
Статус:
Проверен
 
.torrent скачан: 0 раз
Хэш: ac1198ca10e401965477da7da65aacf5d17cebff
Размер: 263.8 МБ (276 613 889 байт)
Стать Автором раздачи
 
Аватара пользователя
 
Раздал: 3.77 ТБ
Скачал: 406.3 ГБ
Ратио: 9.496
Сообщения: 468710
Зарегистрирован: 20 янв 2011, 21:15


  • Похожие торренты
    Ответы
    Просмотры
    Последнее сообщение

Вернуться в Музыкальные клипы (транзит)

Ресурс не предоставляет электронные версии произведений, а занимается лишь коллекционированием и каталогизацией ссылок, присылаемых и публикуемых на форуме нашими читателями. Если вы являетесь правообладателем какого-либо представленного материала и не желаете чтобы ссылка на него находилась в нашем каталоге, свяжитесь с нами и мы незамедлительно удалим её. Файлы для обмена на трекере предоставлены пользователями сайта, и администрация не несёт ответственности за их содержание. Просьба не заливать файлы, защищенные авторскими правами, а также файлы нелегального содержания!
cron