Белоснежка и Охотник 2 / The Huntsman (2016) DCPRip [4K] [MPEG-2/2160p] [Трейлер]

 
 Статистика раздачи 
Размер: 542.63 МБ   |  Зарегистрирован: 20 ноя 2015, 10:14   |   .torrent скачан: 1 раз
Сидеров: 1  [ 0 байт/сек ]     Личеров: 0  [ 0 байт/сек ]  
  

Белоснежка и Охотник 2 / The Huntsman (2016) DCPRip [4K] [MPEG-2/2160p] [Трейлер]

Сообщение Seepas » 20 ноя 2015, 10:14

Белоснежка и Охотник 2 / The Huntsman (2016)

Производство: США / Prime Focus World, Roth Films, Universal Pictures
Жанр: Фэнтези, Боевик, Приключения

Режиссер: Седрик Николя-Троян
Актеры: Крис Хемсворт, Джессика Честейн, Эмили Блант, Шарлиз Терон, Сэм Клафлин, Шеридан Смит, Софи Куксон, Колин Морган, Ник Фрост, Роб Брайдон

Описание:
Когда любовь уходит, сердце прекрасной девы обращается в лед.
И даже сотни королевств не смогут сдержать поступь ее несметного воинства. Лишь Охотник не ведает страха. Сквозь проклятый лес он идет на встречу своей судьбе.



Дата мировой премьеры: 20 апреля 2016
Дата премьеры в России: 21 апреля 2016, «UPI»

Продолжительность: 00:02:33
Качество видео: DCPRip
Перевод: Дублированный

Видео: MPEG 2, 3840x2160 (16:9), 23.976 fps, 29.0 Mbps (0.146 bit/pixel)
Аудио: MP2, 44.1 KHz, 2 ch, 128 Kbps, CBR (Russian)
Код:
Код: Выделить всё
General
Unique ID                   : 219893786944473444845867686677453169744 (0xA56E00BD24D680FB85AEB80DB5836450)
Complete name               : D:\VIDEO\Huntsman.2016.4K.2160p.mkv
Format                      : Matroska
Format version              : Version 4 / Version 2
File size                   : 543 MiB
Duration                    : 2mn 33s
Overall bit rate mode       : Variable
Overall bit rate            : 29.7 Mbps
Movie name                  : LONGBOY 4 NNM
Encoded date                : UTC 2015-11-19 12:12:26
Writing application         : mkvmerge v8.5.2 ('Crosses') 32bit
Writing library             : libebml v1.3.3 + libmatroska v1.4.4
Attachements                : cover.jpg
DURATION                    : 00:02:33.208000000
NUMBER_OF_FRAMES            : 5865
NUMBER_OF_BYTES             : 2451330
_STATISTICS_WRITING_APP     : mkvmerge v8.5.2 ('Crosses') 32bit
_STATISTICS_WRITING_DATE_UT : 2015-11-19 12:12:26
_STATISTICS_TAGS            : BPS DURATION NUMBER_OF_FRAMES NUMBER_OF_BYTES

Video
ID                          : 1
Format                      : MPEG Video
Format version              : Version 2
Format profile              : Main@High
Format settings, BVOP       : Yes
Format settings, Matrix     : Default
Format settings, GOP        : M=3, N=15
Codec ID                    : V_MPEG2
Codec ID/Info               : MPEG 1 or 2 Video
Duration                    : 2mn 33s
Bit rate mode               : Variable
Bit rate                    : 29.0 Mbps
Width                       : 3 840 pixels
Height                      : 2 160 pixels
Display aspect ratio        : 16:9
Frame rate mode             : Constant
Frame rate                  : 23.976 fps
Color space                 : YUV
Chroma subsampling          : 4:2:0
Bit depth                   : 8 bits
Scan type                   : Progressive
Compression mode            : Lossy
Bits/(Pixel*Frame)          : 0.146
Time code of first frame    : 00:00:00:00
Time code source            : Group of pictures header
GOP, Open/Closed            : Open
GOP, Open/Closed of first f : Closed
Stream size                 : 529 MiB (98%)
Language                    : English
Default                     : Yes
Forced                      : No

Audio
ID                          : 2
Format                      : MPEG Audio
Format version              : Version 1
Format profile              : Layer 2
Codec ID                    : A_MPEG/L2
Codec ID/Hint               : MP2
Duration                    : 2mn 33s
Bit rate mode               : Constant
Bit rate                    : 128 Kbps
Channel(s)                  : 2 channels
Sampling rate               : 44.1 KHz
Compression mode            : Lossy
Stream size                 : 2.34 MiB (0%)
Title                       : дубляжЫк
Language                    : Russian
Default                     : Yes
Forced                      : No

Скриншоты:



Время раздачи: 24/7 (до 3х скачавших)
 
Не забывайте говорить Спасибо. Не уходите с раздачи!   
Торрент: Зарегистрирован [20 ноя 2015, 10:14] Для скачивания .torrent
необходима регистрация
Или скачать с помощью
MediaGet
Статус:
Проверен
 
.torrent скачан: 1 раз
Хэш: 7447b7ba2b9ef311a094759c542385e4e6d9af0f
Размер: 542.63 МБ (568 985 450 байт)
Стать Автором раздачи
 
 
Раздал: 0 байт
Скачал: 0 байт
Ратио: Inf.
Сообщения: 188877
Зарегистрирован: 14 июн 2014, 20:46


  • Похожие торренты
    Ответы
    Просмотры
    Последнее сообщение

Вернуться в Трейлеры и дополнительные материалы к фильмам

Ресурс не предоставляет электронные версии произведений, а занимается лишь коллекционированием и каталогизацией ссылок, присылаемых и публикуемых на форуме нашими читателями. Если вы являетесь правообладателем какого-либо представленного материала и не желаете чтобы ссылка на него находилась в нашем каталоге, свяжитесь с нами и мы незамедлительно удалим её. Файлы для обмена на трекере предоставлены пользователями сайта, и администрация не несёт ответственности за их содержание. Просьба не заливать файлы, защищенные авторскими правами, а также файлы нелегального содержания!
cron