Da Vinci Learning: Эко-2. Дизайн / E2.Design (2006) SATRip (сезоны 1-3 серии 1-18 из 18)

 
 Статистика раздачи 
Размер: 6.89 ГБ   |  Зарегистрирован: 19 ноя 2015, 22:48   |   .torrent скачан: 0 раз
Сидеров: 1  [ 0 байт/сек ]     Личеров: 0  [ 0 байт/сек ]  
  

Da Vinci Learning: Эко-2. Дизайн / E2.Design (2006) SATRip (сезоны 1-3 серии 1-18 из 18)

Сообщение Seepas » 19 ноя 2015, 22:48

Da Vinci Learning: Эко-2. Дизайн / E2.Design [сезоны 1-3 серии 1-18 из 18] (2006) SATRip

Телекомпания: Da Vinci Learning
Жанр: Документальный, архитектура, строительство
Страна: США, Content Real LLC

Режиссер: Tad Fettig

Описание:
Зачем нам прогресс ради самого прогресса? Почему жажда лучшей жизни может поставить под угрозу наше будущее? Но эта угроза указывает нам путь для улучшения и обновления. "Экономично и экологично" - новый взгляд на дизайн в строительстве.

Продолжительность: 18x~00:25:35
Качество видео: SATRip

Перевод: Одноголосый закадровый, профессиональный

Видео: Xvid, 704x400, ~1950 Kbps
Аудио: AC3, 2 ch, 192 kbps

01. Зеленое Яблоко / The Green Apple
Нью-Йорк, Город большого яблока, оспаривает миф, что мегаполис - это только каменные джунгли, а небоскреб - сооружение, противное природе.
02. Дом для всех / Green for All
Архитектор Серджио Паллерони строит жилье в регионах гуманитарного бедствия.
03. Зеленая машина / The Green Machine
Мэр Чикаго Ричард Дейли расскажет нам, что он делает, чтобы его город стал "самым зеленым городом Америки".
04. От серого к зеленому / Gray to Green
Благодаря идее Пола Педини построить себе дом из строительного мусора появилась задумка необычного офисного центра.
05. Китай: от красного к зеленому? / China: From Red to Green?
Уильям Макдонах собирается сделать Китай экологически чистой страной с помощью выгодной и безопасной "умной" архитектуры.
06. Зеленее, еще зеленее! / Deeper Shades of Green
Гениальные архитекторы Кен Еанг, Вернер Собек и Уильям Макдонах меняют облик общества и принципы экологически безопасного строительства.
01. Драконовая школа Белого Лотоса в Ладакхе / The Druk White Lotus School-Ladakh
Мы заглянем в школу Белого Лотоса в области Ладакх, где детей учат жить в современном мире, не нарушая традиций буддизма.
02. Озеленяем правительство / Greening the Federal Government
Тому Мейну поручили спроектировать здание правительства Сан-Франциско, которое должно стать образцом госучреждения будущего.
03. Богота: строим "зеленый" город / Bogota: Building a Sustainable City
Энрике Пеньялоса превратил Боготу, один из самых бестолковых городов мира, в образец городского планирования и заботы о населении.
04. Экономичное зелёное жильё / Affordable Green Housing
В этом эпизоде Джонатан Роуз объезжает районы Нью-Йорка, налаживая для их жителей доступ к экологически безопасным технологиям.
05. Адаптация: опыт Голландии / Adaptive Reuse in the Netherlands
Голландцы нашли новое применение заброшенным амстердамским докам - это удачная альтернатива грязи и запустению.
06. Архитектура 2030 / Architecture 2030
Может ли смена курса уберечь нас от климатического кризиса? Эдвард Мазрия хочет отказаться от небезопасного строительства к 2030 году.
01. Сады Каира / A Garden in Cairo
До 2005 года на одного каирца приходился квадратный фут зелени. Чтобы дать городу воздух, свалку превратили в "зеленые легкие".
02. Деревенское строительство / The Village Architect
Брайан Маккей-Лион освоил архитектурный стиль корабельных доков Новой Шотландии - возможно, самых экологически безопасных зданий в мире.
03. Возрождение Мельбурна / Melbourne Reborn
В середине 70-х Мельбурн считался умирающим городом. Роб Адамс покажет нам, как Мельбурн выжил и как стал "зеленым".
04. Наука и искусство Ренцо Пиано / The Art and Science of Renzo Piano
Черпая вдохновение в природе, Ренцо Пиано создал в Сан-Франциско дом, в котором сочетаются игра пустого пространства и живая крыша.
05. Новый Орлеан: кромка воды / New Orleans: The Water Line
После урагана "Катрина" жители Нового Орлеана решили восстановить свой город и сделать его "зеленым", несмотря на бездействие властей.
06. Излишки / Super Use
В Роттердаме используют новый подход к дизайну в архитектуре - это дает необычную эстетику и высокую функциональность.
Код:
Код: Выделить всё
Полное имя                               E2_s01_03_Design\s01e01_The Green Apple.avi
Формат                                   : AVI
Формат/Информация                        : Audio Video Interleave
Размер файла                             : 392 Мбайт
Продолжительность                        : 25 м.
Общий поток                              : 2142 Кбит/сек
Программа кодирования                    : TMPGEnc Video Mastering Works 5 Version. 5.0.6.38
Библиотека кодирования                   : TMPGEnc Video Mastering Works 5 Version. 5.0.6.38

Видео
Идентификатор                            : 0
Формат                                   : MPEG-4 Visual
Профиль формата                          : Advanced Simple@L5
Параметр BVOP формата                    : 2
Параметр QPel формата                    : Нет
Параметр GMC формата                     : Без точки перехода
Параметр матрицы формата                 : Default (H.263)
Режим смешивания                         : Сжатый битовый поток
Идентификатор кодека                     : XVID
Идентификатор кодека/Подсказка           : XviD
Продолжительность                        : 25 м.
Битрейт                                  : 1942 Кбит/сек
Ширина                                   : 704 пикселя
Высота                                   : 400 пикселей
Соотношение сторон                       : 16:9
Частота кадров                           : 25,000 кадров/сек
Цветовое пространство                    : YUV
Субдискретизация насыщенности            : 4:2:0
Битовая глубина                          : 8 бит
Тип развёртки                            : Прогрессивная
Метод сжатия                             : С потерями
Бит/(Пиксели*Кадры)                      : 0.276
Размер потока                            : 355 Мбайт (91%)
Библиотека кодирования                   : XviD 73

Аудио
Идентификатор                            : 1
Формат                                   : AC-3
Формат/Информация                        : Audio Coding 3
Расширение режима                        : CM (complete main)
Параметр Endianness формата              : Big
Идентификатор кодека                     : 2000
Продолжительность                        : 25 м.
Вид битрейта                             : Постоянный
Битрейт                                  : 192 Кбит/сек
Каналы                                   : 2 канала
Расположение каналов                     : Front: L R
Частота                                  : 48,0 КГц
Битовая глубина                          : 16 бит
Метод сжатия                             : С потерями
Размер потока                            : 35,1 Мбайт (9%)
Выравнивание                             : Соединение по промежуткам
Продолжительность промежутка             : 240  мс. (6,00 видеокадров)
Время предзагрузки промежутка            : 224  мс.


Время раздачи: 24/7

Эко-2 на NNM-CLUB

 
Не забывайте говорить Спасибо. Не уходите с раздачи!   
Торрент: Зарегистрирован [19 ноя 2015, 22:48] Для скачивания .torrent
необходима регистрация
Или скачать с помощью
MediaGet
Статус:
Проверен
 
.torrent скачан: 0 раз
Хэш: 760c51dfb734dea2eed6f1af32ba762331349e08
Размер: 6.89 ГБ (7 396 292 218 байт)
Стать Автором раздачи
 
 
Раздал: 0 байт
Скачал: 0 байт
Ратио: Inf.
Сообщения: 188877
Зарегистрирован: 14 июн 2014, 20:46


Вернуться в Da Vinci Learning

Ресурс не предоставляет электронные версии произведений, а занимается лишь коллекционированием и каталогизацией ссылок, присылаемых и публикуемых на форуме нашими читателями. Если вы являетесь правообладателем какого-либо представленного материала и не желаете чтобы ссылка на него находилась в нашем каталоге, свяжитесь с нами и мы незамедлительно удалим её. Файлы для обмена на трекере предоставлены пользователями сайта, и администрация не несёт ответственности за их содержание. Просьба не заливать файлы, защищенные авторскими правами, а также файлы нелегального содержания!
cron