Барри Линдон / Barry Lyndon (1975) BDRip [H.264] [MP4|576p]

 
 Статистика раздачи 
Размер: 3.74 ГБ   |  Зарегистрирован: 19 ноя 2015, 17:47   |   .torrent скачан: 0 раз
Сидеров: 1  [ 0 байт/сек ]     Личеров: 0  [ 0 байт/сек ]  
  

Барри Линдон / Barry Lyndon (1975) BDRip [H.264] [MP4|576p]

Сообщение Seepas » 19 ноя 2015, 17:47

Барри Линдон / Barry Lyndon (1975) BDRip
«At long last Redmond Barry became a gentleman -- and that was his tragedy»

Производство: Великобритания, США, Ирландия
Жанр: Драма, Приключения, Военный, История, Интеллектуальное кино, Артхаус

Описание:
История жизни простого ирландского парня Редмонда Барри. Будучи еще совсем молодым, он убил на дуэли офицера английской армии. Чтобы не попасть в руки полиции, ему пришлось покинуть родной дом и отправиться странствовать по Ирландии. Но странствия его были недолгими.

Отдав грабителям все деньги, коня и оружие, он вынужден был записаться в ряды английской армии. Попав на войну и насмотревшись всех ее ужасов, он решает дезертировать. Украв офицерскую форму, Барри отправляется в расположение союзников, надеясь оттуда тайком перебраться в Ирландию. Но и здесь его ожидает неудача: его разоблачает капитан прусской армии, заставляя вступить в ее ряды. По окончании войны Барри смог, наконец, вернуться в свою страну…

Режиссер: Стэнли Кубрик
Продюсер: Стэнли Кубрик, Ян Харлан, Бернард Уильямс
Актеры: Райан О’Нил, Мариза Беренсон, Патрик Мэги, Харди Крюгер, Стивен Беркофф, Гэй Хэмилтон, Мари Кин, Диана Кернер, Мюррэй Мелвин, Фрэнк Миддлмэс

Продолжительность: 03:05:03
Качество видео: BDRip 576p
Перевод: Профессиональный (Многоголосый закадровый), Авторский (одноголосый), Оригинальный

Видео: AVC/H.264 (High@L4.1), 1024x576, ~2400 Kbps
Аудио 1: AAC LC, 2.0, 163 Kbps - Русский (MVO, Перевод НТВ)
Аудио 2: AAC LC, 2.0, 163 Kbps - Русский (AVO, Сергей Кузнецов)
Аудио 3: AAC LC, 2.0, 163 Kbps - Английский (Оригинальный)
Код:
Код: Выделить всё
General
Complete name               : D:\Kreker\Барри Линдон.1975.BDRip.576p.NNM-Club.mp4
Format                      : MPEG-4
Format profile              : Base Media
Codec ID                    : isom
File size                   : 3.74 GiB
Duration                    : 3h 5mn
Overall bit rate mode       : Variable
Overall bit rate            : 2 895 Kbps
Encoded date                : UTC 2015-11-18 08:50:02
Tagged date                 : UTC 2015-11-18 08:50:02

Video
ID                          : 1
Format                      : AVC
Format/Info                 : Advanced Video Codec
Format profile              :
Format settings, CABAC      : Yes
Format settings, ReFrames   : 9 frames
Codec ID                    : avc1
Codec ID/Info               : Advanced Video Coding
Duration                    : 3h 5mn
Bit rate                    : 2 400 Kbps
Maximum bit rate            : 9 130 Kbps
Width                       : 1 024 pixels
Height                      : 576 pixels
Display aspect ratio        : 16:9
Frame rate mode             : Constant
Frame rate                  : 23.976 fps
Color space                 : YUV
Chroma subsampling          : 4:2:0
Bit depth                   : 8 bits
Scan type                   : Progressive
Bits/(Pixel*Frame)          : 0.170
Stream size                 : 3.10 GiB (83%)
Title                       : Barry Lyndon
Writing library             : x264 core 146 r2538 121396c
Encoding settings           : cabac=1 / ref=9 / deblock=1:-2:-2 / analyse=0x3:0x133 / me=umh / subme=11 / psy=1 / psy_rd=1.05:0.15 / mixed_ref=1 / me_range=64 / chroma_me=1 / trellis=2 / 8x8dct=1 / cqm=0 / deadzone=21,11 / fast_pskip=0 / chroma_qp_offset=-3 / threads=12 / lookahead_threads=3 / sliced_threads=0 / nr=0 / decimate=1 / interlaced=0 / bluray_compat=0 / constrained_intra=0 / bframes=11 / b_pyramid=2 / b_adapt=2 / b_bias=0 / direct=3 / weightb=1 / open_gop=0 / weightp=2 / keyint=240 / keyint_min=23 / scenecut=40 / intra_refresh=0 / rc_lookahead=50 / rc=2pass / mbtree=0 / bitrate=2400 / ratetol=1.0 / qcomp=0.70 / qpmin=0 / qpmax=69 / qpstep=4 / cplxblur=20.0 / qblur=0.5 / vbv_maxrate=27500 / vbv_bufsize=35000 / nal_hrd=none / filler=0 / ip_ratio=1.40 / pb_ratio=1.30 / aq=1:1.00
Encoded date                : UTC 2015-11-18 08:50:02
Tagged date                 : UTC 2015-11-18 08:50:45

Audio #1
ID                          : 2
Format                      : AAC
Format/Info                 : Advanced Audio Codec
Format profile              : LC
Codec ID                    : 40
Duration                    : 3h 5mn
Bit rate mode               : Variable
Bit rate                    : 163 Kbps
Maximum bit rate            : 172 Kbps
Channel(s)                  : 2 channels
Channel positions           : Front: L R
Sampling rate               : 48.0 KHz
Compression mode            : Lossy
Stream size                 : 216 MiB (6%)
Title                       : MVO
Language                    : Russian
Encoded date                : UTC 2015-11-18 08:50:22
Tagged date                 : UTC 2015-11-18 08:50:45

Audio #2
ID                          : 3
Format                      : AAC
Format/Info                 : Advanced Audio Codec
Format profile              : LC
Codec ID                    : 40
Duration                    : 3h 5mn
Bit rate mode               : Variable
Bit rate                    : 163 Kbps
Maximum bit rate            : 171 Kbps
Channel(s)                  : 2 channels
Channel positions           : Front: L R
Sampling rate               : 48.0 KHz
Compression mode            : Lossy
Stream size                 : 216 MiB (6%)
Title                       : AVO Sergey Kuznecsov
Language                    : Russian
Encoded date                : UTC 2015-11-18 08:50:30
Tagged date                 : UTC 2015-11-18 08:50:45

Audio #3
ID                          : 4
Format                      : AAC
Format/Info                 : Advanced Audio Codec
Format profile              : LC
Codec ID                    : 40
Duration                    : 3h 5mn
Bit rate mode               : Variable
Bit rate                    : 163 Kbps
Maximum bit rate            : 171 Kbps
Channel(s)                  : 2 channels
Channel positions           : Front: L R
Sampling rate               : 48.0 KHz
Compression mode            : Lossy
Stream size                 : 216 MiB (6%)
Title                       : Origanal
Language                    : English
Encoded date                : UTC 2015-11-18 08:50:37
Tagged date                 : UTC 2015-11-18 08:50:45
Код:
Код: Выделить всё
x264 [info]: profile High, level 4.1
x264 [info]: frame I:1515  Avg QP:16.93  size: 92207
x264 [info]: frame P:45308 Avg QP:19.74  size: 28502
x264 [info]: frame B:219387 Avg QP:21.28  size:  8656
x264 [info]: consecutive B-frames:  0.9%  0.6%  1.5% 11.6% 14.3% 32.5% 12.7% 15.3%  4.2%  2.0%  1.6%  2.9%
x264 [info]: mb I  I16..4: 11.2% 73.7% 15.2%
x264 [info]: mb P  I16..4:  0.1%  6.0%  0.5%  P16..4: 32.3% 39.5% 15.9%  2.0%  0.2%    skip: 3.4%
x264 [info]: mb B  I16..4:  0.0%  0.4%  0.0%  B16..8: 34.6% 18.5%  3.3%  direct: 5.4%  skip:37.7%  L0:44.7% L1:44.8% BI:10.5%
x264 [info]: 8x8 transform intra:86.3% inter:54.5%
x264 [info]: direct mvs  spatial:99.4% temporal:0.6%
x264 [info]: coded y,uvDC,uvAC intra: 96.7% 92.6% 77.4% inter: 26.3% 16.5% 2.5%
x264 [info]: i16 v,h,dc,p: 20%  4% 33% 44%
x264 [info]: i8 v,h,dc,ddl,ddr,vr,hd,vl,hu:  9%  8% 10% 10% 14% 13% 12% 12% 13%
x264 [info]: i4 v,h,dc,ddl,ddr,vr,hd,vl,hu: 10%  6%  4%  9% 15% 16% 14% 13% 13%
x264 [info]: i8c dc,h,v,p: 49% 18% 16% 18%
x264 [info]: Weighted P-Frames: Y:7.4% UV:2.9%
x264 [info]: ref P L0: 40.0% 12.3% 16.8%  8.5%  6.7%  5.5%  4.8%  3.0%  2.3%  0.2%  0.0%
x264 [info]: ref B L0: 64.8% 15.2%  7.5%  4.5%  3.5%  2.7%  1.4%  0.5%
x264 [info]: ref B L1: 91.9%  8.1%
x264 [info]: kb/s:2399.30
    2 премии Национального совета обозревателей в США — за лучший англоязычный фильм (поровну с «Нэшвиллом» / Nashville) и режиссуру (поровну с Робертом Олтменом / Robert Altman, поставившим «Нэшвилл»), «Европейский Давид» в рамках церемонии вручения премий «Давид» Донателло» по итогам 1976 года

    Сезар, 1977 год

    Номинации (1):
    Лучший фильм на иностранном языке

    Оскар, 1976 год

    Победитель (4):
    Лучшая работа оператора
    Лучшие декорации
    Лучшие костюмы
    Лучшая музыкальная адаптация
    Номинации (3):
    Лучший фильм
    Лучший режиссер (Стэнли Кубрик)
    Лучший адаптированный сценарий

    Золотой глобус, 1976 год

    Номинации (2):
    Лучший фильм (драма)
    Лучший режиссер (Стэнли Кубрик)

    Британская академия, 1976 год
    Победитель (2):
    Лучший режиссер ( Стэнли Кубрик )
    Лучшая работа оператора
    Номинации (3):
    Лучший фильм
    Лучшая работа художника
    Лучшие костюмы
Экранизация выдающимся режиссёром Стенли Кубриком романа классика английской литературы Уильяма Теккерея восхищает, прежде всего, богатым изобразительным решением, точным и тонко стилизованным воспроизведением эпохи наполеоновских походов. Замечательный оператор Джон Олкотт (Кубрик работал с ним и на своём предыдущем фильме «Заводной апельсин») заслуженно получил премию «Оскар», как и художник-постановщик, декоратор и художник по костюмам, кроме того — композитор Леонард Розенмен, адаптировавший музыку начала XIX века. Сюжет о возвышении и блестящей карьере молодого ирландца Бэрри Линдона, который женился на богатой девушке из высшего света, типичен для классической литературы XIX столетия. Но Стенли Кубрик, как всегда, творит из обычной «моральной истории» эпическую фреску о превратностях человеческой судьбы и её взаимоотношениях с эпохой.
Несмотря на удивительные визуально-звуковые достоинства этой ленты, интересные философские изыскания постановщика на тему «индивидуум и История», экранное творение Кубрика кажется несколько затянутым и холодноватым по манере, что отмечают почти все энциклопедии. Однако афористичнее других высказался в одном из интервью Стивен Спилберг, который в целом оценивал высоко и даже с восхищением кинематографический талант своего старшего коллеги, «лучшего знатока кино среди режиссёров наряду с Фрэнсисом Копполой и Мартином Скорсезе»: «Посмотреть «Бэрри Линдон» — будто целый день ходить по музею Прадо без обеда».
    По настоянию режиссёра, некоторые сцены были сняты только при свете свечи, ради сьёмок в таких условиях были использованы линзы, применяемые астрономами НАСА для наблюдения за звёздами.

    «Барри Линдон» снимался в течении приблизительно трёхсот дней, на протяжении двух лет.

    Кубрик всегда сам отбирал музыку для своих фильмов. Как правило, использовал известную классику. В качестве саундтрека к картине «Барри Линдон» он использовал забытую всеми «Сарабанду» Генделя.

    Сцену с дуэлью Барри и лорда Буллингтона Кубрик монтировал 42 дня.
Большое спасибо Дяде Шарику за предоставленное железо для создания рипа.

Скриншоты



Время раздачи: Круглосуточно, до первых 10-и скачавших
Приятного просмотра!

 
Не забывайте говорить Спасибо. Не уходите с раздачи!   
Торрент: Зарегистрирован [19 ноя 2015, 17:47] Для скачивания .torrent
необходима регистрация
Или скачать с помощью
MediaGet
Статус:
Проверен
 
.torrent скачан: 0 раз
Хэш: 44e84b11432a76c389152644fba0c3bb986206d4
Размер: 3.74 ГБ (4 018 600 866 байт)
Стать Автором раздачи
 
 
Раздал: 0 байт
Скачал: 0 байт
Ратио: Inf.
Сообщения: 188877
Зарегистрирован: 14 июн 2014, 20:46


  • Похожие торренты
    Ответы
    Просмотры
    Последнее сообщение

Вернуться в Видео для мобильных устройств

Ресурс не предоставляет электронные версии произведений, а занимается лишь коллекционированием и каталогизацией ссылок, присылаемых и публикуемых на форуме нашими читателями. Если вы являетесь правообладателем какого-либо представленного материала и не желаете чтобы ссылка на него находилась в нашем каталоге, свяжитесь с нами и мы незамедлительно удалим её. Файлы для обмена на трекере предоставлены пользователями сайта, и администрация не несёт ответственности за их содержание. Просьба не заливать файлы, защищенные авторскими правами, а также файлы нелегального содержания!
cron