Мастера шпионажа (6 серий из 6) / History's Ultimate Spies [2015, Документальный, спецслужбы,история, познавательный, IPTVRip]

 
 Статистика раздачи 
Размер: 3.65 ГБ   |  Зарегистрирован: 13 ноя 2015, 21:08   |   .torrent скачан: 18 раз
Сидеров: 6  [ 0 байт/сек ]     Личеров: 0  [ 0 байт/сек ]  
  

Мастера шпионажа (6 серий из 6) / History's Ultimate Spies [2015, Документальный, спецслужбы,история, познавательный, IPTVRip]

Сообщение i926 » 13 ноя 2015, 21:08

Мастера шпионажа (6 серий из 6) / History's Ultimate Spies

Дата/Год выпуска: 2015
Страна: Великобритания
Жанр: Документальный, спецслужбы, история, познавательный
Продолжительность: 6 х ~ 00:43:31
Перевод: Профессиональный (дублированный)
Телеканал: Viasat History
Описание: У каждой страны есть свои секреты и тайны, а соответственно и свои разведчики и шпионы. О них мало кто знает, но они способны существенно поменять расстановку сил на военной, политической и экономической карте. Эти люди обладают реальной властью и способны манипулировать другими, они хладнокровны и непоколебимы, и готовы на все ради служения своему руководству. Мы отправимся в темные коридоры, секретные комнаты и подземные туннели и попытаемся раскрыть тайны самых известных мастеров шпионажа в истории.

Доп. информация: IPTVRip by alf62


качество: IPTVRip
формат: AVI
Видео: 720x400 (1.80:1), 25 fps, XviD build 73 ~1799 kbps avg, 0.25 bit/pixel
Аудио: 48 kHz, AC3 Dolby Digital, 2/0 (L,R) ch, ~192.00 kbps avg
1. София Потоцкая и Мата Хари / Zofia Potjcka & Mata Hari
В этой серии рассказывается о двух самых знаменитых шпионках в истории - Софии Потоцкой, которая была нанята для работы Григорием Потемкиным, а также о немецкой шпионке, известной под псевдонимом Мата Хари.

2. Томас Кромвель / Thomas Cromwell
Томас Кромвель создал величайшую по тем временам шпионскую сеть, которая помогла уберечь короля Генриха VIII от многих неприятностей, разводов и покушений на его жизнь.

3. Фрэнсис Уолсингем / Sir Francis Walsingham
Ярый протестант Фрэнсис Уолсингем был незаменимым слугой королевы Елизаветы I и стал одним из самых великих мастеров шпионажа в истории. У каждой страны есть свои секреты и тайны, а соответственно и свои разведчики и шпионы.

4. Роберт Сесил / Robert Cecil
Роберт Сесил был известным английским государственный деятелем, которому удалось создать уникальную сеть шпионов и доносчиков, чтобы обеспечить безопасность короля Иакова I.

5. Кардинал Ришелье / Cardinal Richeliu
Кардинала Римско-католической церкви Ришельё все боялись и уважали в равной степени, в основном в силу того, что он сформировал уникальную сеть шпионов во времена правления Людовика XIII.

6. Элизабет Ван-Лью / Elizabeth Van Lew
Элизабет Ван-Лью можно поставить в один ряд с наиболее выдающимися героями секретных служб, ведь она стала одной из самых известных шпионок Севера во время Гражданской войны в Америке.
Код: Выделить всё
Мастера.шпионажа.2015.XviD.IPTVRip.alf62\Мастера.шпионажа.(1.серия.из.6).София.Потоцкая.и.Мата.Хари.2015.XviD.IPTVRip.alf62.avi
Формат                                   : AVI
Формат/Информация                        : Audio Video Interleave
Размер файла                             : 623 Мбайт
Продолжительность                        : 43 м.
Общий поток                              : 2002 Кбит/сек
Программа кодирования                    : VirtualDubMod 1.5.10.3 | www.virtualdub-fr.org || (build 2550/release)
Библиотека кодирования                   : VirtualDubMod build 2550/release

Видео
Идентификатор                            : 0
Формат                                   : MPEG-4 Visual
Профиль формата                          : Advanced [email protected]
Параметр BVOP формата                    : 2
Параметр QPel формата                    : Нет
Параметр GMC формата                     : Без точки перехода
Параметр матрицы формата                 : Default (MPEG)
Идентификатор кодека                     : XVID
Идентификатор кодека/Подсказка           : XviD
Продолжительность                        : 43 м.
Битрейт                                  : 1800 Кбит/сек
Ширина                                   : 720 пикселей
Высота                                   : 400 пикселей
Соотношение сторон                       : 16:9
Частота кадров                           : 25,000 кадров/сек
Цветовое пространство                    : YUV
Субдискретизация насыщенности            : 4:2:0
Битовая глубина                          : 8 бит
Тип развёртки                            : Прогрессивная
Метод сжатия                             : С потерями
Бит/(Пиксели*Кадры)                      : 0.250
Размер потока                            : 560 Мбайт (90%)
Библиотека кодирования                   : XviD 73

Аудио
Идентификатор                            : 1
Формат                                   : AC-3
Формат/Информация                        : Audio Coding 3
Расширение режима                        : CM (complete main)
Параметр Endianness формата              : Big
Идентификатор кодека                     : 2000
Продолжительность                        : 43 м.
Вид битрейта                             : Постоянный
Битрейт                                  : 192 Кбит/сек
Каналы                                   : 2 канала
Расположение каналов                     : Front: L R
Частота                                  : 48,0 КГц
Битовая глубина                          : 16 бит
Метод сжатия                             : С потерями
Размер потока                            : 59,8 Мбайт (10%)
Выравнивание                             : Разделение по промежуткам
Продолжительность промежутка             : 40  мс. (1,00 видеокадр)
Время предзагрузки промежутка            : 500  мс.


 
Не забывайте говорить Спасибо. Не уходите с раздачи!   
Торрент: Зарегистрирован [13 ноя 2015, 21:08] Для скачивания .torrent
необходима регистрация
Или скачать с помощью
MediaGet
Статус:
Проверен
 
.torrent скачан: 18 раз
Хэш: c39b1335b89af5a9715df211dd25901a28faccf5
Размер: 3.65 ГБ (3 916 773 942 байт)
Стать Автором раздачи
 
Аватара пользователя
Главный редактор
Главный редактор
 
Раздал: 8 ТБ
Скачал: 10.53 ТБ
Ратио: 0.760
Сообщения: 64286
Зарегистрирован: 01 мар 2011, 23:07


  • Похожие торренты
    Ответы
    Просмотры
    Последнее сообщение

Вернуться в Тайны века / Спецслужбы / Теории Заговоров

Кто сейчас на конференции

Сейчас эту тему просматривают: нет зарегистрированных пользователей и гости: 1

Ресурс не предоставляет электронные версии произведений, а занимается лишь коллекционированием и каталогизацией ссылок, присылаемых и публикуемых на форуме нашими читателями. Если вы являетесь правообладателем какого-либо представленного материала и не желаете чтобы ссылка на него находилась в нашем каталоге, свяжитесь с нами и мы незамедлительно удалим её. Файлы для обмена на трекере предоставлены пользователями сайта, и администрация не несёт ответственности за их содержание. Просьба не заливать файлы, защищенные авторскими правами, а также файлы нелегального содержания!