Искатели - "Пежемское невезение" [2015, документальный, DVB]

 
 Статистика раздачи 
Размер: 920.4 МБ   |  Зарегистрирован: 11 ноя 2015, 19:21   |   .torrent скачан: 3 раз
Сидеров: 1  [ 0 байт/сек ]     Личеров: 0  [ 0 байт/сек ]  
  

Искатели - "Пежемское невезение" [2015, документальный, DVB]

Сообщение i926 » 11 ноя 2015, 19:21

Искатели - "Пежемское невезение".

Год выпуска: 2015
Страна: Россия
Жанр: Документальный
Продолжительность: 00:44:01
Перевод: Не требуется
Цикл познавательно-приключенческих программ, посвященный общественно значимым событиям истории России и зарубежья, а также частным историям известных людей, которые оставили потомкам много вопросов и тайн. Жанр цикла – историческое расследование, "телевизионные приключения для взрослых". Чтобы разгадать очередную тайну, "Искатели" исследуют как летописные источники, так и находки, обнаруженные непосредственно на месте исторических событий.
В выпуске: В 2009 году в деревне Пежма Архангельской области начали восстановление Богоявленского храма. С этого времени каждый год туда приезжают отряды из Москвы. Казалось бы, храм уже должен засиять новыми куполами и зазвучать колокольным звоном, но, усилиями добровольцев за все это время удалось восстановить только один из имеющихся ранее четырех прид

Качество видео: DVB
Формат видео: MPEG-PS

Видео: MPEG2 Video, 720x576 (4:3), 25 fps, 2700 kbps
Аудио: MPEG Audiо, 2 сh, 48 kHz, 192 kbps

Трансляция спутникового канала:
G:\Искатели. Пежемское невезение. (2015)_DVB by SLuMeP.mpg
General
Complete name : G:\Искатели. Пежемское невезение. (2015)_DVB by SLuMeP.mpg
Format : MPEG-PS
File size : 920 MiB
Duration : 44mn 1s
Overall bit rate mode : Variable
Overall bit rate : 2 922 Kbps

Video #224
ID : 224 (0xE0)
Format : MPEG Video
Format version : Version 2
Format profile : [email protected]
Format settings, BVOP : Yes
Format settings, Matrix : Custom
Format settings, GOP : Variable
Duration : 44mn 1s
Bit rate mode : Variable
Bit rate : 2 672 Kbps
Maximum bit rate : 15.0 Mbps
Width : 720 pixels
Height : 576 pixels
Display aspect ratio : 4:3
Frame rate : 25.000 fps
Standard : PAL
Color space : YUV
Chroma subsampling : 4:2:0
Bit depth : 8 bits
Scan type : Interlaced
Scan order : Top Field First
Compression mode : Lossy
Bits/(Pixel*Frame) : 0.258
Time code of first frame : 00:00:00:00
Time code source : Group of pictures header

Stream size : 842 MiB (91%)
Audio #192
ID : 192 (0xC0)
Format : MPEG Audio
Format version : Version 1
Format profile : Layer 2
Duration : 44mn 1s
Bit rate mode : Constant
Bit rate : 192 Kbps
Channel(s) : 2 channels
Sampling rate : 48.0 KHz
Compression mode : Lossy
Stream size : 60.5 MiB (7%)

 
Не забывайте говорить Спасибо. Не уходите с раздачи!   
Торрент: Зарегистрирован [11 ноя 2015, 19:21] Для скачивания .torrent
необходима регистрация
Или скачать с помощью
MediaGet
Статус:
Проверен
 
.torrent скачан: 3 раз
Хэш: a177f194e3888123cd97ac5142c05af4d61f7329
Размер: 920.4 МБ (965 113 856 байт)
Стать Автором раздачи
 
Аватара пользователя
Главный редактор
Главный редактор
 
Раздал: 7.23 ТБ
Скачал: 9.38 ТБ
Ратио: 0.772
Сообщения: 64317
Зарегистрирован: 01 мар 2011, 23:07


  • Похожие торренты
    Ответы
    Просмотры
    Последнее сообщение

Вернуться в Битва экстрасенсов / Теория невероятности / Искатели / Галилео

Кто сейчас на конференции

Сейчас эту тему просматривают: нет зарегистрированных пользователей и гости: 1

Ресурс не предоставляет электронные версии произведений, а занимается лишь коллекционированием и каталогизацией ссылок, присылаемых и публикуемых на форуме нашими читателями. Если вы являетесь правообладателем какого-либо представленного материала и не желаете чтобы ссылка на него находилась в нашем каталоге, свяжитесь с нами и мы незамедлительно удалим её. Файлы для обмена на трекере предоставлены пользователями сайта, и администрация не несёт ответственности за их содержание. Просьба не заливать файлы, защищенные авторскими правами, а также файлы нелегального содержания!