50 оттенков. Белова. Крушение самолета А-321 [2015, Тв-шоу, HDTV 1080i]

 
 Статистика раздачи 
Размер: 3.01 ГБ   |  Зарегистрирован: 09 ноя 2015, 13:25   |   .torrent скачан: 0 раз
Сидеров: 1  [ 0 байт/сек ]     Личеров: 0  [ 0 байт/сек ]  
  

50 оттенков. Белова. Крушение самолета А-321 [2015, Тв-шоу, HDTV 1080i]

Сообщение i926 » 09 ноя 2015, 13:25

50 оттенков. Белова. Крушение самолета А-321

Год выпуска: 2015
Страна: Россия
Студия: НТВ
Жанр: Тв-шоу
Продолжительность: 00:50:00
Перевод: Не требуется
Русские субтитры: нет

Режиссер: 1

Описание: «50 оттенков. Белова» – это еженедельная программа, в основе которой не только актуальная информация субботы, но и самое запоминающееся или волнительное, резонансное или шокирующее событие уходящей недели. При этом в формате шоу нет даже намека на то, что это очередная попытка повторить какой-нибудь один, уже существующий телевизионный жанр. В основе – гибкий подход, который зависит от темы. В программе будут сочетаться острое, эмоциональное ток-шоу и репортажная журналистика, расследования и откровенные интервью с героями уходящей недели. Все подчинено одному: ярко, правдиво и по возможности разносторонне рассказать о том, что активно обсуждают в стране или сразу после эфира начнут обсуждать. Вся эта палитра жанров, тем и подходов заложена в само название нового шоу – «50 оттенков. Белова». Говорят же, что женщины различают гораздо больше оттенков, чем мужчины. А на самую обсуждаемую историю недели всегда хочется посмотреть не только с точки зрения «черного» и «белого», а с разных ракурсов, рассмотрев в ней максимальное количество оттенков. Именно поэтому ведущей проекта стала Ольга Белова, обладающая не только богатым опытом в информационной журналистике, но и природной женской интуицией… Все это поможет рассмотреть любую историю и тему во всем многообразии смыслов, подтекстов и причин.

Источник: собственный рип

Доп. информация: Релиз -


Рип чистый. Без посторонних надписей. Выкладывается как есть.

Качество: HDTV 1080i
Контейнер: TS
Видео кодек: AVC
Аудио кодек: MP2
Видео: 1920x1080 (16:9) 25.000 fps ~ 10.0 Mbpss, 0.275 bit/pixel
Аудио: MPEG Audio 48000Hz stereo 192 Кбит/сек

Код: Выделить всё
General
ID                          : 1 (0x1)
Complete name               : H:\ИТОГ\50 оттенков Белова. Крушение самолета. 31.10.2015 (2015, Тв-шоу, HDTV 1080i) (НТВ) (MYDIMKA).ts
Format                      : MPEG-TS
File size                   : 3.01 GiB
Duration                    : 50mn 5s
Overall bit rate mode       : Variable
Overall bit rate            : 8 601 Kbps

Video
ID                          : 67 (0x43)
Menu ID                     : 1 (0x1)
Format                      : AVC
Format/Info                 : Advanced Video Codec
Format profile              : Main@L4
Format settings, CABAC      : Yes
Format settings, ReFrames   : 4 frames
Codec ID                    : 27
Duration                    : 50mn 5s
Bit rate                    : 7 982 Kbps
Width                       : 1 920 pixels
Height                      : 1 080 pixels
Display aspect ratio        : 16:9
Frame rate                  : 25.000 fps
Standard                    : Component
Color space                 : YUV
Chroma subsampling          : 4:2:0
Bit depth                   : 8 bits
Scan type                   : Interlaced
Scan order                  : Top Field First
Bits/(Pixel*Frame)          : 0.154
Stream size                 : 2.79 GiB (93%)
Color range                 : Limited
Color primaries             : BT.709
Transfer characteristics    : BT.709
Matrix coefficients         : BT.709

Audio
ID                          : 68 (0x44)
Menu ID                     : 1 (0x1)
Format                      : MPEG Audio
Format version              : Version 1
Format profile              : Layer 2
Codec ID                    : 3
Duration                    : 50mn 5s
Bit rate mode               : Constant
Bit rate                    : 192 Kbps
Channel(s)                  : 2 channels
Sampling rate               : 48.0 KHz
Compression mode            : Lossy
Delay relative to video     : -40ms
Stream size                 : 68.8 MiB (2%)
Language                    : English
 
Не забывайте говорить Спасибо. Не уходите с раздачи!   
Торрент: Зарегистрирован [09 ноя 2015, 13:25] Для скачивания .torrent
необходима регистрация
Или скачать с помощью
MediaGet
Статус:
Проверен
 
.torrent скачан: 0 раз
Хэш: f93617b73adef2cf985af6cf09b43a8561faf190
Размер: 3.01 ГБ (3 231 676 948 байт)
Стать Автором раздачи
 
Аватара пользователя
Главный редактор
Главный редактор
 
Раздал: 15.43 ТБ
Скачал: 13.78 ТБ
Ратио: 1.120
Сообщения: 65039
Зарегистрирован: 01 мар 2011, 23:07


  • Похожие торренты
    Ответы
    Просмотры
    Последнее сообщение

Вернуться в Телепередачи (HD Video), не являющиеся документалистикой

Ресурс не предоставляет электронные версии произведений, а занимается лишь коллекционированием и каталогизацией ссылок, присылаемых и публикуемых на форуме нашими читателями. Если вы являетесь правообладателем какого-либо представленного материала и не желаете чтобы ссылка на него находилась в нашем каталоге, свяжитесь с нами и мы незамедлительно удалим её. Файлы для обмена на трекере предоставлены пользователями сайта, и администрация не несёт ответственности за их содержание. Просьба не заливать файлы, защищенные авторскими правами, а также файлы нелегального содержания!
cron