VA - Осенний марафон № 203 / Видеоклипы (Дискотека с размахом № 2) (2015) WEBRip [H.264/1080p-LQ]

 
 Статистика раздачи 
Размер: 3.32 ГБ   |  Зарегистрирован: 08 ноя 2015, 22:55   |   .torrent скачан: 0 раз
Сидеров: 1  [ 0 байт/сек ]     Личеров: 0  [ 0 байт/сек ]  
  

VA - Осенний марафон № 203 / Видеоклипы (Дискотека с размахом № 2) (2015) WEBRip [H.264/1080p-LQ]

Сообщение Thelver1947 » 08 ноя 2015, 22:55

VA - Осенний марафон № 203 / (Дискотека с размахом № 2) (2015) WEBRip

Жанр: Pop, Dance, Latino, Country, House, Dubstep, Alternative, Chill Out

Описание:
Осенние (08.11.2015) поп. новинки зарубежной и русской эстрады. Не пропустите, держите новые треки.

Кол-во клипов: 25
Продолжительность: 01:30:42
Качество видео: WEBRip

Видео: AVC/H.264, 1920x1080 (16:9), 25.000 fps, ~ 4735 kbps
Аудио: AC3, 6 ch, 320 Kbps avg, CBR
Треклист:
01. Amira - Останови эту ночь (Премьера!) (00:03:10)
02. David Guetta ft. Sia and Fetty Wap - Bang My Head (Official Video) (00:03:33)
03. Enya - So I Could Find My Way (Official Video) (00:04:25)
04. Jess Glynne - Take Me Home (Official Video) (00:04:32)
05. Laidback Luke ft. Trevor Guthrie - Let it Go (Official Video) (00:03:20)
06. Lilu Vega - По бесконечности (Премьера!) (00:03:31)
07. Matt Houston Ft. Mohombi and Kevin Mengi - M.K.O.G (Official Video) (00:03:16)
08. Maya Pop - Be Strong (Official Video) (00:03:09)
09. Moguai ft. Cheat Codes - Hold On (Official Video) (00:04:03)
10. Rachel Platten - Stand By You (Official Video) (00:03:45)
11. Sigma ft. Rita Ora - Coming Home (Official Video) (00:03:20)
12. Виа Гра - Это было прекрасно (Новая волна 2015) (Премьера!) (00:04:47)
13. Sounds Like Harmony - Fireworks (Official Video) (00:03:26)
14. Take That - Hey Boy (Official Video) (00:03:41)
15. Tiffany Parker - One Voice (Official Video) (00:03:33)
16. Tinashe ft. Chris Brown - Player (Official Video) (00:03:49)
17. Vanessa Mdee - Never Ever (Official Video) (00:03:45)
18. Walahi - Runtown (Official Video) (00:03:54)
19. Yakuro - Microcosmos (Official Video) (00:06:03)
20. Алеся Висич - Не отдам (Премьера!) (00:03:27)
21. Алсу - Три минуты (Новая Волна 2015) (Премьера!) (00:04:42)
22. Ани Лорак - Без тебя (Live @ New Wave 2015) (Премьера!) (00:04:40)
23. Винтаж и M.E.G. & N.E.R.A.K. - Я верю в любовь (Премьера!) (00:04:35)
24. Диана Полушкина - Я Знаю (Премьера!) (00:03:28)
25. Митя Фомин - Хорошая Песня (Премьера!) (00:05:26)
Код:
Код: Выделить всё
Общее
Полное имя                               : E:\VA - Осенний марафон № 203 (Дискотека с размахом № 2)\01. Amira - Останови эту ночь (Премьера!).mp4
Формат                                   : MPEG-4
Профиль формата                          : Base Media
Идентификатор кодека                     : isom
Размер файла                             : 108 Мбайт
Продолжительность                        : 3 м. 10 с.
Общий поток                              : 4782 Кбит/сек
Дата кодирования                         : UTC 2015-11-06 11:48:00
Дата пометки                             : UTC 2015-11-06 11:48:00
Программа кодирования                    : Lavf54.63.104

Видео
Идентификатор                            : 1
Формат                                   : AVC
Формат/Информация                        : Advanced Video Codec
Профиль формата                          : Main@L4
Параметр CABAC формата                   : Да
Параметр ReFrames формата                : 1 кадр
Идентификатор кодека                     : avc1
Идентификатор кодека/Информация          : Advanced Video Coding
Продолжительность                        : 3 м. 10 с.
Битрейт                                  : 4496 Кбит/сек
Ширина                                   : 1920 пикселей
Высота                                   : 1080 пикселей
Соотношение сторон                       : 16:9
Режим частоты кадров                     : Постоянный
Частота кадров                           : 25,000 кадров/сек
Цветовое пространство                    : YUV
Субдискретизация насыщенности            : 4:2:0
Битовая глубина                          : 8 бит
Тип развёртки                            : Прогрессивная
Бит/(Пиксели*Кадры)                      : 0.087
Размер потока                            : 101 Мбайт (93%)
Библиотека кодирования                   : x264 core 129
Настройки программы                      : cabac=1 / ref=1 / deblock=1:0:0 / analyse=0x1:0x131 / me=dia / subme=2 / psy=1 / psy_rd=1.00:0.00 / mixed_ref=0 / me_range=16 / chroma_me=1 / trellis=0 / 8x8dct=0 / cqm=0 / deadzone=21,11 / fast_pskip=1 / chroma_qp_offset=0 / threads=2 / lookahead_threads=1 / sliced_threads=0 / nr=0 / decimate=1 / interlaced=0 / bluray_compat=0 / constrained_intra=0 / bframes=0 / weightp=2 / keyint=250 / keyint_min=25 / scenecut=40 / intra_refresh=0 / rc_lookahead=40 / rc=abr / mbtree=1 / bitrate=4496 / ratetol=1.0 / qcomp=0.60 / qpmin=10 / qpmax=51 / qpstep=4 / ip_ratio=1.41 / aq=1:1.00
Дата кодирования                         : UTC 2015-11-06 11:48:00
Дата пометки                             : UTC 2015-11-06 11:48:00

Аудио
Идентификатор                            : 2
Формат                                   : AC-3
Формат/Информация                        : Audio Coding 3
Расширение режима                        : CM (complete main)
Параметр Endianness формата              : Big
Идентификатор кодека                     : ac-3
Продолжительность                        : 3 м. 10 с.
Вид битрейта                             : Постоянный
Битрейт                                  : 320 Кбит/сек
Каналы                                   : 6 каналов
Расположение каналов                     : Front: L C R, Side: L R, LFE
Частота                                  : 48,0 КГц
Битовая глубина                          : 16 бит
Метод сжатия                             : С потерями
Размер потока                            : 7,26 Мбайт (7%)
Дата кодирования                         : UTC 2015-11-06 11:48:00
Дата пометки                             : UTC 2015-11-06 11:48:00
Общее
Полное имя                               : E:\VA - Осенний марафон № 203 (Дискотека с размахом № 2)\02. David Guetta ft. Sia and Fetty Wap - Bang My Head (Official Video).mp4
Формат                                   : MPEG-4
Профиль формата                          : Base Media
Идентификатор кодека                     : isom
Размер файла                             : 129 Мбайт
Продолжительность                        : 3 м. 33 с.
Общий поток                              : 5059 Кбит/сек
Дата кодирования                         : UTC 2015-11-06 12:29:06
Дата пометки                             : UTC 2015-11-06 12:29:06
Программа кодирования                    : Lavf54.63.104

Видео
Идентификатор                            : 1
Формат                                   : AVC
Формат/Информация                        : Advanced Video Codec
Профиль формата                          : Main@L4
Параметр CABAC формата                   : Да
Параметр ReFrames формата                : 1 кадр
Идентификатор кодека                     : avc1
Идентификатор кодека/Информация          : Advanced Video Coding
Продолжительность                        : 3 м. 33 с.
Битрейт                                  : 4735 Кбит/сек
Номинальный битрейт                      : 4496 Кбит/сек
Ширина                                   : 1920 пикселей
Высота                                   : 1080 пикселей
Соотношение сторон                       : 16:9
Режим частоты кадров                     : Постоянный
Частота кадров                           : 25,000 кадров/сек
Цветовое пространство                    : YUV
Субдискретизация насыщенности            : 4:2:0
Битовая глубина                          : 8 бит
Тип развёртки                            : Прогрессивная
Бит/(Пиксели*Кадры)                      : 0.091
Размер потока                            : 121 Мбайт (94%)
Библиотека кодирования                   : x264 core 129
Настройки программы                      : cabac=1 / ref=1 / deblock=1:0:0 / analyse=0x1:0x131 / me=dia / subme=2 / psy=1 / psy_rd=1.00:0.00 / mixed_ref=0 / me_range=16 / chroma_me=1 / trellis=0 / 8x8dct=0 / cqm=0 / deadzone=21,11 / fast_pskip=1 / chroma_qp_offset=0 / threads=2 / lookahead_threads=1 / sliced_threads=0 / nr=0 / decimate=1 / interlaced=0 / bluray_compat=0 / constrained_intra=0 / bframes=0 / weightp=2 / keyint=250 / keyint_min=25 / scenecut=40 / intra_refresh=0 / rc_lookahead=40 / rc=abr / mbtree=1 / bitrate=4496 / ratetol=1.0 / qcomp=0.60 / qpmin=10 / qpmax=51 / qpstep=4 / ip_ratio=1.41 / aq=1:1.00
Дата кодирования                         : UTC 2015-11-06 12:29:06
Дата пометки                             : UTC 2015-11-06 12:29:06

Аудио
Идентификатор                            : 2
Формат                                   : AC-3
Формат/Информация                        : Audio Coding 3
Расширение режима                        : CM (complete main)
Параметр Endianness формата              : Big
Идентификатор кодека                     : ac-3
Продолжительность                        : 3 м. 33 с.
Вид битрейта                             : Постоянный
Битрейт                                  : 320 Кбит/сек
Каналы                                   : 6 каналов
Расположение каналов                     : Front: L C R, Side: L R, LFE
Частота                                  : 48,0 КГц
Битовая глубина                          : 16 бит
Метод сжатия                             : С потерями
Размер потока                            : 8,15 Мбайт (6%)
Дата кодирования                         : UTC 2015-11-06 12:29:06
Дата пометки                             : UTC 2015-11-06 12:29:06
Общее
Полное имя                               : E:\VA - Осенний марафон № 203 (Дискотека с размахом № 2)\03. Enya - So I Could Find My Way (Official Video).mp4
Формат                                   : MPEG-4
Профиль формата                          : Base Media
Идентификатор кодека                     : isom
Размер файла                             : 150 Мбайт
Продолжительность                        : 4 м. 25 с.
Общий поток                              : 4737 Кбит/сек
Дата кодирования                         : UTC 2015-11-06 11:24:36
Дата пометки                             : UTC 2015-11-06 11:24:36
Программа кодирования                    : Lavf54.63.104

Видео
Идентификатор                            : 1
Формат                                   : AVC
Формат/Информация                        : Advanced Video Codec
Профиль формата                          : Main@L4
Параметр CABAC формата                   : Да
Параметр ReFrames формата                : 1 кадр
Идентификатор кодека                     : avc1
Идентификатор кодека/Информация          : Advanced Video Coding
Продолжительность                        : 4 м. 25 с.
Битрейт                                  : 4496 Кбит/сек
Ширина                                   : 1920 пикселей
Высота                                   : 1080 пикселей
Соотношение сторон                       : 16:9
Режим частоты кадров                     : Постоянный
Частота кадров                           : 25,000 кадров/сек
Цветовое пространство                    : YUV
Субдискретизация насыщенности            : 4:2:0
Битовая глубина                          : 8 бит
Тип развёртки                            : Прогрессивная
Бит/(Пиксели*Кадры)                      : 0.087
Размер потока                            : 140 Мбайт (93%)
Библиотека кодирования                   : x264 core 129
Настройки программы                      : cabac=1 / ref=1 / deblock=1:0:0 / analyse=0x1:0x131 / me=dia / subme=2 / psy=1 / psy_rd=1.00:0.00 / mixed_ref=0 / me_range=16 / chroma_me=1 / trellis=0 / 8x8dct=0 / cqm=0 / deadzone=21,11 / fast_pskip=1 / chroma_qp_offset=0 / threads=2 / lookahead_threads=1 / sliced_threads=0 / nr=0 / decimate=1 / interlaced=0 / bluray_compat=0 / constrained_intra=0 / bframes=0 / weightp=2 / keyint=250 / keyint_min=25 / scenecut=40 / intra_refresh=0 / rc_lookahead=40 / rc=abr / mbtree=1 / bitrate=4496 / ratetol=1.0 / qcomp=0.60 / qpmin=10 / qpmax=51 / qpstep=4 / ip_ratio=1.41 / aq=1:1.00
Дата кодирования                         : UTC 2015-11-06 11:24:36
Дата пометки                             : UTC 2015-11-06 11:24:36

Аудио
Идентификатор                            : 2
Формат                                   : AC-3
Формат/Информация                        : Audio Coding 3
Расширение режима                        : CM (complete main)
Параметр Endianness формата              : Big
Идентификатор кодека                     : ac-3
Продолжительность                        : 4 м. 25 с.
Вид битрейта                             : Постоянный
Битрейт                                  : 320 Кбит/сек
Каналы                                   : 6 каналов
Расположение каналов                     : Front: L C R, Side: L R, LFE
Частота                                  : 48,0 КГц
Битовая глубина                          : 16 бит
Метод сжатия                             : С потерями
Размер потока                            : 10,1 Мбайт (7%)
Дата кодирования                         : UTC 2015-11-06 11:24:36
Дата пометки                             : UTC 2015-11-06 11:24:36
Общее
Полное имя                               : E:\VA - Осенний марафон № 203 (Дискотека с размахом № 2)\04. Jess Glynne - Take Me Home (Official Video).mp4
Формат                                   : MPEG-4
Профиль формата                          : Base Media
Идентификатор кодека                     : isom
Размер файла                             : 153 Мбайт
Продолжительность                        : 4 м. 32 с.
Общий поток                              : 4699 Кбит/сек
Дата кодирования                         : UTC 2015-11-07 12:10:20
Дата пометки                             : UTC 2015-11-07 12:10:20
Программа кодирования                    : Lavf54.63.104

Видео
Идентификатор                            : 1
Формат                                   : AVC
Формат/Информация                        : Advanced Video Codec
Профиль формата                          : Main@L4
Параметр CABAC формата                   : Да
Параметр ReFrames формата                : 1 кадр
Идентификатор кодека                     : avc1
Идентификатор кодека/Информация          : Advanced Video Coding
Продолжительность                        : 4 м. 32 с.
Битрейт                                  : 4496 Кбит/сек
Ширина                                   : 1920 пикселей
Высота                                   : 1080 пикселей
Соотношение сторон                       : 16:9
Режим частоты кадров                     : Постоянный
Частота кадров                           : 25,000 кадров/сек
Цветовое пространство                    : YUV
Субдискретизация насыщенности            : 4:2:0
Битовая глубина                          : 8 бит
Тип развёртки                            : Прогрессивная
Бит/(Пиксели*Кадры)                      : 0.087
Размер потока                            : 142 Мбайт (93%)
Библиотека кодирования                   : x264 core 129
Настройки программы                      : cabac=1 / ref=1 / deblock=1:0:0 / analyse=0x1:0x131 / me=dia / subme=2 / psy=1 / psy_rd=1.00:0.00 / mixed_ref=0 / me_range=16 / chroma_me=1 / trellis=0 / 8x8dct=0 / cqm=0 / deadzone=21,11 / fast_pskip=1 / chroma_qp_offset=0 / threads=2 / lookahead_threads=1 / sliced_threads=0 / nr=0 / decimate=1 / interlaced=0 / bluray_compat=0 / constrained_intra=0 / bframes=0 / weightp=2 / keyint=250 / keyint_min=25 / scenecut=40 / intra_refresh=0 / rc_lookahead=40 / rc=abr / mbtree=1 / bitrate=4496 / ratetol=1.0 / qcomp=0.60 / qpmin=10 / qpmax=51 / qpstep=4 / ip_ratio=1.41 / aq=1:1.00
Дата кодирования                         : UTC 2015-11-07 12:10:20
Дата пометки                             : UTC 2015-11-07 12:10:20

Аудио
Идентификатор                            : 2
Формат                                   : AC-3
Формат/Информация                        : Audio Coding 3
Расширение режима                        : CM (complete main)
Параметр Endianness формата              : Big
Идентификатор кодека                     : ac-3
Продолжительность                        : 4 м. 32 с.
Вид битрейта                             : Постоянный
Битрейт                                  : 320 Кбит/сек
Каналы                                   : 6 каналов
Расположение каналов                     : Front: L C R, Side: L R, LFE
Частота                                  : 48,0 КГц
Битовая глубина                          : 16 бит
Метод сжатия                             : С потерями
Размер потока                            : 10,4 Мбайт (7%)
Дата кодирования                         : UTC 2015-11-07 12:10:20
Дата пометки                             : UTC 2015-11-07 12:10:20
Общее
Полное имя                               : E:\VA - Осенний марафон № 203 (Дискотека с размахом № 2)\05. Laidback Luke ft. Trevor Guthrie - Let it Go (Official Video).mp4
Формат                                   : MPEG-4
Профиль формата                          : Base Media
Идентификатор кодека                     : isom
Размер файла                             : 111 Мбайт
Продолжительность                        : 3 м. 20 с.
Общий поток                              : 4661 Кбит/сек
Дата кодирования                         : UTC 2015-11-07 05:41:38
Дата пометки                             : UTC 2015-11-07 05:41:38
Программа кодирования                    : Lavf54.63.104

Видео
Идентификатор                            : 1
Формат                                   : AVC
Формат/Информация                        : Advanced Video Codec
Профиль формата                          : Main@L4
Параметр CABAC формата                   : Да
Параметр ReFrames формата                : 1 кадр
Идентификатор кодека                     : avc1
Идентификатор кодека/Информация          : Advanced Video Coding
Продолжительность                        : 3 м. 20 с.
Битрейт                                  : 4496 Кбит/сек
Ширина                                   : 1920 пикселей
Высота                                   : 1080 пикселей
Соотношение сторон                       : 16:9
Режим частоты кадров                     : Постоянный
Частота кадров                           : 25,000 кадров/сек
Цветовое пространство                    : YUV
Субдискретизация насыщенности            : 4:2:0
Битовая глубина                          : 8 бит
Тип развёртки                            : Прогрессивная
Бит/(Пиксели*Кадры)                      : 0.087
Размер потока                            : 104 Мбайт (93%)
Библиотека кодирования                   : x264 core 129
Настройки программы                      : cabac=1 / ref=1 / deblock=1:0:0 / analyse=0x1:0x131 / me=dia / subme=2 / psy=1 / psy_rd=1.00:0.00 / mixed_ref=0 / me_range=16 / chroma_me=1 / trellis=0 / 8x8dct=0 / cqm=0 / deadzone=21,11 / fast_pskip=1 / chroma_qp_offset=0 / threads=2 / lookahead_threads=1 / sliced_threads=0 / nr=0 / decimate=1 / interlaced=0 / bluray_compat=0 / constrained_intra=0 / bframes=0 / weightp=2 / keyint=250 / keyint_min=25 / scenecut=40 / intra_refresh=0 / rc_lookahead=40 / rc=abr / mbtree=1 / bitrate=4496 / ratetol=1.0 / qcomp=0.60 / qpmin=10 / qpmax=51 / qpstep=4 / ip_ratio=1.41 / aq=1:1.00
Дата кодирования                         : UTC 2015-11-07 05:41:38
Дата пометки                             : UTC 2015-11-07 05:41:38

Аудио
Идентификатор                            : 2
Формат                                   : AC-3
Формат/Информация                        : Audio Coding 3
Расширение режима                        : CM (complete main)
Параметр Endianness формата              : Big
Идентификатор кодека                     : ac-3
Продолжительность                        : 3 м. 20 с.
Вид битрейта                             : Постоянный
Битрейт                                  : 320 Кбит/сек
Каналы                                   : 6 каналов
Расположение каналов                     : Front: L C R, Side: L R, LFE
Частота                                  : 48,0 КГц
Битовая глубина                          : 16 бит
Метод сжатия                             : С потерями
Размер потока                            : 7,64 Мбайт (7%)
Дата кодирования                         : UTC 2015-11-07 05:41:38
Дата пометки                             : UTC 2015-11-07 05:41:38
Общее
Полное имя                               : E:\VA - Осенний марафон № 203 (Дискотека с размахом № 2)\06. Lilu Vega - По бесконечности (Премьера!).mp4
Формат                                   : MPEG-4
Профиль формата                          : Base Media
Идентификатор кодека                     : isom
Размер файла                             : 121 Мбайт
Продолжительность                        : 3 м. 31 с.
Общий поток                              : 4796 Кбит/сек
Дата кодирования                         : UTC 2015-11-07 04:25:47
Дата пометки                             : UTC 2015-11-07 04:25:47
Программа кодирования                    : Lavf54.63.104

Видео
Идентификатор                            : 1
Формат                                   : AVC
Формат/Информация                        : Advanced Video Codec
Профиль формата                          : Main@L4
Параметр CABAC формата                   : Да
Параметр ReFrames формата                : 1 кадр
Идентификатор кодека                     : avc1
Идентификатор кодека/Информация          : Advanced Video Coding
Продолжительность                        : 3 м. 31 с.
Битрейт                                  : 4496 Кбит/сек
Ширина                                   : 1920 пикселей
Высота                                   : 1080 пикселей
Соотношение сторон                       : 16:9
Режим частоты кадров                     : Постоянный
Частота кадров                           : 25,000 кадров/сек
Цветовое пространство                    : YUV
Субдискретизация насыщенности            : 4:2:0
Битовая глубина                          : 8 бит
Тип развёртки                            : Прогрессивная
Бит/(Пиксели*Кадры)                      : 0.087
Размер потока                            : 113 Мбайт (93%)
Библиотека кодирования                   : x264 core 129
Настройки программы                      : cabac=1 / ref=1 / deblock=1:0:0 / analyse=0x1:0x131 / me=dia / subme=2 / psy=1 / psy_rd=1.00:0.00 / mixed_ref=0 / me_range=16 / chroma_me=1 / trellis=0 / 8x8dct=0 / cqm=0 / deadzone=21,11 / fast_pskip=1 / chroma_qp_offset=0 / threads=2 / lookahead_threads=1 / sliced_threads=0 / nr=0 / decimate=1 / interlaced=0 / bluray_compat=0 / constrained_intra=0 / bframes=0 / weightp=2 / keyint=250 / keyint_min=25 / scenecut=40 / intra_refresh=0 / rc_lookahead=40 / rc=abr / mbtree=1 / bitrate=4496 / ratetol=1.0 / qcomp=0.60 / qpmin=10 / qpmax=51 / qpstep=4 / ip_ratio=1.41 / aq=1:1.00
Дата кодирования                         : UTC 2015-11-07 04:25:47
Дата пометки                             : UTC 2015-11-07 04:25:47

Аудио
Идентификатор                            : 2
Формат                                   : AC-3
Формат/Информация                        : Audio Coding 3
Расширение режима                        : CM (complete main)
Параметр Endianness формата              : Big
Идентификатор кодека                     : ac-3
Продолжительность                        : 3 м. 31 с.
Вид битрейта                             : Постоянный
Битрейт                                  : 320 Кбит/сек
Каналы                                   : 6 каналов
Расположение каналов                     : Front: L C R, Side: L R, LFE
Частота                                  : 48,0 КГц
Битовая глубина                          : 16 бит
Метод сжатия                             : С потерями
Размер потока                            : 8,07 Мбайт (7%)
Дата кодирования                         : UTC 2015-11-07 04:25:47
Дата пометки                             : UTC 2015-11-07 04:25:47
Общее
Полное имя                               : E:\VA - Осенний марафон № 203 (Дискотека с размахом № 2)\07. Matt Houston Ft. Mohombi & Kevin Mengi - M.K.O.G (Official Video).mp4
Формат                                   : MPEG-4
Профиль формата                          : Base Media
Идентификатор кодека                     : isom
Размер файла                             : 112 Мбайт
Продолжительность                        : 3 м. 16 с.
Общий поток                              : 4760 Кбит/сек
Дата кодирования                         : UTC 2015-05-23 10:03:22
Дата пометки                             : UTC 2015-05-23 10:03:22
Программа кодирования                    : Lavf54.63.104

Видео
Идентификатор                            : 1
Формат                                   : AVC
Формат/Информация                        : Advanced Video Codec
Профиль формата                          : Main@L4
Параметр CABAC формата                   : Да
Параметр ReFrames формата                : 1 кадр
Идентификатор кодека                     : avc1
Идентификатор кодека/Информация          : Advanced Video Coding
Продолжительность                        : 3 м. 16 с.
Битрейт                                  : 4496 Кбит/сек
Ширина                                   : 1920 пикселей
Высота                                   : 1080 пикселей
Соотношение сторон                       : 16:9
Режим частоты кадров                     : Постоянный
Частота кадров                           : 25,000 кадров/сек
Цветовое пространство                    : YUV
Субдискретизация насыщенности            : 4:2:0
Битовая глубина                          : 8 бит
Тип развёртки                            : Прогрессивная
Бит/(Пиксели*Кадры)                      : 0.087
Размер потока                            : 104 Мбайт (93%)
Библиотека кодирования                   : x264 core 129
Настройки программы                      : cabac=1 / ref=1 / deblock=1:0:0 / analyse=0x1:0x131 / me=dia / subme=2 / psy=1 / psy_rd=1.00:0.00 / mixed_ref=0 / me_range=16 / chroma_me=1 / trellis=0 / 8x8dct=0 / cqm=0 / deadzone=21,11 / fast_pskip=1 / chroma_qp_offset=0 / threads=2 / lookahead_threads=1 / sliced_threads=0 / nr=0 / decimate=1 / interlaced=0 / bluray_compat=0 / constrained_intra=0 / bframes=0 / weightp=2 / keyint=250 / keyint_min=25 / scenecut=40 / intra_refresh=0 / rc_lookahead=40 / rc=abr / mbtree=1 / bitrate=4496 / ratetol=1.0 / qcomp=0.60 / qpmin=10 / qpmax=51 / qpstep=4 / ip_ratio=1.41 / aq=1:1.00
Дата кодирования                         : UTC 2015-05-23 10:03:22
Дата пометки                             : UTC 2015-05-23 10:03:22

Аудио
Идентификатор                            : 2
Формат                                   : AC-3
Формат/Информация                        : Audio Coding 3
Расширение режима                        : CM (complete main)
Параметр Endianness формата              : Big
Идентификатор кодека                     : ac-3
Продолжительность                        : 3 м. 16 с.
Вид битрейта                             : Постоянный
Битрейт                                  : 320 Кбит/сек
Каналы                                   : 6 каналов
Расположение каналов                     : Front: L C R, Side: L R, LFE
Частота                                  : 48,0 КГц
Битовая глубина                          : 16 бит
Метод сжатия                             : С потерями
Размер потока                            : 7,50 Мбайт (7%)
Дата кодирования                         : UTC 2015-05-23 10:03:22
Дата пометки                             : UTC 2015-05-23 10:03:22
Общее
Полное имя                               : E:\VA - Осенний марафон № 203 (Дискотека с размахом № 2)\08. Maya Pop - Be Strong (Official Video).mp4
Формат                                   : MPEG-4
Профиль формата                          : Base Media
Идентификатор кодека                     : isom
Размер файла                             : 105 Мбайт
Продолжительность                        : 3 м. 9 с.
Общий поток                              : 4659 Кбит/сек
Дата кодирования                         : UTC 2015-11-04 09:56:24
Дата пометки                             : UTC 2015-11-04 09:56:24
Программа кодирования                    : Lavf54.63.104

Видео
Идентификатор                            : 1
Формат                                   : AVC
Формат/Информация                        : Advanced Video Codec
Профиль формата                          : Main@L4
Параметр CABAC формата                   : Да
Параметр ReFrames формата                : 1 кадр
Идентификатор кодека                     : avc1
Идентификатор кодека/Информация          : Advanced Video Coding
Продолжительность                        : 3 м. 9 с.
Битрейт                                  : 4496 Кбит/сек
Ширина                                   : 1920 пикселей
Высота                                   : 1080 пикселей
Соотношение сторон                       : 16:9
Режим частоты кадров                     : Постоянный
Частота кадров                           : 25,000 кадров/сек
Цветовое пространство                    : YUV
Субдискретизация насыщенности            : 4:2:0
Битовая глубина                          : 8 бит
Тип развёртки                            : Прогрессивная
Бит/(Пиксели*Кадры)                      : 0.087
Размер потока                            : 98,2 Мбайт (93%)
Библиотека кодирования                   : x264 core 129
Настройки программы                      : cabac=1 / ref=1 / deblock=1:0:0 / analyse=0x1:0x131 / me=dia / subme=2 / psy=1 / psy_rd=1.00:0.00 / mixed_ref=0 / me_range=16 / chroma_me=1 / trellis=0 / 8x8dct=0 / cqm=0 / deadzone=21,11 / fast_pskip=1 / chroma_qp_offset=0 / threads=2 / lookahead_threads=1 / sliced_threads=0 / nr=0 / decimate=1 / interlaced=0 / bluray_compat=0 / constrained_intra=0 / bframes=0 / weightp=2 / keyint=250 / keyint_min=25 / scenecut=40 / intra_refresh=0 / rc_lookahead=40 / rc=abr / mbtree=1 / bitrate=4496 / ratetol=1.0 / qcomp=0.60 / qpmin=10 / qpmax=51 / qpstep=4 / ip_ratio=1.41 / aq=1:1.00
Дата кодирования                         : UTC 2015-11-04 09:56:24
Дата пометки                             : UTC 2015-11-04 09:56:24

Аудио
Идентификатор                            : 2
Формат                                   : AC-3
Формат/Информация                        : Audio Coding 3
Расширение режима                        : CM (complete main)
Параметр Endianness формата              : Big
Идентификатор кодека                     : ac-3
Продолжительность                        : 3 м. 9 с.
Вид битрейта                             : Постоянный
Битрейт                                  : 320 Кбит/сек
Каналы                                   : 6 каналов
Расположение каналов                     : Front: L C R, Side: L R, LFE
Частота                                  : 48,0 КГц
Битовая глубина                          : 16 бит
Метод сжатия                             : С потерями
Размер потока                            : 7,25 Мбайт (7%)
Дата кодирования                         : UTC 2015-11-04 09:56:24
Дата пометки                             : UTC 2015-11-04 09:56:24
Общее
Полное имя                               : E:\VA - Осенний марафон № 203 (Дискотека с размахом № 2)\09. Moguai ft. Cheat Codes - Hold On (Official Video).mp4
Формат                                   : MPEG-4
Профиль формата                          : Base Media
Идентификатор кодека                     : isom
Размер файла                             : 139 Мбайт
Продолжительность                        : 4 м. 3 с.
Общий поток                              : 4777 Кбит/сек
Дата кодирования                         : UTC 2015-10-05 04:12:02
Дата пометки                             : UTC 2015-10-05 04:12:02
Программа кодирования                    : Lavf54.63.104

Видео
Идентификатор                            : 1
Формат                                   : AVC
Формат/Информация                        : Advanced Video Codec
Профиль формата                          : Main@L4
Параметр CABAC формата                   : Да
Параметр ReFrames формата                : 1 кадр
Идентификатор кодека                     : avc1
Идентификатор кодека/Информация          : Advanced Video Coding
Продолжительность                        : 4 м. 3 с.
Битрейт                                  : 4496 Кбит/сек
Ширина                                   : 1920 пикселей
Высота                                   : 1080 пикселей
Соотношение сторон                       : 16:9
Режим частоты кадров                     : Постоянный
Частота кадров                           : 25,000 кадров/сек
Цветовое пространство                    : YUV
Субдискретизация насыщенности            : 4:2:0
Битовая глубина                          : 8 бит
Тип развёртки                            : Прогрессивная
Бит/(Пиксели*Кадры)                      : 0.087
Размер потока                            : 129 Мбайт (93%)
Библиотека кодирования                   : x264 core 129
Настройки программы                      : cabac=1 / ref=1 / deblock=1:0:0 / analyse=0x1:0x131 / me=dia / subme=2 / psy=1 / psy_rd=1.00:0.00 / mixed_ref=0 / me_range=16 / chroma_me=1 / trellis=0 / 8x8dct=0 / cqm=0 / deadzone=21,11 / fast_pskip=1 / chroma_qp_offset=0 / threads=2 / lookahead_threads=1 / sliced_threads=0 / nr=0 / decimate=1 / interlaced=0 / bluray_compat=0 / constrained_intra=0 / bframes=0 / weightp=2 / keyint=250 / keyint_min=25 / scenecut=40 / intra_refresh=0 / rc_lookahead=40 / rc=abr / mbtree=1 / bitrate=4496 / ratetol=1.0 / qcomp=0.60 / qpmin=10 / qpmax=51 / qpstep=4 / ip_ratio=1.41 / aq=1:1.00
Дата кодирования                         : UTC 2015-10-05 04:12:02
Дата пометки                             : UTC 2015-10-05 04:12:02

Аудио
Идентификатор                            : 2
Формат                                   : AC-3
Формат/Информация                        : Audio Coding 3
Расширение режима                        : CM (complete main)
Параметр Endianness формата              : Big
Идентификатор кодека                     : ac-3
Продолжительность                        : 4 м. 3 с.
Вид битрейта                             : Постоянный
Битрейт                                  : 320 Кбит/сек
Каналы                                   : 6 каналов
Расположение каналов                     : Front: L C R, Side: L R, LFE
Частота                                  : 48,0 КГц
Битовая глубина                          : 16 бит
Метод сжатия                             : С потерями
Размер потока                            : 9,28 Мбайт (7%)
Дата кодирования                         : UTC 2015-10-05 04:12:02
Дата пометки                             : UTC 2015-10-05 04:12:02
Общее
Полное имя                               : E:\VA - Осенний марафон № 203 (Дискотека с размахом № 2)\10. Rachel Platten - Stand By You (Official Video).mp4
Формат                                   : MPEG-4
Профиль формата                          : Base Media
Идентификатор кодека                     : isom
Размер файла                             : 131 Мбайт
Продолжительность                        : 3 м. 45 с.
Общий поток                              : 4869 Кбит/сек
Дата кодирования                         : UTC 2015-11-07 10:21:13
Дата пометки                             : UTC 2015-11-07 10:21:13
Программа кодирования                    : Lavf54.63.104

Видео
Идентификатор                            : 1
Формат                                   : AVC
Формат/Информация                        : Advanced Video Codec
Профиль формата                          : Main@L4
Параметр CABAC формата                   : Да
Параметр ReFrames формата                : 1 кадр
Идентификатор кодека                     : avc1
Идентификатор кодека/Информация          : Advanced Video Coding
Продолжительность                        : 3 м. 45 с.
Битрейт                                  : 4496 Кбит/сек
Ширина                                   : 1920 пикселей
Высота                                   : 1080 пикселей
Соотношение сторон                       : 16:9
Режим частоты кадров                     : Постоянный
Частота кадров                           : 25,000 кадров/сек
Цветовое пространство                    : YUV
Субдискретизация насыщенности            : 4:2:0
Битовая глубина                          : 8 бит
Тип развёртки                            : Прогрессивная
Бит/(Пиксели*Кадры)                      : 0.087
Размер потока                            : 122 Мбайт (93%)
Библиотека кодирования                   : x264 core 129
Настройки программы                      : cabac=1 / ref=1 / deblock=1:0:0 / analyse=0x1:0x131 / me=dia / subme=2 / psy=1 / psy_rd=1.00:0.00 / mixed_ref=0 / me_range=16 / chroma_me=1 / trellis=0 / 8x8dct=0 / cqm=0 / deadzone=21,11 / fast_pskip=1 / chroma_qp_offset=0 / threads=2 / lookahead_threads=1 / sliced_threads=0 / nr=0 / decimate=1 / interlaced=0 / bluray_compat=0 / constrained_intra=0 / bframes=0 / weightp=2 / keyint=250 / keyint_min=25 / scenecut=40 / intra_refresh=0 / rc_lookahead=40 / rc=abr / mbtree=1 / bitrate=4496 / ratetol=1.0 / qcomp=0.60 / qpmin=10 / qpmax=51 / qpstep=4 / ip_ratio=1.41 / aq=1:1.00
Дата кодирования                         : UTC 2015-11-07 10:21:13
Дата пометки                             : UTC 2015-11-07 10:21:13

Аудио
Идентификатор                            : 2
Формат                                   : AC-3
Формат/Информация                        : Audio Coding 3
Расширение режима                        : CM (complete main)
Параметр Endianness формата              : Big
Идентификатор кодека                     : ac-3
Продолжительность                        : 3 м. 45 с.
Вид битрейта                             : Постоянный
Битрейт                                  : 320 Кбит/сек
Каналы                                   : 6 каналов
Расположение каналов                     : Front: L C R, Side: L R, LFE
Частота                                  : 48,0 КГц
Битовая глубина                          : 16 бит
Метод сжатия                             : С потерями
Размер потока                            : 8,61 Мбайт (7%)
Дата кодирования                         : UTC 2015-11-07 10:21:13
Дата пометки                             : UTC 2015-11-07 10:21:13
Общее
Полное имя                               : E:\VA - Осенний марафон № 203 (Дискотека с размахом № 2)\11. Sigma ft. Rita Ora - Coming Home (Official Video).mp4
Формат                                   : MPEG-4
Профиль формата                          : Base Media
Идентификатор кодека                     : isom
Размер файла                             : 115 Мбайт
Продолжительность                        : 3 м. 20 с.
Общий поток                              : 4816 Кбит/сек
Дата кодирования                         : UTC 2015-11-06 14:08:00
Дата пометки                             : UTC 2015-11-06 14:08:00
Программа кодирования                    : Lavf54.63.104

Видео
Идентификатор                            : 1
Формат                                   : AVC
Формат/Информация                        : Advanced Video Codec
Профиль формата                          : Main@L4
Параметр CABAC формата                   : Да
Параметр ReFrames формата                : 1 кадр
Параметр GOP формата                     : N=1
Идентификатор кодека                     : avc1
Идентификатор кодека/Информация          : Advanced Video Coding
Продолжительность                        : 3 м. 20 с.
Битрейт                                  : 4496 Кбит/сек
Ширина                                   : 1920 пикселей
Высота                                   : 1080 пикселей
Соотношение сторон                       : 16:9
Режим частоты кадров                     : Постоянный
Частота кадров                           : 25,000 кадров/сек
Цветовое пространство                    : YUV
Субдискретизация насыщенности            : 4:2:0
Битовая глубина                          : 8 бит
Тип развёртки                            : Прогрессивная
Бит/(Пиксели*Кадры)                      : 0.087
Размер потока                            : 107 Мбайт (93%)
Библиотека кодирования                   : x264 core 129
Настройки программы                      : cabac=1 / ref=1 / deblock=1:0:0 / analyse=0x1:0x131 / me=dia / subme=2 / psy=1 / psy_rd=1.00:0.00 / mixed_ref=0 / me_range=16 / chroma_me=1 / trellis=0 / 8x8dct=0 / cqm=0 / deadzone=21,11 / fast_pskip=1 / chroma_qp_offset=0 / threads=2 / lookahead_threads=1 / sliced_threads=0 / nr=0 / decimate=1 / interlaced=0 / bluray_compat=0 / constrained_intra=0 / bframes=0 / weightp=2 / keyint=250 / keyint_min=25 / scenecut=40 / intra_refresh=0 / rc_lookahead=40 / rc=abr / mbtree=1 / bitrate=4496 / ratetol=1.0 / qcomp=0.60 / qpmin=10 / qpmax=51 / qpstep=4 / ip_ratio=1.41 / aq=1:1.00
Дата кодирования                         : UTC 2015-11-06 14:08:00
Дата пометки                             : UTC 2015-11-06 14:08:00

Аудио
Идентификатор                            : 2
Формат                                   : AC-3
Формат/Информация                        : Audio Coding 3
Расширение режима                        : CM (complete main)
Параметр Endianness формата              : Big
Идентификатор кодека                     : ac-3
Продолжительность                        : 3 м. 20 с.
Вид битрейта                             : Постоянный
Битрейт                                  : 320 Кбит/сек
Каналы                                   : 6 каналов
Расположение каналов                     : Front: L C R, Side: L R, LFE
Частота                                  : 48,0 КГц
Битовая глубина                          : 16 бит
Метод сжатия                             : С потерями
Размер потока                            : 7,65 Мбайт (7%)
Дата кодирования                         : UTC 2015-11-06 14:08:00
Дата пометки                             : UTC 2015-11-06 14:08:00
Общее
Полное имя                               : E:\VA - Осенний марафон № 203 (Дискотека с размахом № 2)\12. Виа Гра - Это было прекрасно (Новая волна 2015) (Премьера!).mp4
Формат                                   : MPEG-4
Профиль формата                          : Base Media
Идентификатор кодека                     : isom
Размер файла                             : 164 Мбайт
Продолжительность                        : 4 м. 47 с.
Общий поток                              : 4797 Кбит/сек
Дата кодирования                         : UTC 2015-10-08 11:35:06
Дата пометки                             : UTC 2015-10-08 11:35:06
Программа кодирования                    : Lavf54.63.104

Видео
Идентификатор                            : 1
Формат                                   : AVC
Формат/Информация                        : Advanced Video Codec
Профиль формата                          : Main@L4
Параметр CABAC формата                   : Да
Параметр ReFrames формата                : 1 кадр
Идентификатор кодека                     : avc1
Идентификатор кодека/Информация          : Advanced Video Coding
Продолжительность                        : 4 м. 47 с.
Битрейт                                  : 4496 Кбит/сек
Ширина                                   : 1920 пикселей
Высота                                   : 1080 пикселей
Соотношение сторон                       : 16:9
Режим частоты кадров                     : Постоянный
Частота кадров                           : 25,000 кадров/сек
Цветовое пространство                    : YUV
Субдискретизация насыщенности            : 4:2:0
Битовая глубина                          : 8 бит
Тип развёртки                            : Прогрессивная
Бит/(Пиксели*Кадры)                      : 0.087
Размер потока                            : 153 Мбайт (93%)
Библиотека кодирования                   : x264 core 129
Настройки программы                      : cabac=1 / ref=1 / deblock=1:0:0 / analyse=0x1:0x131 / me=dia / subme=2 / psy=1 / psy_rd=1.00:0.00 / mixed_ref=0 / me_range=16 / chroma_me=1 / trellis=0 / 8x8dct=0 / cqm=0 / deadzone=21,11 / fast_pskip=1 / chroma_qp_offset=0 / threads=2 / lookahead_threads=1 / sliced_threads=0 / nr=0 / decimate=1 / interlaced=0 / bluray_compat=0 / constrained_intra=0 / bframes=0 / weightp=2 / keyint=250 / keyint_min=25 / scenecut=40 / intra_refresh=0 / rc_lookahead=40 / rc=abr / mbtree=1 / bitrate=4496 / ratetol=1.0 / qcomp=0.60 / qpmin=10 / qpmax=51 / qpstep=4 / ip_ratio=1.41 / aq=1:1.00
Дата кодирования                         : UTC 2015-10-08 11:35:06
Дата пометки                             : UTC 2015-10-08 11:35:06

Аудио
Идентификатор                            : 2
Формат                                   : AC-3
Формат/Информация                        : Audio Coding 3
Расширение режима                        : CM (complete main)
Параметр Endianness формата              : Big
Идентификатор кодека                     : ac-3
Продолжительность                        : 4 м. 47 с.
Вид битрейта                             : Постоянный
Битрейт                                  : 320 Кбит/сек
Каналы                                   : 6 каналов
Расположение каналов                     : Front: L C R, Side: L R, LFE
Частота                                  : 48,0 КГц
Битовая глубина                          : 16 бит
Метод сжатия                             : С потерями
Размер потока                            : 11,0 Мбайт (7%)
Дата кодирования                         : UTC 2015-10-08 11:35:06
Дата пометки                             : UTC 2015-10-08 11:35:06
Общее
Полное имя                               : E:\VA - Осенний марафон № 203 (Дискотека с размахом № 2)\13. Sounds Like Harmony - Fireworks (Official Video).mp4
Формат                                   : MPEG-4
Профиль формата                          : Base Media
Идентификатор кодека                     : isom
Размер файла                             : 122 Мбайт
Продолжительность                        : 3 м. 26 с.
Общий поток                              : 4942 Кбит/сек
Дата кодирования                         : UTC 2015-11-04 07:27:43
Дата пометки                             : UTC 2015-11-04 07:27:43
Программа кодирования                    : Lavf54.63.104

Видео
Идентификатор                            : 1
Формат                                   : AVC
Формат/Информация                        : Advanced Video Codec
Профиль формата                          : Main@L4
Параметр CABAC формата                   : Да
Параметр ReFrames формата                : 1 кадр
Идентификатор кодека                     : avc1
Идентификатор кодека/Информация          : Advanced Video Coding
Продолжительность                        : 3 м. 26 с.
Битрейт                                  : 4496 Кбит/сек
Ширина                                   : 1920 пикселей
Высота                                   : 1080 пикселей
Соотношение сторон                       : 16:9
Режим частоты кадров                     : Постоянный
Частота кадров                           : 25,000 кадров/сек
Цветовое пространство                    : YUV
Субдискретизация насыщенности            : 4:2:0
Битовая глубина                          : 8 бит
Тип развёртки                            : Прогрессивная
Бит/(Пиксели*Кадры)                      : 0.087
Размер потока                            : 114 Мбайт (93%)
Библиотека кодирования                   : x264 core 129
Настройки программы                      : cabac=1 / ref=1 / deblock=1:0:0 / analyse=0x1:0x131 / me=dia / subme=2 / psy=1 / psy_rd=1.00:0.00 / mixed_ref=0 / me_range=16 / chroma_me=1 / trellis=0 / 8x8dct=0 / cqm=0 / deadzone=21,11 / fast_pskip=1 / chroma_qp_offset=0 / threads=2 / lookahead_threads=1 / sliced_threads=0 / nr=0 / decimate=1 / interlaced=0 / bluray_compat=0 / constrained_intra=0 / bframes=0 / weightp=2 / keyint=250 / keyint_min=25 / scenecut=40 / intra_refresh=0 / rc_lookahead=40 / rc=abr / mbtree=1 / bitrate=4496 / ratetol=1.0 / qcomp=0.60 / qpmin=10 / qpmax=51 / qpstep=4 / ip_ratio=1.41 / aq=1:1.00
Дата кодирования                         : UTC 2015-11-04 07:27:43
Дата пометки                             : UTC 2015-11-04 07:27:43

Аудио
Идентификатор                            : 2
Формат                                   : AC-3
Формат/Информация                        : Audio Coding 3
Расширение режима                        : CM (complete main)
Параметр Endianness формата              : Big
Идентификатор кодека                     : ac-3
Продолжительность                        : 3 м. 26 с.
Вид битрейта                             : Постоянный
Битрейт                                  : 320 Кбит/сек
Каналы                                   : 6 каналов
Расположение каналов                     : Front: L C R, Side: L R, LFE
Частота                                  : 48,0 КГц
Битовая глубина                          : 16 бит
Метод сжатия                             : С потерями
Размер потока                            : 7,88 Мбайт (6%)
Дата кодирования                         : UTC 2015-11-04 07:27:43
Дата пометки                             : UTC 2015-11-04 07:27:43
Общее
Полное имя                               : E:\VA - Осенний марафон № 203 (Дискотека с размахом № 2)\14. Take That - Hey Boy (Official Video).mp4
Формат                                   : MPEG-4
Профиль формата                          : Base Media
Идентификатор кодека                     : isom
Размер файла                             : 132 Мбайт
Продолжительность                        : 3 м. 41 с.
Общий поток                              : 5012 Кбит/сек
Дата кодирования                         : UTC 2015-11-05 09:34:45
Дата пометки                             : UTC 2015-11-05 09:34:45
Программа кодирования                    : Lavf54.63.104

Видео
Идентификатор                            : 1
Формат                                   : AVC
Формат/Информация                        : Advanced Video Codec
Профиль формата                          : Main@L4
Параметр CABAC формата                   : Да
Параметр ReFrames формата                : 1 кадр
Идентификатор кодека                     : avc1
Идентификатор кодека/Информация          : Advanced Video Coding
Продолжительность                        : 3 м. 41 с.
Битрейт                                  : 4496 Кбит/сек
Ширина                                   : 1920 пикселей
Высота                                   : 1080 пикселей
Соотношение сторон                       : 16:9
Режим частоты кадров                     : Постоянный
Частота кадров                           : 25,000 кадров/сек
Цветовое пространство                    : YUV
Субдискретизация насыщенности            : 4:2:0
Битовая глубина                          : 8 бит
Тип развёртки                            : Прогрессивная
Бит/(Пиксели*Кадры)                      : 0.087
Размер потока                            : 124 Мбайт (94%)
Библиотека кодирования                   : x264 core 129
Настройки программы                      : cabac=1 / ref=1 / deblock=1:0:0 / analyse=0x1:0x131 / me=dia / subme=2 / psy=1 / psy_rd=1.00:0.00 / mixed_ref=0 / me_range=16 / chroma_me=1 / trellis=0 / 8x8dct=0 / cqm=0 / deadzone=21,11 / fast_pskip=1 / chroma_qp_offset=0 / threads=2 / lookahead_threads=1 / sliced_threads=0 / nr=0 / decimate=1 / interlaced=0 / bluray_compat=0 / constrained_intra=0 / bframes=0 / weightp=2 / keyint=250 / keyint_min=25 / scenecut=40 / intra_refresh=0 / rc_lookahead=40 / rc=abr / mbtree=1 / bitrate=4496 / ratetol=1.0 / qcomp=0.60 / qpmin=10 / qpmax=51 / qpstep=4 / ip_ratio=1.41 / aq=1:1.00
Дата кодирования                         : UTC 2015-11-05 09:34:45
Дата пометки                             : UTC 2015-11-05 09:34:45

Аудио
Идентификатор                            : 2
Формат                                   : AC-3
Формат/Информация                        : Audio Coding 3
Расширение режима                        : CM (complete main)
Параметр Endianness формата              : Big
Идентификатор кодека                     : ac-3
Продолжительность                        : 3 м. 41 с.
Вид битрейта                             : Постоянный
Битрейт                                  : 320 Кбит/сек
Каналы                                   : 6 каналов
Расположение каналов                     : Front: L C R, Side: L R, LFE
Частота                                  : 48,0 КГц
Битовая глубина                          : 16 бит
Метод сжатия                             : С потерями
Размер потока                            : 8,43 Мбайт (6%)
Дата кодирования                         : UTC 2015-11-05 09:34:45
Дата пометки                             : UTC 2015-11-05 09:34:45
Общее
Полное имя                               : E:\VA - Осенний марафон № 203 (Дискотека с размахом № 2)\15. Tiffany Parker - One Voice (Official Video).mp4
Формат                                   : MPEG-4
Профиль формата                          : Base Media
Идентификатор кодека                     : isom
Размер файла                             : 117 Мбайт
Продолжительность                        : 3 м. 33 с.
Общий поток                              : 4618 Кбит/сек
Дата кодирования                         : UTC 2015-10-01 10:29:13
Дата пометки                             : UTC 2015-10-01 10:29:13
Программа кодирования                    : Lavf54.63.104

Видео
Идентификатор                            : 1
Формат                                   : AVC
Формат/Информация                        : Advanced Video Codec
Профиль формата                          : Main@L4
Параметр CABAC формата                   : Да
Параметр ReFrames формата                : 1 кадр
Идентификатор кодека                     : avc1
Идентификатор кодека/Информация          : Advanced Video Coding
Продолжительность                        : 3 м. 33 с.
Битрейт                                  : 4496 Кбит/сек
Ширина                                   : 1920 пикселей
Высота                                   : 1080 пикселей
Соотношение сторон                       : 16:9
Режим частоты кадров                     : Постоянный
Частота кадров                           : 25,000 кадров/сек
Цветовое пространство                    : YUV
Субдискретизация насыщенности            : 4:2:0
Битовая глубина                          : 8 бит
Тип развёртки                            : Прогрессивная
Бит/(Пиксели*Кадры)                      : 0.087
Размер потока                            : 109 Мбайт (93%)
Библиотека кодирования                   : x264 core 129
Настройки программы                      : cabac=1 / ref=1 / deblock=1:0:0 / analyse=0x1:0x131 / me=dia / subme=2 / psy=1 / psy_rd=1.00:0.00 / mixed_ref=0 / me_range=16 / chroma_me=1 / trellis=0 / 8x8dct=0 / cqm=0 / deadzone=21,11 / fast_pskip=1 / chroma_qp_offset=0 / threads=2 / lookahead_threads=1 / sliced_threads=0 / nr=0 / decimate=1 / interlaced=0 / bluray_compat=0 / constrained_intra=0 / bframes=0 / weightp=2 / keyint=250 / keyint_min=25 / scenecut=40 / intra_refresh=0 / rc_lookahead=40 / rc=abr / mbtree=1 / bitrate=4496 / ratetol=1.0 / qcomp=0.60 / qpmin=10 / qpmax=51 / qpstep=4 / ip_ratio=1.41 / aq=1:1.00
Дата кодирования                         : UTC 2015-10-01 10:29:13
Дата пометки                             : UTC 2015-10-01 10:29:13

Аудио
Идентификатор                            : 2
Формат                                   : AC-3
Формат/Информация                        : Audio Coding 3
Расширение режима                        : CM (complete main)
Параметр Endianness формата              : Big
Идентификатор кодека                     : ac-3
Продолжительность                        : 3 м. 33 с.
Вид битрейта                             : Постоянный
Битрейт                                  : 320 Кбит/сек
Каналы                                   : 6 каналов
Расположение каналов                     : Front: L C R, Side: L R, LFE
Частота                                  : 48,0 КГц
Битовая глубина                          : 16 бит
Метод сжатия                             : С потерями
Размер потока                            : 8,13 Мбайт (7%)
Дата кодирования                         : UTC 2015-10-01 10:29:13
Дата пометки                             : UTC 2015-10-01 10:29:13
Общее
Полное имя                               : E:\VA - Осенний марафон № 203 (Дискотека с размахом № 2)\16. Tinashe ft. Chris Brown - Player (Official Video).mp4
Формат                                   : MPEG-4
Профиль формата                          : Base Media
Идентификатор кодека                     : isom
Размер файла                             : 136 Мбайт
Продолжительность                        : 3 м. 49 с.
Общий поток                              : 4957 Кбит/сек
Дата кодирования                         : UTC 2015-11-03 08:26:24
Дата пометки                             : UTC 2015-11-03 08:26:24
Программа кодирования                    : Lavf54.63.104

Видео
Идентификатор                            : 1
Формат                                   : AVC
Формат/Информация                        : Advanced Video Codec
Профиль формата                          : Main@L4
Параметр CABAC формата                   : Да
Параметр ReFrames формата                : 1 кадр
Идентификатор кодека                     : avc1
Идентификатор кодека/Информация          : Advanced Video Coding
Продолжительность                        : 3 м. 49 с.
Битрейт                                  : 4496 Кбит/сек
Ширина                                   : 1920 пикселей
Высота                                   : 1080 пикселей
Соотношение сторон                       : 16:9
Режим частоты кадров                     : Постоянный
Частота кадров                           : 25,000 кадров/сек
Цветовое пространство                    : YUV
Субдискретизация насыщенности            : 4:2:0
Битовая глубина                          : 8 бит
Тип развёртки                            : Прогрессивная
Бит/(Пиксели*Кадры)                      : 0.087
Размер потока                            : 127 Мбайт (93%)
Библиотека кодирования                   : x264 core 129
Настройки программы                      : cabac=1 / ref=1 / deblock=1:0:0 / analyse=0x1:0x131 / me=dia / subme=2 / psy=1 / psy_rd=1.00:0.00 / mixed_ref=0 / me_range=16 / chroma_me=1 / trellis=0 / 8x8dct=0 / cqm=0 / deadzone=21,11 / fast_pskip=1 / chroma_qp_offset=0 / threads=2 / lookahead_threads=1 / sliced_threads=0 / nr=0 / decimate=1 / interlaced=0 / bluray_compat=0 / constrained_intra=0 / bframes=0 / weightp=2 / keyint=250 / keyint_min=25 / scenecut=40 / intra_refresh=0 / rc_lookahead=40 / rc=abr / mbtree=1 / bitrate=4496 / ratetol=1.0 / qcomp=0.60 / qpmin=10 / qpmax=51 / qpstep=4 / ip_ratio=1.41 / aq=1:1.00
Дата кодирования                         : UTC 2015-11-03 08:26:24
Дата пометки                             : UTC 2015-11-03 08:26:24

Аудио
Идентификатор                            : 2
Формат                                   : AC-3
Формат/Информация                        : Audio Coding 3
Расширение режима                        : CM (complete main)
Параметр Endianness формата              : Big
Идентификатор кодека                     : ac-3
Продолжительность                        : 3 м. 49 с.
Вид битрейта                             : Постоянный
Битрейт                                  : 320 Кбит/сек
Каналы                                   : 6 каналов
Расположение каналов                     : Front: L C R, Side: L R, LFE
Частота                                  : 48,0 КГц
Битовая глубина                          : 16 бит
Метод сжатия                             : С потерями
Размер потока                            : 8,77 Мбайт (6%)
Дата кодирования                         : UTC 2015-11-03 08:26:24
Дата пометки                             : UTC 2015-11-03 08:26:24
Общее
Полное имя                               : E:\VA - Осенний марафон № 203 (Дискотека с размахом № 2)\17. Vanessa Mdee - Never Ever (Official Video).mp4
Формат                                   : MPEG-4
Профиль формата                          : Base Media
Идентификатор кодека                     : isom
Размер файла                             : 131 Мбайт
Продолжительность                        : 3 м. 45 с.
Общий поток                              : 4879 Кбит/сек
Дата кодирования                         : UTC 2015-10-13 09:57:20
Дата пометки                             : UTC 2015-10-13 09:57:20
Программа кодирования                    : Lavf54.63.104

Видео
Идентификатор                            : 1
Формат                                   : AVC
Формат/Информация                        : Advanced Video Codec
Профиль формата                          : Main@L4
Параметр CABAC формата                   : Да
Параметр ReFrames формата                : 1 кадр
Идентификатор кодека                     : avc1
Идентификатор кодека/Информация          : Advanced Video Coding
Продолжительность                        : 3 м. 45 с.
Битрейт                                  : 4496 Кбит/сек
Ширина                                   : 1920 пикселей
Высота                                   : 1080 пикселей
Соотношение сторон                       : 16:9
Режим частоты кадров                     : Постоянный
Частота кадров                           : 25,000 кадров/сек
Цветовое пространство                    : YUV
Субдискретизация насыщенности            : 4:2:0
Битовая глубина                          : 8 бит
Тип развёртки                            : Прогрессивная
Бит/(Пиксели*Кадры)                      : 0.087
Размер потока                            : 122 Мбайт (93%)
Библиотека кодирования                   : x264 core 129
Настройки программы                      : cabac=1 / ref=1 / deblock=1:0:0 / analyse=0x1:0x131 / me=dia / subme=2 / psy=1 / psy_rd=1.00:0.00 / mixed_ref=0 / me_range=16 / chroma_me=1 / trellis=0 / 8x8dct=0 / cqm=0 / deadzone=21,11 / fast_pskip=1 / chroma_qp_offset=0 / threads=2 / lookahead_threads=1 / sliced_threads=0 / nr=0 / decimate=1 / interlaced=0 / bluray_compat=0 / constrained_intra=0 / bframes=0 / weightp=2 / keyint=250 / keyint_min=25 / scenecut=40 / intra_refresh=0 / rc_lookahead=40 / rc=abr / mbtree=1 / bitrate=4496 / ratetol=1.0 / qcomp=0.60 / qpmin=10 / qpmax=51 / qpstep=4 / ip_ratio=1.41 / aq=1:1.00
Дата кодирования                         : UTC 2015-10-13 09:57:20
Дата пометки                             : UTC 2015-10-13 09:57:20

Аудио
Идентификатор                            : 2
Формат                                   : AC-3
Формат/Информация                        : Audio Coding 3
Расширение режима                        : CM (complete main)
Параметр Endianness формата              : Big
Идентификатор кодека                     : ac-3
Продолжительность                        : 3 м. 45 с.
Вид битрейта                             : Постоянный
Битрейт                                  : 320 Кбит/сек
Каналы                                   : 6 каналов
Расположение каналов                     : Front: L C R, Side: L R, LFE
Частота                                  : 48,0 КГц
Битовая глубина                          : 16 бит
Метод сжатия                             : С потерями
Размер потока                            : 8,59 Мбайт (7%)
Дата кодирования                         : UTC 2015-10-13 09:57:20
Дата пометки                             : UTC 2015-10-13 09:57:20
Общее
Полное имя                               : E:\VA - Осенний марафон № 203 (Дискотека с размахом № 2)\18. Walahi - Runtown (Official Video).mp4
Формат                                   : MPEG-4
Профиль формата                          : Base Media
Идентификатор кодека                     : isom
Размер файла                             : 127 Мбайт
Продолжительность                        : 3 м. 54 с.
Общий поток                              : 4566 Кбит/сек
Дата кодирования                         : UTC 2015-11-04 10:27:22
Дата пометки                             : UTC 2015-11-04 10:27:22
Программа кодирования                    : Lavf54.63.104

Видео
Идентификатор                            : 1
Формат                                   : AVC
Формат/Информация                        : Advanced Video Codec
Профиль формата                          : Main@L4
Параметр CABAC формата                   : Да
Параметр ReFrames формата                : 1 кадр
Идентификатор кодека                     : avc1
Идентификатор кодека/Информация          : Advanced Video Coding
Продолжительность                        : 3 м. 54 с.
Битрейт                                  : 4242 Кбит/сек
Номинальный битрейт                      : 4496 Кбит/сек
Ширина                                   : 1920 пикселей
Высота                                   : 1080 пикселей
Соотношение сторон                       : 16:9
Режим частоты кадров                     : Постоянный
Частота кадров                           : 25,000 кадров/сек
Цветовое пространство                    : YUV
Субдискретизация насыщенности            : 4:2:0
Битовая глубина                          : 8 бит
Тип развёртки                            : Прогрессивная
Бит/(Пиксели*Кадры)                      : 0.082
Размер потока                            : 118 Мбайт (93%)
Библиотека кодирования                   : x264 core 129
Настройки программы                      : cabac=1 / ref=1 / deblock=1:0:0 / analyse=0x1:0x131 / me=dia / subme=2 / psy=1 / psy_rd=1.00:0.00 / mixed_ref=0 / me_range=16 / chroma_me=1 / trellis=0 / 8x8dct=0 / cqm=0 / deadzone=21,11 / fast_pskip=1 / chroma_qp_offset=0 / threads=2 / lookahead_threads=1 / sliced_threads=0 / nr=0 / decimate=1 / interlaced=0 / bluray_compat=0 / constrained_intra=0 / bframes=0 / weightp=2 / keyint=250 / keyint_min=25 / scenecut=40 / intra_refresh=0 / rc_lookahead=40 / rc=abr / mbtree=1 / bitrate=4496 / ratetol=1.0 / qcomp=0.60 / qpmin=10 / qpmax=51 / qpstep=4 / ip_ratio=1.41 / aq=1:1.00
Дата кодирования                         : UTC 2015-11-04 10:27:22
Дата пометки                             : UTC 2015-11-04 10:27:22

Аудио
Идентификатор                            : 2
Формат                                   : AC-3
Формат/Информация                        : Audio Coding 3
Расширение режима                        : CM (complete main)
Параметр Endianness формата              : Big
Идентификатор кодека                     : ac-3
Продолжительность                        : 3 м. 54 с.
Вид битрейта                             : Постоянный
Битрейт                                  : 320 Кбит/сек
Каналы                                   : 6 каналов
Расположение каналов                     : Front: L C R, Side: L R, LFE
Частота                                  : 48,0 КГц
Битовая глубина                          : 16 бит
Метод сжатия                             : С потерями
Размер потока                            : 8,93 Мбайт (7%)
Дата кодирования                         : UTC 2015-11-04 10:27:22
Дата пометки                             : UTC 2015-11-04 10:27:22
Общее
Полное имя                               : E:\VA - Осенний марафон № 203 (Дискотека с размахом № 2)\19. Yakuro - Microcosmos (Official Video).mp4
Формат                                   : MPEG-4
Профиль формата                          : Base Media
Идентификатор кодека                     : isom
Размер файла                             : 199 Мбайт
Продолжительность                        : 6 м. 3 с.
Общий поток                              : 4587 Кбит/сек
Дата кодирования                         : UTC 2015-05-16 21:33:57
Дата пометки                             : UTC 2015-05-16 21:33:57
Программа кодирования                    : Lavf54.63.104

Видео
Идентификатор                            : 1
Формат                                   : AVC
Формат/Информация                        : Advanced Video Codec
Профиль формата                          : Main@L4
Параметр CABAC формата                   : Да
Параметр ReFrames формата                : 1 кадр
Идентификатор кодека                     : avc1
Идентификатор кодека/Информация          : Advanced Video Coding
Продолжительность                        : 6 м. 3 с.
Битрейт                                  : 4263 Кбит/сек
Номинальный битрейт                      : 4496 Кбит/сек
Ширина                                   : 1920 пикселей
Высота                                   : 1080 пикселей
Соотношение сторон                       : 16:9
Режим частоты кадров                     : Постоянный
Частота кадров                           : 25,000 кадров/сек
Цветовое пространство                    : YUV
Субдискретизация насыщенности            : 4:2:0
Битовая глубина                          : 8 бит
Тип развёртки                            : Прогрессивная
Бит/(Пиксели*Кадры)                      : 0.082
Размер потока                            : 185 Мбайт (93%)
Библиотека кодирования                   : x264 core 129
Настройки программы                      : cabac=1 / ref=1 / deblock=1:0:0 / analyse=0x1:0x131 / me=dia / subme=2 / psy=1 / psy_rd=1.00:0.00 / mixed_ref=0 / me_range=16 / chroma_me=1 / trellis=0 / 8x8dct=0 / cqm=0 / deadzone=21,11 / fast_pskip=1 / chroma_qp_offset=0 / threads=2 / lookahead_threads=1 / sliced_threads=0 / nr=0 / decimate=1 / interlaced=0 / bluray_compat=0 / constrained_intra=0 / bframes=0 / weightp=2 / keyint=250 / keyint_min=25 / scenecut=40 / intra_refresh=0 / rc_lookahead=40 / rc=abr / mbtree=1 / bitrate=4496 / ratetol=1.0 / qcomp=0.60 / qpmin=10 / qpmax=51 / qpstep=4 / ip_ratio=1.41 / aq=1:1.00
Дата кодирования                         : UTC 2015-05-16 21:33:57
Дата пометки                             : UTC 2015-05-16 21:33:57

Аудио
Идентификатор                            : 2
Формат                                   : AC-3
Формат/Информация                        : Audio Coding 3
Расширение режима                        : CM (complete main)
Параметр Endianness формата              : Big
Идентификатор кодека                     : ac-3
Продолжительность                        : 6 м. 3 с.
Вид битрейта                             : Постоянный
Битрейт                                  : 320 Кбит/сек
Каналы                                   : 6 каналов
Расположение каналов                     : Front: L C R, Side: L R, LFE
Частота                                  : 48,0 КГц
Битовая глубина                          : 16 бит
Метод сжатия                             : С потерями
Размер потока                            : 13,9 Мбайт (7%)
Дата кодирования                         : UTC 2015-05-16 21:33:57
Дата пометки                             : UTC 2015-05-16 21:33:57
Общее
Полное имя                               : E:\VA - Осенний марафон № 203 (Дискотека с размахом № 2)\20. Алеся Висич - Не отдам (Премьера!).mp4
Формат                                   : MPEG-4
Профиль формата                          : Base Media
Идентификатор кодека                     : isom
Размер файла                             : 115 Мбайт
Продолжительность                        : 3 м. 27 с.
Общий поток                              : 4657 Кбит/сек
Дата кодирования                         : UTC 2015-11-03 11:25:29
Дата пометки                             : UTC 2015-11-03 11:25:29
Программа кодирования                    : Lavf54.63.104

Видео
Идентификатор                            : 1
Формат                                   : AVC
Формат/Информация                        : Advanced Video Codec
Профиль формата                          : Main@L4
Параметр CABAC формата                   : Да
Параметр ReFrames формата                : 1 кадр
Идентификатор кодека                     : avc1
Идентификатор кодека/Информация          : Advanced Video Coding
Продолжительность                        : 3 м. 27 с.
Битрейт                                  : 4496 Кбит/сек
Ширина                                   : 1920 пикселей
Высота                                   : 1080 пикселей
Соотношение сторон                       : 16:9
Режим частоты кадров                     : Постоянный
Частота кадров                           : 25,000 кадров/сек
Цветовое пространство                    : YUV
Субдискретизация насыщенности            : 4:2:0
Битовая глубина                          : 8 бит
Тип развёртки                            : Прогрессивная
Бит/(Пиксели*Кадры)                      : 0.087
Размер потока                            : 107 Мбайт (93%)
Библиотека кодирования                   : x264 core 129
Настройки программы                      : cabac=1 / ref=1 / deblock=1:0:0 / analyse=0x1:0x131 / me=dia / subme=2 / psy=1 / psy_rd=1.00:0.00 / mixed_ref=0 / me_range=16 / chroma_me=1 / trellis=0 / 8x8dct=0 / cqm=0 / deadzone=21,11 / fast_pskip=1 / chroma_qp_offset=0 / threads=2 / lookahead_threads=1 / sliced_threads=0 / nr=0 / decimate=1 / interlaced=0 / bluray_compat=0 / constrained_intra=0 / bframes=0 / weightp=2 / keyint=250 / keyint_min=25 / scenecut=40 / intra_refresh=0 / rc_lookahead=40 / rc=abr / mbtree=1 / bitrate=4496 / ratetol=1.0 / qcomp=0.60 / qpmin=10 / qpmax=51 / qpstep=4 / ip_ratio=1.41 / aq=1:1.00
Дата кодирования                         : UTC 2015-11-03 11:25:29
Дата пометки                             : UTC 2015-11-03 11:25:29

Аудио
Идентификатор                            : 2
Формат                                   : AC-3
Формат/Информация                        : Audio Coding 3
Расширение режима                        : CM (complete main)
Параметр Endianness формата              : Big
Идентификатор кодека                     : ac-3
Продолжительность                        : 3 м. 27 с.
Вид битрейта                             : Постоянный
Битрейт                                  : 320 Кбит/сек
Каналы                                   : 6 каналов
Расположение каналов                     : Front: L C R, Side: L R, LFE
Частота                                  : 48,0 КГц
Битовая глубина                          : 16 бит
Метод сжатия                             : С потерями
Размер потока                            : 7,92 Мбайт (7%)
Дата кодирования                         : UTC 2015-11-03 11:25:29
Дата пометки                             : UTC 2015-11-03 11:25:29
Общее
Полное имя                               : E:\VA - Осенний марафон № 203 (Дискотека с размахом № 2)\21. Алсу - Три минуты (Новая Волна 2015) (Премьера!).mp4
Формат                                   : MPEG-4
Профиль формата                          : Base Media
Идентификатор кодека                     : isom
Размер файла                             : 160 Мбайт
Продолжительность                        : 4 м. 42 с.
Общий поток                              : 4747 Кбит/сек
Дата кодирования                         : UTC 2015-10-12 04:41:06
Дата пометки                             : UTC 2015-10-12 04:41:06
Программа кодирования                    : Lavf54.63.104

Видео
Идентификатор                            : 1
Формат                                   : AVC
Формат/Информация                        : Advanced Video Codec
Профиль формата                          : Main@L4
Параметр CABAC формата                   : Да
Параметр ReFrames формата                : 1 кадр
Идентификатор кодека                     : avc1
Идентификатор кодека/Информация          : Advanced Video Coding
Продолжительность                        : 4 м. 42 с.
Битрейт                                  : 4496 Кбит/сек
Ширина                                   : 1920 пикселей
Высота                                   : 1080 пикселей
Соотношение сторон                       : 16:9
Режим частоты кадров                     : Постоянный
Частота кадров                           : 25,000 кадров/сек
Цветовое пространство                    : YUV
Субдискретизация насыщенности            : 4:2:0
Битовая глубина                          : 8 бит
Тип развёртки                            : Прогрессивная
Бит/(Пиксели*Кадры)                      : 0.087
Размер потока                            : 149 Мбайт (93%)
Библиотека кодирования                   : x264 core 129
Настройки программы                      : cabac=1 / ref=1 / deblock=1:0:0 / analyse=0x1:0x131 / me=dia / subme=2 / psy=1 / psy_rd=1.00:0.00 / mixed_ref=0 / me_range=16 / chroma_me=1 / trellis=0 / 8x8dct=0 / cqm=0 / deadzone=21,11 / fast_pskip=1 / chroma_qp_offset=0 / threads=2 / lookahead_threads=1 / sliced_threads=0 / nr=0 / decimate=1 / interlaced=0 / bluray_compat=0 / constrained_intra=0 / bframes=0 / weightp=2 / keyint=250 / keyint_min=25 / scenecut=40 / intra_refresh=0 / rc_lookahead=40 / rc=abr / mbtree=1 / bitrate=4496 / ratetol=1.0 / qcomp=0.60 / qpmin=10 / qpmax=51 / qpstep=4 / ip_ratio=1.41 / aq=1:1.00
Дата кодирования                         : UTC 2015-10-12 04:41:06
Дата пометки                             : UTC 2015-10-12 04:41:06

Аудио
Идентификатор                            : 2
Формат                                   : AC-3
Формат/Информация                        : Audio Coding 3
Расширение режима                        : CM (complete main)
Параметр Endianness формата              : Big
Идентификатор кодека                     : ac-3
Продолжительность                        : 4 м. 42 с.
Вид битрейта                             : Постоянный
Битрейт                                  : 320 Кбит/сек
Каналы                                   : 6 каналов
Расположение каналов                     : Front: L C R, Side: L R, LFE
Частота                                  : 48,0 КГц
Битовая глубина                          : 16 бит
Метод сжатия                             : С потерями
Размер потока                            : 10,8 Мбайт (7%)
Дата кодирования                         : UTC 2015-10-12 04:41:06
Дата пометки                             : UTC 2015-10-12 04:41:06
Общее
Полное имя                               : E:\VA - Осенний марафон № 203 (Дискотека с размахом № 2)\22. Ани Лорак - Без тебя (Live @ New Wave 2015) (Премьера!).mp4
Формат                                   : MPEG-4
Профиль формата                          : Base Media
Идентификатор кодека                     : isom
Размер файла                             : 159 Мбайт
Продолжительность                        : 4 м. 40 с.
Общий поток                              : 4774 Кбит/сек
Дата кодирования                         : UTC 2015-10-29 08:13:27
Дата пометки                             : UTC 2015-10-29 08:13:27
Программа кодирования                    : Lavf54.63.104

Видео
Идентификатор                            : 1
Формат                                   : AVC
Формат/Информация                        : Advanced Video Codec
Профиль формата                          : Main@L4
Параметр CABAC формата                   : Да
Параметр ReFrames формата                : 1 кадр
Идентификатор кодека                     : avc1
Идентификатор кодека/Информация          : Advanced Video Coding
Продолжительность                        : 4 м. 40 с.
Битрейт                                  : 4496 Кбит/сек
Ширина                                   : 1920 пикселей
Высота                                   : 1080 пикселей
Соотношение сторон                       : 16:9
Режим частоты кадров                     : Постоянный
Частота кадров                           : 25,000 кадров/сек
Цветовое пространство                    : YUV
Субдискретизация насыщенности            : 4:2:0
Битовая глубина                          : 8 бит
Тип развёртки                            : Прогрессивная
Бит/(Пиксели*Кадры)                      : 0.087
Размер потока                            : 149 Мбайт (93%)
Библиотека кодирования                   : x264 core 129
Настройки программы                      : cabac=1 / ref=1 / deblock=1:0:0 / analyse=0x1:0x131 / me=dia / subme=2 / psy=1 / psy_rd=1.00:0.00 / mixed_ref=0 / me_range=16 / chroma_me=1 / trellis=0 / 8x8dct=0 / cqm=0 / deadzone=21,11 / fast_pskip=1 / chroma_qp_offset=0 / threads=2 / lookahead_threads=1 / sliced_threads=0 / nr=0 / decimate=1 / interlaced=0 / bluray_compat=0 / constrained_intra=0 / bframes=0 / weightp=2 / keyint=250 / keyint_min=25 / scenecut=40 / intra_refresh=0 / rc_lookahead=40 / rc=abr / mbtree=1 / bitrate=4496 / ratetol=1.0 / qcomp=0.60 / qpmin=10 / qpmax=51 / qpstep=4 / ip_ratio=1.41 / aq=1:1.00
Дата кодирования                         : UTC 2015-10-29 08:13:27
Дата пометки                             : UTC 2015-10-29 08:13:27

Аудио
Идентификатор                            : 2
Формат                                   : AC-3
Формат/Информация                        : Audio Coding 3
Расширение режима                        : CM (complete main)
Параметр Endianness формата              : Big
Идентификатор кодека                     : ac-3
Продолжительность                        : 4 м. 40 с.
Вид битрейта                             : Постоянный
Битрейт                                  : 320 Кбит/сек
Каналы                                   : 6 каналов
Расположение каналов                     : Front: L C R, Side: L R, LFE
Частота                                  : 48,0 КГц
Битовая глубина                          : 16 бит
Метод сжатия                             : С потерями
Размер потока                            : 10,7 Мбайт (7%)
Дата кодирования                         : UTC 2015-10-29 08:13:27
Дата пометки                             : UTC 2015-10-29 08:13:27
Общее
Полное имя                               : E:\VA - Осенний марафон № 203 (Дискотека с размахом № 2)\23. Винтаж и M.E.G. & N.E.R.A.K. - Я верю в любовь (Премьера!).mp4
Формат                                   : MPEG-4
Профиль формата                          : Base Media
Идентификатор кодека                     : isom
Размер файла                             : 148 Мбайт
Продолжительность                        : 4 м. 35 с.
Общий поток                              : 4502 Кбит/сек
Дата кодирования                         : UTC 2015-11-06 21:28:58
Дата пометки                             : UTC 2015-11-06 21:28:58
Программа кодирования                    : Lavf54.63.104

Видео
Идентификатор                            : 1
Формат                                   : AVC
Формат/Информация                        : Advanced Video Codec
Профиль формата                          : Main@L4
Параметр CABAC формата                   : Да
Параметр ReFrames формата                : 1 кадр
Идентификатор кодека                     : avc1
Идентификатор кодека/Информация          : Advanced Video Coding
Продолжительность                        : 4 м. 35 с.
Битрейт                                  : 4179 Кбит/сек
Номинальный битрейт                      : 4496 Кбит/сек
Ширина                                   : 1920 пикселей
Высота                                   : 1080 пикселей
Соотношение сторон                       : 16:9
Режим частоты кадров                     : Постоянный
Частота кадров                           : 25,000 кадров/сек
Цветовое пространство                    : YUV
Субдискретизация насыщенности            : 4:2:0
Битовая глубина                          : 8 бит
Тип развёртки                            : Прогрессивная
Бит/(Пиксели*Кадры)                      : 0.081
Размер потока                            : 137 Мбайт (93%)
Библиотека кодирования                   : x264 core 129
Настройки программы                      : cabac=1 / ref=1 / deblock=1:0:0 / analyse=0x1:0x131 / me=dia / subme=2 / psy=1 / psy_rd=1.00:0.00 / mixed_ref=0 / me_range=16 / chroma_me=1 / trellis=0 / 8x8dct=0 / cqm=0 / deadzone=21,11 / fast_pskip=1 / chroma_qp_offset=0 / threads=2 / lookahead_threads=1 / sliced_threads=0 / nr=0 / decimate=1 / interlaced=0 / bluray_compat=0 / constrained_intra=0 / bframes=0 / weightp=2 / keyint=250 / keyint_min=25 / scenecut=40 / intra_refresh=0 / rc_lookahead=40 / rc=abr / mbtree=1 / bitrate=4496 / ratetol=1.0 / qcomp=0.60 / qpmin=10 / qpmax=51 / qpstep=4 / ip_ratio=1.41 / aq=1:1.00
Дата кодирования                         : UTC 2015-11-06 21:28:58
Дата пометки                             : UTC 2015-11-06 21:28:58

Аудио
Идентификатор                            : 2
Формат                                   : AC-3
Формат/Информация                        : Audio Coding 3
Расширение режима                        : CM (complete main)
Параметр Endianness формата              : Big
Идентификатор кодека                     : ac-3
Продолжительность                        : 4 м. 35 с.
Вид битрейта                             : Постоянный
Битрейт                                  : 320 Кбит/сек
Каналы                                   : 6 каналов
Расположение каналов                     : Front: L C R, Side: L R, LFE
Частота                                  : 48,0 КГц
Битовая глубина                          : 16 бит
Метод сжатия                             : С потерями
Размер потока                            : 10,5 Мбайт (7%)
Дата кодирования                         : UTC 2015-11-06 21:28:58
Дата пометки                             : UTC 2015-11-06 21:28:58
Общее
Полное имя                               : E:\VA - Осенний марафон № 203 (Дискотека с размахом № 2)\24. Диана Полушкина - Я Знаю (Премьера!).mp4
Формат                                   : MPEG-4
Профиль формата                          : Base Media
Идентификатор кодека                     : isom
Размер файла                             : 117 Мбайт
Продолжительность                        : 3 м. 28 с.
Общий поток                              : 4700 Кбит/сек
Дата кодирования                         : UTC 2015-09-23 06:58:53
Дата пометки                             : UTC 2015-09-23 06:58:53
Программа кодирования                    : Lavf54.63.104

Видео
Идентификатор                            : 1
Формат                                   : AVC
Формат/Информация                        : Advanced Video Codec
Профиль формата                          : Main@L4
Параметр CABAC формата                   : Да
Параметр ReFrames формата                : 1 кадр
Идентификатор кодека                     : avc1
Идентификатор кодека/Информация          : Advanced Video Coding
Продолжительность                        : 3 м. 28 с.
Битрейт                                  : 4496 Кбит/сек
Ширина                                   : 1920 пикселей
Высота                                   : 1080 пикселей
Соотношение сторон                       : 16:9
Режим частоты кадров                     : Постоянный
Частота кадров                           : 25,000 кадров/сек
Цветовое пространство                    : YUV
Субдискретизация насыщенности            : 4:2:0
Битовая глубина                          : 8 бит
Тип развёртки                            : Прогрессивная
Бит/(Пиксели*Кадры)                      : 0.087
Размер потока                            : 109 Мбайт (93%)
Библиотека кодирования                   : x264 core 129
Настройки программы                      : cabac=1 / ref=1 / deblock=1:0:0 / analyse=0x1:0x131 / me=dia / subme=2 / psy=1 / psy_rd=1.00:0.00 / mixed_ref=0 / me_range=16 / chroma_me=1 / trellis=0 / 8x8dct=0 / cqm=0 / deadzone=21,11 / fast_pskip=1 / chroma_qp_offset=0 / threads=2 / lookahead_threads=1 / sliced_threads=0 / nr=0 / decimate=1 / interlaced=0 / bluray_compat=0 / constrained_intra=0 / bframes=0 / weightp=2 / keyint=250 / keyint_min=25 / scenecut=40 / intra_refresh=0 / rc_lookahead=40 / rc=abr / mbtree=1 / bitrate=4496 / ratetol=1.0 / qcomp=0.60 / qpmin=10 / qpmax=51 / qpstep=4 / ip_ratio=1.41 / aq=1:1.00
Дата кодирования                         : UTC 2015-09-23 06:58:53
Дата пометки                             : UTC 2015-09-23 06:58:53

Аудио
Идентификатор                            : 2
Формат                                   : AC-3
Формат/Информация                        : Audio Coding 3
Расширение режима                        : CM (complete main)
Параметр Endianness формата              : Big
Идентификатор кодека                     : ac-3
Продолжительность                        : 3 м. 28 с.
Вид битрейта                             : Постоянный
Битрейт                                  : 320 Кбит/сек
Каналы                                   : 6 каналов
Расположение каналов                     : Front: L C R, Side: L R, LFE
Частота                                  : 48,0 КГц
Битовая глубина                          : 16 бит
Метод сжатия                             : С потерями
Размер потока                            : 7,96 Мбайт (7%)
Дата кодирования                         : UTC 2015-09-23 06:58:53
Дата пометки                             : UTC 2015-09-23 06:58:53
Общее
Полное имя                               : E:\VA - Осенний марафон № 203 (Дискотека с размахом № 2)\25. Митя Фомин - Хорошая Песня (Премьера!).mp4
Формат                                   : MPEG-4
Профиль формата                          : Base Media
Идентификатор кодека                     : isom
Размер файла                             : 196 Мбайт
Продолжительность                        : 5 м. 26 с.
Общий поток                              : 5033 Кбит/сек
Дата кодирования                         : UTC 2014-10-03 04:32:14
Дата пометки                             : UTC 2014-10-03 04:32:14
Программа кодирования                    : Lavf54.63.104

Видео
Идентификатор                            : 1
Формат                                   : AVC
Формат/Информация                        : Advanced Video Codec
Профиль формата                          : Main@L4
Параметр CABAC формата                   : Да
Параметр ReFrames формата                : 1 кадр
Идентификатор кодека                     : avc1
Идентификатор кодека/Информация          : Advanced Video Coding
Продолжительность                        : 5 м. 26 с.
Битрейт                                  : 4496 Кбит/сек
Ширина                                   : 1920 пикселей
Высота                                   : 1080 пикселей
Соотношение сторон                       : 16:9
Режим частоты кадров                     : Постоянный
Частота кадров                           : 25,000 кадров/сек
Цветовое пространство                    : YUV
Субдискретизация насыщенности            : 4:2:0
Битовая глубина                          : 8 бит
Тип развёртки                            : Прогрессивная
Бит/(Пиксели*Кадры)                      : 0.087
Размер потока                            : 183 Мбайт (94%)
Библиотека кодирования                   : x264 core 129
Настройки программы                      : cabac=1 / ref=1 / deblock=1:0:0 / analyse=0x1:0x131 / me=dia / subme=2 / psy=1 / psy_rd=1.00:0.00 / mixed_ref=0 / me_range=16 / chroma_me=1 / trellis=0 / 8x8dct=0 / cqm=0 / deadzone=21,11 / fast_pskip=1 / chroma_qp_offset=0 / threads=2 / lookahead_threads=1 / sliced_threads=0 / nr=0 / decimate=1 / interlaced=0 / bluray_compat=0 / constrained_intra=0 / bframes=0 / weightp=2 / keyint=250 / keyint_min=25 / scenecut=40 / intra_refresh=0 / rc_lookahead=40 / rc=abr / mbtree=1 / bitrate=4496 / ratetol=1.0 / qcomp=0.60 / qpmin=10 / qpmax=51 / qpstep=4 / ip_ratio=1.41 / aq=1:1.00
Дата кодирования                         : UTC 2014-10-03 04:32:14
Дата пометки                             : UTC 2014-10-03 04:32:14

Аудио
Идентификатор                            : 2
Формат                                   : AC-3
Формат/Информация                        : Audio Coding 3
Расширение режима                        : CM (complete main)
Параметр Endianness формата              : Big
Идентификатор кодека                     : ac-3
Продолжительность                        : 5 м. 26 с.
Вид битрейта                             : Постоянный
Битрейт                                  : 320 Кбит/сек
Каналы                                   : 6 каналов
Расположение каналов                     : Front: L C R, Side: L R, LFE
Частота                                  : 48,0 КГц
Битовая глубина                          : 16 бит
Метод сжатия                             : С потерями
Размер потока                            : 12,5 Мбайт (6%)
Дата кодирования                         : UTC 2014-10-03 04:32:14
Дата пометки                             : UTC 2014-10-03 04:32:14

Скриншоты:


Хорошего настроения и


Время раздачи: 24/7 - до 5 скачавших, далее по возможности.
 
Не забывайте говорить Спасибо. Не уходите с раздачи!   
Торрент: Зарегистрирован [08 ноя 2015, 22:55] Скачать торрент
Скачать торрент
[ Размер 19.8 КБ / Просмотров 27 ]
Статус:
Проверен
 
.torrent скачан: 0 раз
Хэш: 2d93412983fd35869bbd634a350aa84010b587a3
Размер: 3.32 ГБ (3 563 152 230 байт)
Стать Автором раздачи
 
 
Раздал: 690.52 МБ
Скачал: 0 байт
Ратио: Seed.
Сообщения: 218210
Зарегистрирован: 14 июн 2014, 21:11


  • Похожие торренты
    Ответы
    Просмотры
    Последнее сообщение

Вернуться в Музыкальные клипы (транзит)

Ресурс не предоставляет электронные версии произведений, а занимается лишь коллекционированием и каталогизацией ссылок, присылаемых и публикуемых на форуме нашими читателями. Если вы являетесь правообладателем какого-либо представленного материала и не желаете чтобы ссылка на него находилась в нашем каталоге, свяжитесь с нами и мы незамедлительно удалим её. Файлы для обмена на трекере предоставлены пользователями сайта, и администрация не несёт ответственности за их содержание. Просьба не заливать файлы, защищенные авторскими правами, а также файлы нелегального содержания!
cron