Александр Невзоров.Творческий вечер [30.10.2015, Ток-шоу, SATRip]

 
 Статистика раздачи 
Размер: 452.62 МБ   |  Зарегистрирован: 08 ноя 2015, 16:00   |   .torrent скачан: 2 раз
Сидеров: 1  [ 0 байт/сек ]     Личеров: 0  [ 0 байт/сек ]  
  

Александр Невзоров.Творческий вечер [30.10.2015, Ток-шоу, SATRip]

Сообщение Seepas » 08 ноя 2015, 16:00

Александр Невзоров.Творческий вечер

Дата/Год выпуска: 30.10.2015
Страна: Россия
Жанр: Ток-шоу
Продолжительность: 00:49:20
Перевод: Не требуется
Телеканал: Дождь
Описание: 30 октября в московском Театре Эстрады прошёл творческий вечер Александра Невзорова. Он ответил на вопросы зрителей.

Сэмпл: http://sendfile.su/1171993

качество: SATRip
формат: AVI
Видео: DivX 720х400 16:9 1 142 Kbps 25.000 fps
Аудио: Мр3 128 Kbps 48.0 KHz 2 channels
«Паноптикум». Белковский vs Невзоров
Код: Выделить всё
Nevzorov.avi
Format                                   : AVI
Format/Info                              : Audio Video Interleave
File size                                : 453 MiB
Duration                                 : 49mn 20s
Overall bit rate                         : 1 283 Kbps

Video
ID                                       : 1
Format                                   : MPEG-4 Visual
Codec ID                                 : DIV3
Codec ID/Hint                            : DivX 3 Low
Duration                                 : 49mn 20s
Bit rate                                 : 1 142 Kbps
Width                                    : 720 pixels
Height                                   : 400 pixels
Display aspect ratio                     : 16:9
Frame rate                               : 25.000 fps
Color space                              : YUV
Chroma subsampling                       : 4:2:0
Bit depth                                : 8 bits
Compression mode                         : Lossy
Bits/(Pixel*Frame)                       : 0.159
Stream size                              : 403 MiB (89%)

Audio
ID                                       : 0
Format                                   : MPEG Audio
Format version                           : Version 1
Format profile                           : Layer 3
Mode                                     : Joint stereo
Codec ID                                 : 55
Codec ID/Hint                            : MP3
Duration                                 : 7s 83ms
Bit rate mode                            : Constant
Bit rate                                 : 128 Kbps
Channel(s)                               : 2 channels
Sampling rate                            : 44.1 KHz
Compression mode                         : Lossy
Stream size                              : 45.2 MiB (10%)
Alignment                                : Aligned on interleaves
Interleave, duration                     : 40 ms (1.00 video frame)
 
Не забывайте говорить Спасибо. Не уходите с раздачи!   
Торрент: Зарегистрирован [08 ноя 2015, 16:00] Для скачивания .torrent
необходима регистрация
Или скачать с помощью
MediaGet
Статус:
Проверен
 
.torrent скачан: 2 раз
Хэш: d05aaa00c779b6f94f55b828c6d3569678b43491
Размер: 452.62 МБ (474 609 802 байт)
Стать Автором раздачи
 
 
Раздал: 0 байт
Скачал: 0 байт
Ратио: Inf.
Сообщения: 188877
Зарегистрирован: 14 июн 2014, 20:46


Вернуться в Социальные ток-шоу

Ресурс не предоставляет электронные версии произведений, а занимается лишь коллекционированием и каталогизацией ссылок, присылаемых и публикуемых на форуме нашими читателями. Если вы являетесь правообладателем какого-либо представленного материала и не желаете чтобы ссылка на него находилась в нашем каталоге, свяжитесь с нами и мы незамедлительно удалим её. Файлы для обмена на трекере предоставлены пользователями сайта, и администрация не несёт ответственности за их содержание. Просьба не заливать файлы, защищенные авторскими правами, а также файлы нелегального содержания!
cron