Хранитель Луны / Mune, le gardien de la lune (2014) HDRip [H.264] [MP4|960х400]

 
 Статистика раздачи 
Размер: 1.43 ГБ   |  Зарегистрирован: 08 ноя 2015, 02:04   |   .torrent скачан: 1 раз
Сидеров: 1  [ 0 байт/сек ]     Личеров: 0  [ 0 байт/сек ]  
  

Хранитель Луны / Mune, le gardien de la lune (2014) HDRip [H.264] [MP4|960х400]

Сообщение Thelver1947 » 08 ноя 2015, 02:04

Хранитель Луны / Mune, le gardien de la lune (2014) HDRip

Производство: Франция
Жанр: Мультфильм

Режиссер: Александр Эбоян, Бенуа Филиппон
Актеры: Омар Си, Изиа Ижлен, Майкл Грегорио, Шафик Ахмад, Бенуа Аллемане, Шеннон Арчи, Федор Аткин, Джошуа Дж. Баллард, Дэмиен Буассо, Эммануэль Кюртиль

Описание:
На диковинной планете, где смена дня и ночи осуществляется вручную, юного фавна Мьюна неожиданно избирают хранителем Луны. Но к своему ужасу, он почти сразу теряет ее! Воспользовавшись этим, царь подземного мира Некрос крадет и гасит Солнце. Теперь, чтобы спасти планету, Мьюн вместе с отважной девочкой из воска Глим и заносчивым Сохоном, хранителем Солнца, должны отправиться в удивительное и опасное путешествие.



Продолжительность: 01:21:27
Качество видео: HDRip
Перевод: Дублированный

Видео: AVC/H.264, 960х400, ~2345 Kbps
Аудио: AAC, 2 ch, 160 Kbps, Русский
Код:
Код: Выделить всё
General
Complete name                            : Хранитель Луны (2014).mp4
Format                                   : MPEG-4
Format profile                           : Base Media
Codec ID                                 : isom
File size                                : 1.43 GiB
Duration                                 : 1h 21mn
Overall bit rate mode                    : Variable
Overall bit rate                         : 2 512 Kbps
Movie name                               : Mune, le gardien de la lune (2014) [NoNaMe-Club. rip by alien.09]
ContentType                              : Short Film
Encoded date                             : UTC 2015-11-06 21:41:41
Tagged date                              : UTC 2015-11-06 21:43:12

Video
ID                                       : 1
Format                                   : AVC
Format/Info                              : Advanced Video Codec
Format profile                           :
Format settings, CABAC                   : Yes
Format settings, ReFrames                : 3 frames
Codec ID                                 : avc1
Codec ID/Info                            : Advanced Video Coding
Duration                                 : 1h 21mn
Bit rate                                 : 2 345 Kbps
Maximum bit rate                         : 6 138 Kbps
Width                                    : 960 pixels
Height                                   : 400 pixels
Display aspect ratio                     : 2.40:1
Frame rate mode                          : Constant
Frame rate                               : 25.000 fps
Color space                              : YUV
Chroma subsampling                       : 4:2:0
Bit depth                                : 8 bits
Scan type                                : Progressive
Bits/(Pixel*Frame)                       : 0.244
Stream size                              : 1.33 GiB (93%)
Writing library                          : x264 core 128 r2216M 198a7ea
Encoding settings                        : cabac=1 / ref=3 / deblock=1:-1:-1 / analyse=0x1:0x131 / me=hex / subme=7 / psy=1 / psy_rd=1.00:0.15 / mixed_ref=1 / me_range=16 / chroma_me=1 / trellis=1 / 8x8dct=0 / cqm=0 / deadzone=21,11 / fast_pskip=1 / chroma_qp_offset=-3 / threads=8 / lookahead_threads=1 / sliced_threads=0 / nr=0 / decimate=1 / interlaced=0 / bluray_compat=0 / constrained_intra=0 / bframes=3 / b_pyramid=0 / b_adapt=2 / b_bias=0 / direct=3 / weightb=1 / open_gop=0 / weightp=0 / keyint=250 / keyint_min=25 / scenecut=40 / intra_refresh=0 / rc_lookahead=40 / rc=2pass / mbtree=1 / bitrate=2345 / ratetol=1.0 / qcomp=0.60 / qpmin=10 / qpmax=51 / qpstep=4 / cplxblur=20.0 / qblur=0.5 / vbv_maxrate=5000 / vbv_bufsize=1835 / nal_hrd=none / ip_ratio=1.40 / aq=1:1.00
Language                                 : Russian
Encoded date                             : UTC 2015-11-06 21:41:41
Tagged date                              : UTC 2015-11-06 21:42:10

Audio
ID                                       : 2
Format                                   : AAC
Format/Info                              : Advanced Audio Codec
Format profile                           : LC
Codec ID                                 : 40
Duration                                 : 1h 21mn
Bit rate mode                            : Variable
Bit rate                                 : 160 Kbps
Maximum bit rate                         : 281 Kbps
Channel count                            : 2 channels
Channel positions                        : Front: L R
Sampling rate                            : 48.0 KHz
Compression mode                         : Lossy
Stream size                              : 93.2 MiB (6%)
Language                                 : Russian
Encoded date                             : UTC 2015-11-06 21:42:07
Tagged date                              : UTC 2015-11-06 21:42:10

Скриншоты:



Время раздачи: 24/7 до трёх скачавших

Все раздачи мультфильма «Хранитель луны» на NoNaMe Club
 
Не забывайте говорить Спасибо. Не уходите с раздачи!   
Торрент: Зарегистрирован [08 ноя 2015, 02:04] Для скачивания .torrent
необходима регистрация
Или скачать с помощью
MediaGet
Статус:
Проверен
 
.torrent скачан: 1 раз
Хэш: 3565d49439a9bbd0b2c0a4b89c561ee6906f294d
Размер: 1.43 ГБ (1 534 488 321 байт)
Стать Автором раздачи
 
 
Раздал: 690.52 МБ
Скачал: 0 байт
Ратио: Seed.
Сообщения: 218210
Зарегистрирован: 14 июн 2014, 21:11


  • Похожие торренты
    Ответы
    Просмотры
    Последнее сообщение

Вернуться в Видео для мобильных устройств

Ресурс не предоставляет электронные версии произведений, а занимается лишь коллекционированием и каталогизацией ссылок, присылаемых и публикуемых на форуме нашими читателями. Если вы являетесь правообладателем какого-либо представленного материала и не желаете чтобы ссылка на него находилась в нашем каталоге, свяжитесь с нами и мы незамедлительно удалим её. Файлы для обмена на трекере предоставлены пользователями сайта, и администрация не несёт ответственности за их содержание. Просьба не заливать файлы, защищенные авторскими правами, а также файлы нелегального содержания!
cron