Легенды / Legends (2014) WEB-DLRip [H.264] (Сезон 1, серии 1-10 из 10) BaibaKo [MP4|720x400]

 
 Статистика раздачи 
Размер: 5.55 ГБ   |  Зарегистрирован: 01 ноя 2015, 15:02   |   .torrent скачан: 0 раз
Сидеров: 1  [ 0 байт/сек ]     Личеров: 0  [ 0 байт/сек ]  
  

Легенды / Legends (2014) WEB-DLRip [H.264] (Сезон 1, серии 1-10 из 10) BaibaKo [MP4|720x400]

Сообщение Thelver1947 » 01 ноя 2015, 15:02

Легенды / Legends (2014) WEB-DLRip (Сезон 1, серии 1-10 из 10) BaibaKo

Производство: США
Жанр: боевик, триллер, драма, криминал

Режиссер: Дэвид Семел, Брэд Тернер, Джон Беринг
Актеры: Шон Бин, Эли Лартер, Эмбер Валлетта, Мэйсон Кук, Тина Мажорино, Роб Майес, Стив Харрис, Моррис Честнат, Джейсон Йоркер, Роксана Бруссо, Дэвид Мюнье, Сэмми Шейк, Омид Абтахи и др.

Описание:
Работая на ЦРУ, Мартин специализировался на работе под глубоким прикрытием, буквально полностью перевоплощался в другую личность, теперь же он простой частный детектив. Жизнь главного героя круто меняется, когда Мартин узнает, что, возможно, он не тот, кем себя считает. И теперь ему предстоит докопаться до истины: он страдает заурядным раздвоением личности или является частью тайного плана ЦРУ?



Продолжительность: ~ 00:42:00 серия
Качество видео: WEB-DLRip
Перевод: Многоголосый закадровый, профессиональный - BaibaKo
Автор перевода: Янина Галицкая
Озвучка: Ольга Мотрич, Юлия Котурбаш, Сергей Корчак, Андрей Корзаченко и Акмал Гурезов

Видео: AVC/H.264 (Baseline@L3.0), 720x400 (16:9), ~1536 Кбит/сек
Аудио #1: AAC, 2 канала, 192 Кбит/сек - русский (многоголосый закадровый)
Аудио #2: AAC, 2 канала, 192 Кбит/сек - английский (оригинальный)
Код:
Код: Выделить всё
Полное имя                               : M:\Legends_s1_WEB-DLRip_x264_BaibaKo_[NNM-CLUB]\Legends.s01e01.WEB-DLRip.x264.Rus.Eng.BaibaKo.tv.mp4
Формат                                   : MPEG-4
Профиль формата                          : Base Media
Идентификатор кодека                     : isom
Размер файла                             : 574 Мбайт
Продолжительность                        : 41 м.
Режим общего битрейта                    : Переменный
Общий поток                              : 1920 Кбит/сек
Дата кодирования                         : UTC 2014-08-15 01:36:25
Дата пометки                             : UTC 2014-08-15 01:36:25

Видео
Идентификатор                            : 1
Формат                                   : AVC
Формат/Информация                        : Advanced Video Codec
Профиль формата                          :
Параметр CABAC формата                   : Нет
Параметр ReFrames формата                : 3 кадра
Идентификатор кодека                     : avc1
Идентификатор кодека/Информация          : Advanced Video Coding
Продолжительность                        : 41 м.
Битрейт                                  : 1536 Кбит/сек
Максимальный битрейт                     : 16,9 Мбит/сек
Ширина                                   : 720 пикселей
Высота                                   : 400 пикселей
Соотношение сторон                       : 16:9
Режим частоты кадров                     : Переменный
Частота кадров                           : 23,976 кадра/сек
Минимальная частота кадров               : 23,974 кадра/сек
Максимальная частота кадров              : 23,981 кадра/сек
Цветовое пространство                    : YUV
Субдискретизация насыщенности            : 4:2:0
Битовая глубина                          : 8 бит
Тип развёртки                            : Прогрессивная
Бит/(Пиксели*Кадры)                      : 0.222
Размер потока                            : 459 Мбайт (80%)
Библиотека кодирования                   : x264 core 130 r2273 b3065e6
Настройки программы                      : cabac=0 / ref=3 / deblock=1:0:0 / analyse=0x1:0x111 / me=hex / subme=7 / psy=1 / psy_rd=1.00:0.00 / mixed_ref=1 / me_range=16 / chroma_me=1 / trellis=1 / 8x8dct=0 / cqm=0 / deadzone=21,11 / fast_pskip=1 / chroma_qp_offset=-2 / threads=12 / lookahead_threads=2 / sliced_threads=0 / nr=0 / decimate=1 / interlaced=0 / bluray_compat=0 / constrained_intra=0 / bframes=0 / weightp=0 / keyint=240 / keyint_min=24 / scenecut=40 / intra_refresh=0 / rc_lookahead=40 / rc=2pass / mbtree=1 / bitrate=1536 / ratetol=1.0 / qcomp=0.60 / qpmin=0 / qpmax=69 / qpstep=4 / cplxblur=20.0 / qblur=0.5 / ip_ratio=1.40 / aq=1:1.00
Дата кодирования                         : UTC 2014-08-15 00:22:35
Дата пометки                             : UTC 2014-08-15 01:37:26
Основные цвета                           : BT.709
Характеристики трансфера                 : BT.709
Коэффициенты матрицы                     : BT.709

Аудио #1
Идентификатор                            : 2
Формат                                   : AAC
Формат/Информация                        : Advanced Audio Codec
Профиль формата                          : LC
Идентификатор кодека                     : 67
Продолжительность                        : 41 м.
Вид битрейта                             : Переменный
Битрейт                                  : 192 Кбит/сек
Максимальный битрейт                     : 196 Кбит/сек
Каналы                                   : 2 канала
Расположение каналов                     : Front: L R
Частота                                  : 48,0 КГц
Метод сжатия                             : С потерями
Размер потока                            : 56,6 Мбайт (10%)
Язык                                     : Russian
Дата кодирования                         : UTC 2014-08-15 01:37:17
Дата пометки                             : UTC 2014-08-15 01:37:26

Аудио #2
Идентификатор                            : 3
Формат                                   : AAC
Формат/Информация                        : Advanced Audio Codec
Профиль формата                          : LC
Идентификатор кодека                     : 67
Продолжительность                        : 41 м.
Вид битрейта                             : Переменный
Битрейт                                  : 192 Кбит/сек
Максимальный битрейт                     : 195 Кбит/сек
Каналы                                   : 2 канала
Расположение каналов                     : Front: L R
Частота                                  : 48,0 КГц
Метод сжатия                             : С потерями
Размер потока                            : 56,6 Мбайт (10%)
Язык                                     : English
Дата кодирования                         : UTC 2014-08-15 01:37:20
Дата пометки                             : UTC 2014-08-15 01:37:26
01 - Пилот / Pilot
02 - Химия / Chemistry
03 - Герои войны / Lords of War
04 - Предательство / Betrayal
05 - Самоволка / Rogue
06 - Сквозь строй / Gauntlet
07 - Зыбучие пески / Quicksand
08 - Иконоборец / Iconoclast
09 - Множество зеркал / Wilderness of Mirrors
10 - Личность / Identity

Скриншоты:



Время раздачи:
24/7 - круглосуточно
(до первых 5-ти сидов - потом по возможности)

 
Не забывайте говорить Спасибо. Не уходите с раздачи!   
Торрент: Зарегистрирован [01 ноя 2015, 15:02] Для скачивания .torrent
необходима регистрация
Или скачать с помощью
MediaGet
Статус:
Проверен
 
.torrent скачан: 0 раз
Хэш: 194c3855c15e776f9067be6e5f308ed3263952a9
Размер: 5.55 ГБ (5 955 993 471 байт)
Стать Автором раздачи
 
 
Раздал: 690.52 МБ
Скачал: 0 байт
Ратио: Seed.
Сообщения: 218210
Зарегистрирован: 14 июн 2014, 21:11


  • Похожие торренты
    Ответы
    Просмотры
    Последнее сообщение

Вернуться в Видео для мобильных устройств

Ресурс не предоставляет электронные версии произведений, а занимается лишь коллекционированием и каталогизацией ссылок, присылаемых и публикуемых на форуме нашими читателями. Если вы являетесь правообладателем какого-либо представленного материала и не желаете чтобы ссылка на него находилась в нашем каталоге, свяжитесь с нами и мы незамедлительно удалим её. Файлы для обмена на трекере предоставлены пользователями сайта, и администрация не несёт ответственности за их содержание. Просьба не заливать файлы, защищенные авторскими правами, а также файлы нелегального содержания!
cron