Рыбацкие легенды Якуба Вагнера / Rybi Legendy Iakuba Vagnera (5 выпускoв) (Милан Васек / Milan Vacek) [2013, Документальный цикл, рыбалка HDTV 1080i, RU, EN]

 
 Статистика раздачи 
Размер: 11.54 ГБ   |  Зарегистрирован: 29 окт 2015, 00:33   |   .torrent скачан: 0 раз
Сидеров: 2  [ 0 байт/сек ]     Личеров: 0  [ 0 байт/сек ]  
  

Рыбацкие легенды Якуба Вагнера / Rybi Legendy Iakuba Vagnera (5 выпускoв) (Милан Васек / Milan Vacek) [2013, Документальный цикл, рыбалка HDTV 1080i, RU, EN]

Сообщение BitFire » 29 окт 2015, 00:33

Рыбацкие легенды Якуба Вагнера / Rybi Legendy Iakuba Vagnera

Год выпуска: 2013
Страна: Чехия
Студия: Česká televize, Discovery Channel
Жанр: Документальный цикл, рыбалка
Продолжительность: 00:44:00
Перевод: Профессиональный (одноголосый закадровый)
Русские субтитры: нет

Режиссер: Милан Васек / Milan Vacek

Описание: Его экспедиции – не просто путешествия в экзотические места для рыбной ловли, а изнурительные испытания, требующие максимальной эмоциональной концентрации, физического напряжения и умения приспосабливаться к любым, даже самым экстремальным условиям. В программе «Рыбацкие легенды Якуба Вагнера» ведущий приглашает вас на экскурсию по крупнейшим водоемам мира: путь рыболова пролегает от Индии до Монголии и Конго. В каждом регионе он попробует поймать самого большого и опасного представителя речной фауны – и, конечно, поделится со зрителями Discovery Channel своим богатым опытом и знаниями о самых редких обитателях рек, морей и океанов.


28.10.2015 _ добавил выпуск - амазония 1, амазония 2,
перезаливаем
амазония 1
амазония 2
Аргентина
Папуа-Новая Гвинея
Сибирь
Сэмпл: http://multi-up.com/1067573

Тип релиза: HDTV 1080i
Контейнер: TS

Видео: AVC, 1920x1080, (16:9), 25 fps, 8.2 Mbps, 0.16 bit/pixel
Аудио#1: Russian, AC3, 48 kHz, 6 ch; 384 kbps
Аудио#2: English, AC3, 48 kHz, 6 ch; 384 kbps
Код: Выделить всё
General
ID                                       : 1 (0x1)
Complete name                            : C:\Аргентина.ts
Format                                   : MPEG-TS
File size                                : 2.88 GiB
Duration                                 : 43mn 50s
Overall bit rate mode                    : Variable
Overall bit rate                         : 9 414 Kbps

Video
ID                                       : 325 (0x145)
Menu ID                                  : 12105 (0x2F49)
Format                                   : AVC
Format/Info                              : Advanced Video Codec
Format profile                           : Main@L4
Format settings, CABAC                   : Yes
Format settings, ReFrames                : 4 frames
Codec ID                                 : 27
Duration                                 : 43mn 50s
Bit rate                                 : 8 173 Kbps
Width                                    : 1 920 pixels
Height                                   : 1 080 pixels
Display aspect ratio                     : 16:9
Frame rate                               : 25.000 fps
Standard                                 : Component
Color space                              : YUV
Chroma subsampling                       : 4:2:0
Bit depth                                : 8 bits
Scan type                                : Interlaced
Scan order                               : Top Field First
Bits/(Pixel*Frame)                       : 0.158
Stream size                              : 2.50 GiB (87%)
Color range                              : Limited
Color primaries                          : BT.709
Transfer characteristics                 : BT.709
Matrix coefficients                      : BT.709

Audio #1
ID                                       : 405 (0x195)
Menu ID                                  : 12105 (0x2F49)
Format                                   : AC-3
Format/Info                              : Audio Coding 3
Mode extension                           : CM (complete main)
Format settings, Endianness              : Big
Codec ID                                 : 6
Duration                                 : 43mn 50s
Bit rate mode                            : Constant
Bit rate                                 : 384 Kbps
Channel(s)                               : 6 channels
Channel positions                        : Front: L C R, Side: L R, LFE
Sampling rate                            : 48.0 KHz
Compression mode                         : Lossy
Delay relative to video                  : -80ms
Stream size                              : 120 MiB (4%)
Language                                 : Russian

Audio #2
ID                                       : 406 (0x196)
Menu ID                                  : 12105 (0x2F49)
Format                                   : AC-3
Format/Info                              : Audio Coding 3
Mode extension                           : CM (complete main)
Format settings, Endianness              : Big
Codec ID                                 : 6
Duration                                 : 43mn 50s
Bit rate mode                            : Constant
Bit rate                                 : 384 Kbps
Channel(s)                               : 6 channels
Channel positions                        : Front: L C R, Side: L R, LFE
Sampling rate                            : 48.0 KHz
Compression mode                         : Lossy
Delay relative to video                  : -80ms
Stream size                              : 120 MiB (4%)
Language                                 : English
 
Не забывайте говорить Спасибо. Не уходите с раздачи!   
Торрент: Зарегистрирован [29 окт 2015, 00:33] Для скачивания .torrent
необходима регистрация
Или скачать с помощью
MediaGet
Статус:
Проверен
 
.torrent скачан: 0 раз
Хэш: 483f2ca055090cbfb749cc2c689b2fcee8140bf5
Размер: 11.54 ГБ (12 386 977 840 байт)
Стать Автором раздачи
 
 
Раздал: 398.6 ГБ
Скачал: 172 МБ
Ратио: 2373.085
Сообщения: 228131
Зарегистрирован: 17 апр 2014, 15:26


  • Похожие торренты
    Ответы
    Просмотры
    Последнее сообщение

Вернуться в Телепередачи (HD Video), не являющиеся документалистикой

Ресурс не предоставляет электронные версии произведений, а занимается лишь коллекционированием и каталогизацией ссылок, присылаемых и публикуемых на форуме нашими читателями. Если вы являетесь правообладателем какого-либо представленного материала и не желаете чтобы ссылка на него находилась в нашем каталоге, свяжитесь с нами и мы незамедлительно удалим её. Файлы для обмена на трекере предоставлены пользователями сайта, и администрация не несёт ответственности за их содержание. Просьба не заливать файлы, защищенные авторскими правами, а также файлы нелегального содержания!
cron