Adele - Hello (2015) WEBRip[H.264/1080p-LQ]

 
 Статистика раздачи 
Размер: 103.8 МБ   |  Зарегистрирован: 28 окт 2015, 11:48   |   .torrent скачан: 0 раз
Сидеров: 1  [ 0 байт/сек ]     Личеров: 0  [ 0 байт/сек ]  
  

Adele - Hello (2015) WEBRip[H.264/1080p-LQ]

Сообщение Seepas » 28 окт 2015, 11:48

Adele - Hello (2015) WEBRip

Жанр: поп-джаз/соул, блюз.
Дата выхода: 22 окт. 2015 г.

Описание:
Новое видео британской певицы Adele на песню "Hello"

Продолжительность: 00:06:06
Качество видео: WEBRip

Видео: AVC/H.264, 1920x1080, ~2241 Кбит/сек
Аудио: AAC, 2 ch, 126 Кбит/сек, CBR
Код:
Код: Выделить всё
Общее
Полное имя                               : X:\Films\Adele - Hello.mp4
Формат                                   : MPEG-4
Профиль формата                          : Base Media
Идентификатор кодека                     : isom
Размер файла                             : 104 Мбайт
Продолжительность                        : 6 м. 6 с.
Общий поток                              : 2373 Кбит/сек
Программа кодирования                    : Lavf57.2.100

Видео
Идентификатор                            : 1
Формат                                   : AVC
Формат/Информация                        : Advanced Video Codec
Профиль формата                          : High@L4
Параметр CABAC формата                   : Да
Параметр ReFrames формата                : 3 кадра
Идентификатор кодека                     : avc1
Идентификатор кодека/Информация          : Advanced Video Coding
Продолжительность                        : 6 м. 6 с.
Битрейт                                  : 2241 Кбит/сек
Ширина                                   : 1920 пикселей
Высота                                   : 1080 пикселей
Соотношение сторон                       : 16:9
Режим частоты кадров                     : Переменный
Частота кадров                           : 23,976 кадра/сек
Минимальная частота кадров               : 23,974 кадра/сек
Максимальная частота кадров              : 23,981 кадра/сек
Цветовое пространство                    : YUV
Субдискретизация насыщенности            : 4:2:0
Битовая глубина                          : 8 бит
Тип развёртки                            : Прогрессивная
Бит/(Пиксели*Кадры)                      : 0.045
Размер потока                            : 98,0 Мбайт (94%)

Аудио
Идентификатор                            : 2
Формат                                   : AAC
Формат/Информация                        : Advanced Audio Codec
Профиль формата                          : LC
Идентификатор кодека                     : 40
Продолжительность                        : 6 м. 6 с.
Вид битрейта                             : Постоянный
Битрейт                                  : 126 Кбит/сек
Каналы                                   : 2 канала
Расположение каналов                     : Front: L R
Частота                                  : 44,1 КГц
Метод сжатия                             : С потерями
Размер потока                            : 5,49 Мбайт (5%)

Скриншоты:



Время раздачи: До пяти скачавших.
 
Не забывайте говорить Спасибо. Не уходите с раздачи!   
Торрент: Зарегистрирован [28 окт 2015, 11:48] Скачать торрент
Скачать торрент
[ Размер 16.88 КБ / Просмотров 16 ]
Статус:
Проверен
 
.torrent скачан: 0 раз
Хэш: 16bcbc5eaa027c23913eac3ee30f6c45a5117598
Размер: 103.8 МБ (108 838 738 байт)
Стать Автором раздачи
 
 
Раздал: 0 байт
Скачал: 0 байт
Ратио: Inf.
Сообщения: 188877
Зарегистрирован: 14 июн 2014, 20:46


  • Похожие торренты
    Ответы
    Просмотры
    Последнее сообщение

Вернуться в Музыкальные клипы (транзит)

Ресурс не предоставляет электронные версии произведений, а занимается лишь коллекционированием и каталогизацией ссылок, присылаемых и публикуемых на форуме нашими читателями. Если вы являетесь правообладателем какого-либо представленного материала и не желаете чтобы ссылка на него находилась в нашем каталоге, свяжитесь с нами и мы незамедлительно удалим её. Файлы для обмена на трекере предоставлены пользователями сайта, и администрация не несёт ответственности за их содержание. Просьба не заливать файлы, защищенные авторскими правами, а также файлы нелегального содержания!
cron