Все могут танцевать 2 / Any Body Can Dance 2 (2015) WEBRip

 
 Статистика раздачи 
Размер: 1.79 ГБ   |  Зарегистрирован: 27 окт 2015, 01:21   |   .torrent скачан: 0 раз
Сидеров: 1  [ 0 байт/сек ]     Личеров: 1  [ 0 байт/сек ]  
  

Все могут танцевать 2 / Any Body Can Dance 2 (2015) WEBRip

Сообщение PetaByte » 27 окт 2015, 01:21

Все могут танцевать 2 / Any Body Can Dance 2 (2015) WEBRip

Платформа или формат: MP4
Производство: Disney
Жанр: Мьюзикл

Режиссер: Ремо
Актеры: Шраддха Капур Варун Дхаван Прабхудева Лорен Готтлиб Кристин Виенна Филлип А. Холл Пуджа Батра Dharmesh Yelande Брайан Блу Элисия Стоукс Наварро ...

Описание:
Парень по имени Суреш обожает танцевать, он регулярно тренируется вместе со своей командой, об этих ребятах знают многие люди, большинство из которых получает наслаждение от великолепных танцевальных номеров героев. Все же не всегда выступления проходят хорошо, последний выход Суреша и его товарищей на сцену закончился провалом, ибо посчитали, что ребята украли чужой номер. Теперь этим героям предстоит доказать всем и себе, что они являются лучшими, для чего танцоры отправляются в Лас-Вегас, собираясь принять участие в танцевальном конкурсе. Им только нужен тренер, но никто с ними не хочет заниматься. Никто, кроме пьяницы Вишны, который некогда считался одним из лучших танцоров. Ребятам предстоит длинный путь, но они готовы к испытаниям.



Дата мировой премьеры: 19 июня 2015
Дата премьеры в России: 19 июня 2015

Релиз от: Powered by SLO94 and ICG
Продолжительность: 02:34:00
Качество видео: WEBRip
Перевод: Многоголосый закадровый
Язык: Русский
Автор перевода: ICG
Язык субтитров: RUS
Вид субтитров: Вшитые

Видео: AVC/H.264, 1280X544, ~192
Аудио: AAC, 2 ch, 192, CBR
Код:
Код: Выделить всё
Формат                                   : MPEG-4
Профиль формата                          : Base Media
Идентификатор кодека                     : isom
Размер файла                             : 1,79 Гбайт
Продолжительность                        : 2 ч. 34 м.
Режим общего битрейта                    : Переменный
Общий поток                              : 1654 Кбит/сек
Программа кодирования                    : Lavf56.25.101

Видео
Идентификатор                            : 1
Формат                                   : AVC
Формат/Информация                        : Advanced Video Codec
Профиль формата                          :
Параметр CABAC формата                   : Да
Параметр ReFrames формата                : 4 кадра
Параметр GOP формата                     : M=4, N=24
Идентификатор кодека                     : avc1
Идентификатор кодека/Информация          : Advanced Video Coding
Продолжительность                        : 2 ч. 34 м.
Битрейт                                  : 1496 Кбит/сек
Ширина                                   : 1280 пикселей
Высота                                   : 544 пикселя
Соотношение сторон                       : 2,35:1
Режим частоты кадров                     : Постоянный
Частота кадров                           : 23,976 кадра/сек
Цветовое пространство                    : YUV
Субдискретизация насыщенности            : 4:2:0
Битовая глубина                          : 8 бит
Тип развёртки                            : Прогрессивная
Бит/(Пиксели*Кадры)                      : 0.090
Размер потока                            : 1,62 Гбайт (90%)
Библиотека кодирования                   : x264 core 142
Настройки программы                      : cabac=1 / ref=3 / deblock=1:0:0 / analyse=0x3:0x113 / me=hex / subme=7 / psy=1 / psy_rd=1.00:0.00 / mixed_ref=1 / me_range=16 / chroma_me=1 / trellis=1 / 8x8dct=1 / cqm=0 / deadzone=21,11 / fast_pskip=1 / chroma_qp_offset=-2 / threads=4 / lookahead_threads=1 / sliced_threads=0 / nr=0 / decimate=1 / interlaced=0 / bluray_compat=0 / constrained_intra=0 / bframes=3 / b_pyramid=2 / b_adapt=1 / b_bias=0 / direct=1 / weightb=1 / open_gop=0 / weightp=2 / keyint=24 / keyint_min=2 / scenecut=40 / intra_refresh=0 / rc_lookahead=24 / rc=2pass / mbtree=1 / bitrate=1496 / ratetol=1.0 / qcomp=0.60 / qpmin=0 / qpmax=69 / qpstep=4 / cplxblur=20.0 / qblur=0.5 / ip_ratio=1.40 / aq=1:1.00

Аудио
Идентификатор                            : 2
Формат                                   : AAC
Формат/Информация                        : Advanced Audio Codec
Профиль формата                          : LC
Идентификатор кодека                     : 40
Продолжительность                        : 2 ч. 34 м.
Duration_LastFrame                       : -22 мс.
Вид битрейта                             : Переменный
Битрейт                                  : 152 Кбит/сек
Максимальный битрейт                     : 192 Кбит/сек
Каналы                                   : 2 канала
Расположение каналов                     : Front: L R
Частота                                  : 44,1 КГц
Метод сжатия                             : С потерями
Размер потока                            : 168 Мбайт (9%)

Скриншоты:






Время раздачи: 24/7
 
Не забывайте говорить Спасибо. Не уходите с раздачи!   
Торрент: Зарегистрирован [27 окт 2015, 01:21] Для скачивания .torrent
необходима регистрация
Или скачать с помощью
MediaGet
Статус:
Проверен
 
.torrent скачан: 0 раз
Хэш: f2977da82bfd85cac5aa9b2db59a5a6f65467890
Размер: 1.79 ГБ (1 919 656 005 байт)
Стать Автором раздачи
 
 
Раздал: 10 ГБ
Скачал: 8 МБ
Ратио: 1280.000
Сообщения: 234240
Зарегистрирован: 22 фев 2013, 11:10


  • Похожие торренты
    Ответы
    Просмотры
    Последнее сообщение

Вернуться в Видео для мобильных устройств

Ресурс не предоставляет электронные версии произведений, а занимается лишь коллекционированием и каталогизацией ссылок, присылаемых и публикуемых на форуме нашими читателями. Если вы являетесь правообладателем какого-либо представленного материала и не желаете чтобы ссылка на него находилась в нашем каталоге, свяжитесь с нами и мы незамедлительно удалим её. Файлы для обмена на трекере предоставлены пользователями сайта, и администрация не несёт ответственности за их содержание. Просьба не заливать файлы, защищенные авторскими правами, а также файлы нелегального содержания!
cron