Пиксели / Pixels (2015) BDRip [H.264] [MP4|720p]

 
 Статистика раздачи 
Размер: 3.14 ГБ   |  Зарегистрирован: 24 окт 2015, 20:21   |   .torrent скачан: 0 раз
Сидеров: 1  [ 0 байт/сек ]     Личеров: 0  [ 0 байт/сек ]  
  

Пиксели / Pixels (2015) BDRip [H.264] [MP4|720p]

Сообщение Satch » 24 окт 2015, 20:21

Пиксели / Pixels (2015) BDRip

«It's time to save the World»

Производство: США, Columbia Pictures, 1492 Pictures, Happy Madison Productions
Жанр: Фантастика, Боевик, Комедия

Описание:
Очередное вторжение инопланетян на Землю… Вы скажете: «Что может быть банальнее?!». Да, если бы на этот раз они не предстали в виде героев вселенски популярных компьютерных игр. Сражаться с пришельцами призвана команда бывших геймеров, в числе которых: Президент Соединенных Штатов Америки; карлик-зэк, большой ценитель прекрасного пола; зануда-параноик, свято верящий в теорию вселенского заговора; профессиональный неудачник и циник, в детстве подававший большие надежды. А помогает новоиспеченным героям очаровательная ученая фея.

Режиссер: Крис Коламбус
Продюсер: Майкл Барнатан, Крис Коламбус, Аллен Коверт
Актеры: Адам Сэндлер, Кевин Джеймс, Мишель Монахэн, Питер Динклэйдж, Джош Гад, Брайан Кокс, Мэттью Линтц, Шон Бин, Джейн Краковски, Дэн Эйкройд

Продолжительность: 01:45:49
Качество видео: BDRip 720p
Перевод: Дублированный (Лицензия BD EUR)

Дата мировой премьеры: 16 июля 2015
Дата российской премьеры: 23 июля 2015
Дата выхода Blu-Ray/DVD релиза: 22 октября 2015
Видео: AVC/H.264 (High@L4.1), 1280x534, ~3600 Kbps
Аудио: АС-3, 6 ch, 640 Kbps - русский (дублированный)
Код:
Код: Выделить всё
General
Complete name               : K:\Пиксели.2015.BDRip.720p.NNM-Club.mp4
Format                      : MPEG-4
Format profile              : Base Media
Codec ID                    : isom
File size                   : 3.14 GiB
Duration                    : 1h 45mn
Overall bit rate            : 4 242 Kbps
Encoded date                : UTC 2015-10-23 19:05:03
Tagged date                 : UTC 2015-10-23 19:05:03

Video
ID                          : 1
Format                      : AVC
Format/Info                 : Advanced Video Codec
Format profile              :
Format settings, CABAC      : Yes
Format settings, ReFrames   : 9 frames
Codec ID                    : avc1
Codec ID/Info               : Advanced Video Coding
Duration                    : 1h 45mn
Bit rate                    : 3 600 Kbps
Maximum bit rate            : 17.2 Mbps
Width                       : 1 280 pixels
Height                      : 534 pixels
Display aspect ratio        : 2.40:1
Frame rate mode             : Constant
Frame rate                  : 23.976 fps
Color space                 : YUV
Chroma subsampling          : 4:2:0
Bit depth                   : 8 bits
Scan type                   : Progressive
Bits/(Pixel*Frame)          : 0.220
Stream size                 : 2.66 GiB (85%)
Title                       : Pixels
Writing library             : x264 core 146 r2538 121396c
Encoding settings           : cabac=1 / ref=9 / deblock=1:-2:-2 / analyse=0x3:0x133 / me=umh / subme=11 / psy=1 / psy_rd=1.00:0.00 / mixed_ref=1 / me_range=64 / chroma_me=1 / trellis=2 / 8x8dct=1 / cqm=0 / deadzone=21,11 / fast_pskip=0 / chroma_qp_offset=-2 / threads=12 / lookahead_threads=3 / sliced_threads=0 / nr=0 / decimate=1 / interlaced=0 / bluray_compat=0 / constrained_intra=0 / bframes=12 / b_pyramid=2 / b_adapt=2 / b_bias=0 / direct=3 / weightb=1 / open_gop=0 / weightp=2 / keyint=240 / keyint_min=23 / scenecut=40 / intra_refresh=0 / rc_lookahead=50 / rc=2pass / mbtree=0 / bitrate=3600 / ratetol=1.0 / qcomp=0.65 / qpmin=0 / qpmax=69 / qpstep=4 / cplxblur=20.0 / qblur=0.5 / vbv_maxrate=45000 / vbv_bufsize=60000 / nal_hrd=none / filler=0 / ip_ratio=1.40 / pb_ratio=1.30 / aq=1:1.00
Encoded date                : UTC 2015-10-23 19:05:03
Tagged date                 : UTC 2015-10-23 19:05:20

Audio
ID                          : 2
Format                      : AC-3
Format/Info                 : Audio Coding 3
Mode extension              : CM (complete main)
Format settings, Endianness : Big
Codec ID                    : ac-3
Duration                    : 1h 45mn
Bit rate mode               : Constant
Bit rate                    : 640 Kbps
Channel(s)                  : 6 channels
Channel positions           : Front: L C R, Side: L R, LFE
Sampling rate               : 48.0 KHz
Bit depth                   : 16 bits
Compression mode            : Lossy
Stream size                 : 484 MiB (15%)
Title                       : DUB BD EUR
Language                    : Russian
Encoded date                : UTC 2015-10-23 19:05:18
Tagged date                 : UTC 2015-10-23 19:05:20
Код:
Код: Выделить всё
x264 [info]: profile High, level 4.1
x264 [info]: frame I:1445  Avg QP:14.51  size:111926
x264 [info]: frame P:36183 Avg QP:17.00  size: 36195
x264 [info]: frame B:114603 Avg QP:19.58  size: 12088
x264 [info]: consecutive B-frames:  2.8%  3.8%  6.8% 40.5% 12.7% 20.8%  4.6%  6.4%  0.6%  0.3%  0.2%  0.3%  0.1%
x264 [info]: mb I  I16..4:  2.9% 74.4% 22.6%
x264 [info]: mb P  I16..4:  0.7% 11.1%  2.2%  P16..4: 26.9% 34.7% 15.9%  3.5%  0.4%    skip: 4.6%
x264 [info]: mb B  I16..4:  0.1%  1.9%  0.3%  B16..8: 32.9% 23.1%  4.9%  direct: 4.8%  skip:31.9%  L0:42.8% L1:43.9% BI:13.3%
x264 [info]: 8x8 transform intra:78.7% inter:55.2%
x264 [info]: direct mvs  spatial:98.8% temporal:1.2%
x264 [info]: coded y,uvDC,uvAC intra: 89.0% 91.1% 77.4% inter: 21.9% 20.2% 7.4%
x264 [info]: i16 v,h,dc,p: 25% 22%  4% 49%
x264 [info]: i8 v,h,dc,ddl,ddr,vr,hd,vl,hu: 12%  9%  7%  9% 12% 12% 13% 12% 14%
x264 [info]: i4 v,h,dc,ddl,ddr,vr,hd,vl,hu: 15% 10%  5%  8% 13% 13% 13% 10% 13%
x264 [info]: i8c dc,h,v,p: 41% 22% 19% 18%
x264 [info]: Weighted P-Frames: Y:2.7% UV:1.8%
x264 [info]: ref P L0: 51.0%  8.1% 15.4%  7.6%  5.7%  4.5%  3.7%  2.3%  1.6%  0.2%  0.0%
x264 [info]: ref B L0: 73.5% 12.3%  5.9%  3.1%  2.2%  1.7%  0.9%  0.3%
x264 [info]: ref B L1: 93.1%  6.9%
x264 [info]: kb/s:3599.35
Большое спасибо Дяде Шарику за предоставленное железо для создания рипа.

Скриншоты



Время раздачи: Круглосуточно, до первых 10-скачавших
Приятного просмотра!
 
Не забывайте говорить Спасибо. Не уходите с раздачи!   
Торрент: Зарегистрирован [24 окт 2015, 20:21] Для скачивания .torrent
необходима регистрация
Или скачать с помощью
MediaGet
Статус:
Проверен
 
.torrent скачан: 0 раз
Хэш: 79fe35ea58730621096e8ffae518627c665e8ab4
Размер: 3.14 ГБ (3 366 430 198 байт)
Стать Автором раздачи
 
Аватара пользователя
 
Раздал: 2.45 ГБ
Скачал: 15.94 МБ
Ратио: 157.696
Сообщения: 337733
Зарегистрирован: 16 янв 2012, 17:03


  • Похожие торренты
    Ответы
    Просмотры
    Последнее сообщение

Вернуться в Видео для мобильных устройств

Ресурс не предоставляет электронные версии произведений, а занимается лишь коллекционированием и каталогизацией ссылок, присылаемых и публикуемых на форуме нашими читателями. Если вы являетесь правообладателем какого-либо представленного материала и не желаете чтобы ссылка на него находилась в нашем каталоге, свяжитесь с нами и мы незамедлительно удалим её. Файлы для обмена на трекере предоставлены пользователями сайта, и администрация не несёт ответственности за их содержание. Просьба не заливать файлы, защищенные авторскими правами, а также файлы нелегального содержания!
cron