Rihanna - Bitch Better Have My Money (2015) WEBRip[H.264/1080p-LQ]

 
 Статистика раздачи 
Размер: 123.76 МБ   |  Зарегистрирован: 22 окт 2015, 09:23   |   .torrent скачан: 1 раз
Сидеров: 1  [ 0 байт/сек ]     Личеров: 0  [ 0 байт/сек ]  
  

Rihanna - Bitch Better Have My Money (2015) WEBRip[H.264/1080p-LQ]

Сообщение Thistoll » 22 окт 2015, 09:23

Rihanna - Bitch Better Have My Money (2015) WEBRip

Жанр: R&B, PoP.

Описание:
Rihanna представляет новое скандальное видео под названием *Bitch Better Have My Money*

Продолжительность: 00:07:01
Качество видео: WEBRip

Видео: AVC/H.264, 1920x1080, ~2329 Кбит/сек
Аудио: AAC, 2 ch, 126 Кбит/сек,CBR
Код:
Код: Выделить всё
Общее
Полное имя                               : X:\Films\Rihanna - Bitch Better Have My Money (Explicit).mp4
Формат                                   : MPEG-4
Профиль формата                          : Base Media
Идентификатор кодека                     : isom
Размер файла                             : 124 Мбайт
Продолжительность                        : 7 м. 1 с.
Общий поток                              : 2461 Кбит/сек
Программа кодирования                    : Lavf57.2.100

Видео
Идентификатор                            : 1
Формат                                   : AVC
Формат/Информация                        : Advanced Video Codec
Профиль формата                          : High@L4
Параметр CABAC формата                   : Да
Параметр ReFrames формата                : 3 кадра
Идентификатор кодека                     : avc1
Идентификатор кодека/Информация          : Advanced Video Coding
Продолжительность                        : 7 м. 1 с.
Битрейт                                  : 2329 Кбит/сек
Ширина                                   : 1920 пикселей
Высота                                   : 1080 пикселей
Соотношение сторон                       : 16:9
Режим частоты кадров                     : Переменный
Частота кадров                           : 23,976 кадра/сек
Минимальная частота кадров               : 23,974 кадра/сек
Максимальная частота кадров              : 23,981 кадра/сек
Цветовое пространство                    : YUV
Субдискретизация насыщенности            : 4:2:0
Битовая глубина                          : 8 бит
Тип развёртки                            : Прогрессивная
Бит/(Пиксели*Кадры)                      : 0.047
Размер потока                            : 117 Мбайт (95%)

Аудио
Идентификатор                            : 2
Формат                                   : AAC
Формат/Информация                        : Advanced Audio Codec
Профиль формата                          : LC
Идентификатор кодека                     : 40
Продолжительность                        : 7 м. 1 с.
Вид битрейта                             : Постоянный
Битрейт                                  : 126 Кбит/сек
Каналы                                   : 2 канала
Расположение каналов                     : Front: L R
Частота                                  : 44,1 КГц
Метод сжатия                             : С потерями
Размер потока                            : 6,32 Мбайт (5%)

Скриншоты:



Время раздачи: До пяти скачавших.
 
Не забывайте говорить Спасибо. Не уходите с раздачи!   
Торрент: Зарегистрирован [22 окт 2015, 09:23] Скачать торрент
Скачать торрент
[ Размер 20.06 КБ / Просмотров 13 ]
Статус:
Проверен
 
.torrent скачан: 1 раз
Хэш: 42f8d163a3f76eaba38f5d770343b342b33e792d
Размер: 123.76 МБ (129 772 618 байт)
Стать Автором раздачи
 
 
Раздал: 6.67 ГБ
Скачал: 302.5 МБ
Ратио: 22.576
Сообщения: 374198
Зарегистрирован: 17 апр 2014, 11:05


  • Похожие торренты
    Ответы
    Просмотры
    Последнее сообщение

Вернуться в Музыкальные клипы (транзит)

Ресурс не предоставляет электронные версии произведений, а занимается лишь коллекционированием и каталогизацией ссылок, присылаемых и публикуемых на форуме нашими читателями. Если вы являетесь правообладателем какого-либо представленного материала и не желаете чтобы ссылка на него находилась в нашем каталоге, свяжитесь с нами и мы незамедлительно удалим её. Файлы для обмена на трекере предоставлены пользователями сайта, и администрация не несёт ответственности за их содержание. Просьба не заливать файлы, защищенные авторскими правами, а также файлы нелегального содержания!
cron