Сын за отца (2014) WEBRip [H.264] (серии 1-24 из 24) [MP4|640х360]

 
 Статистика раздачи 
Размер: 7.79 ГБ   |  Зарегистрирован: 22 окт 2015, 08:51   |   .torrent скачан: 0 раз
Сидеров: 1  [ 0 байт/сек ]     Личеров: 1  [ 0 байт/сек ]  
  

Сын за отца (2014) WEBRip [H.264] (серии 1-24 из 24) [MP4|640х360]

Сообщение Thistoll » 22 окт 2015, 08:51

Сын за отца (2014) WEBRip (серии 1-24 из 24)

Производство: Россия
Жанр: Криминал, Драма

Режиссер: Резо Гигинеишвили, Леван Когуашвили
Актеры: Антон Макарский, Алексей Горбунов, Татьяна Лютаева, Денис Никифоров, Светлана Устинова, Марина Дюжева, Александр Феклистов, Марина Коняшкина, Антон Шурцов, Виталий Кищенко, Николай Шатохин, Анна Халилулина, Александр Барановский, Валентин Терехов, Мартиньш Вилсонс, Алина Сергеева, Пётр Баранчеев, Яна Сексте, Михаил Негин, Владимир Алфёров, Наталья Винтилова

Описание:
Вадим — молодой человек строгих нравов и чётких жизненных правил. Он обожает свою невесту, мать и отца, любит и умеет делать свою работу. Вадим хорошо понимает, чего хочет в жизни и знает, как добиться поставленной цели. Однако резкий поворот судьбы в одночасье ломает весь выстроенный вокруг Вадима мир, открыв глаза на его истинное происхождение и вынуждая пересмотреть свои жизненные планы.
После трагической смерти отца герой узнаёт, что на самом деле его усыновили, а настоящим биологическим отцом Вадима оказывается криминальный авторитет, бандит и убийца — олицетворение всего того, что Вадим считает неприемлемым и недопустимым в своей жизни.
Познакомившись с родным отцом и его мировоззрением, герой то и дело оказывается в ситуации, когда ему приходится выбирать между полученными в детстве четкими представлениями о морали и нравственности, и «реальной жизнью», в которой аморальные поступки позволяют кратчайшим путем добиваться «благих целей».


Продолжительность: ~ 00:45:00 серия
Качество видео: WEBRip

Видео: AVC/H.264, 640х360, ~890 Kbps
Аудио: AAC, 2 ch, 160 Kbps, русский (оригинал)
Доп. информация: присутствуют кратковременные рекламные вставки другого фильма
Код:
Код: Выделить всё
General
Complete name                            : Сын за отца (2014)\01 Сын за отца (2014).mp4
Format                                   : MPEG-4
Format profile                           : Base Media
Codec ID                                 : isom
File size                                : 333 MiB
Duration                                 : 44mn 0s
Overall bit rate mode                    : Variable
Overall bit rate                         : 1 058 Kbps
Movie name                               : 01 Сын за отца (2014) [NoNaMe-Club. rip by alien.09]
ContentType                              : Short Film
Encoded date                             : UTC 2015-10-18 23:45:56
Tagged date                              : UTC 2015-10-18 23:46:03

Video
ID                                       : 1
Format                                   : AVC
Format/Info                              : Advanced Video Codec
Format profile                           :
Format settings, CABAC                   : Yes
Format settings, ReFrames                : 3 frames
Codec ID                                 : avc1
Codec ID/Info                            : Advanced Video Coding
Duration                                 : 43mn 59s
Bit rate                                 : 890 Kbps
Maximum bit rate                         : 4 079 Kbps
Width                                    : 640 pixels
Height                                   : 360 pixels
Display aspect ratio                     : 16:9
Frame rate mode                          : Constant
Frame rate                               : 25.000 fps
Color space                              : YUV
Chroma subsampling                       : 4:2:0
Bit depth                                : 8 bits
Scan type                                : Progressive
Bits/(Pixel*Frame)                       : 0.155
Stream size                              : 280 MiB (84%)
Writing library                          : x264 core 125 r2200M 999b753
Encoding settings                        : cabac=1 / ref=3 / deblock=1:-1:-1 / analyse=0x1:0x131 / me=hex / subme=7 / psy=1 / psy_rd=1.00:0.15 / mixed_ref=1 / me_range=16 / chroma_me=1 / trellis=1 / 8x8dct=0 / cqm=0 / deadzone=21,11 / fast_pskip=1 / chroma_qp_offset=-3 / threads=4 / lookahead_threads=1 / sliced_threads=0 / nr=0 / decimate=1 / interlaced=0 / bluray_compat=0 / constrained_intra=0 / bframes=3 / b_pyramid=0 / b_adapt=2 / b_bias=0 / direct=3 / weightb=1 / open_gop=0 / weightp=0 / keyint=250 / keyint_min=25 / scenecut=40 / intra_refresh=0 / rc_lookahead=40 / rc=2pass / mbtree=1 / bitrate=890 / ratetol=1.0 / qcomp=0.60 / qpmin=10 / qpmax=51 / qpstep=4 / cplxblur=20.0 / qblur=0.5 / vbv_maxrate=5000 / vbv_bufsize=1835 / nal_hrd=none / ip_ratio=1.40 / aq=1:1.00
Language                                 : Russian
Encoded date                             : UTC 2015-10-18 23:45:56
Tagged date                              : UTC 2015-10-18 23:46:00

Audio
ID                                       : 2
Format                                   : AAC
Format/Info                              : Advanced Audio Codec
Format profile                           : LC
Codec ID                                 : 40
Duration                                 : 44mn 0s
Bit rate mode                            : Variable
Bit rate                                 : 160 Kbps
Maximum bit rate                         : 226 Kbps
Channel count                            : 2 channels
Channel positions                        : Front: L R
Sampling rate                            : 48.0 KHz
Compression mode                         : Lossy
Stream size                              : 50.2 MiB (15%)
Language                                 : Russian
Encoded date                             : UTC 2015-10-18 23:45:59
Tagged date                              : UTC 2015-10-18 23:46:00

Скриншоты:



Время раздачи: 24/7 до трёх скачавших
 
Не забывайте говорить Спасибо. Не уходите с раздачи!   
Торрент: Зарегистрирован [22 окт 2015, 08:51] Для скачивания .torrent
необходима регистрация
Или скачать с помощью
MediaGet
Статус:
Проверен
 
.torrent скачан: 0 раз
Хэш: b7e9dce5c1f49d65eb1891b2d01061f98b9e8589
Размер: 7.79 ГБ (8 367 831 071 байт)
Стать Автором раздачи
 
 
Раздал: 6.67 ГБ
Скачал: 302.5 МБ
Ратио: 22.576
Сообщения: 374198
Зарегистрирован: 17 апр 2014, 11:05


  • Похожие торренты
    Ответы
    Просмотры
    Последнее сообщение

Вернуться в Видео для мобильных устройств

Ресурс не предоставляет электронные версии произведений, а занимается лишь коллекционированием и каталогизацией ссылок, присылаемых и публикуемых на форуме нашими читателями. Если вы являетесь правообладателем какого-либо представленного материала и не желаете чтобы ссылка на него находилась в нашем каталоге, свяжитесь с нами и мы незамедлительно удалим её. Файлы для обмена на трекере предоставлены пользователями сайта, и администрация не несёт ответственности за их содержание. Просьба не заливать файлы, защищенные авторскими правами, а также файлы нелегального содержания!
cron