Наедине со всеми. Ирина Аллегрова (Эфир от 19.10.2015) [2015, Документальный, Тв-шоу, HDTV 1080i] [1 канал HD]

 
 Статистика раздачи 
Размер: 2.28 ГБ   |  Зарегистрирован: 20 окт 2015, 11:24   |   .torrent скачан: 0 раз
Сидеров: 1  [ 0 байт/сек ]     Личеров: 0  [ 0 байт/сек ]  
  

Наедине со всеми. Ирина Аллегрова (Эфир от 19.10.2015) [2015, Документальный, Тв-шоу, HDTV 1080i] [1 канал HD]

Сообщение Satch » 20 окт 2015, 11:24

Наедине со всеми. Ирина Аллегрова

Год выпуска: 2015
Страна: Россия
Студия: Первый канал
Жанр: Тв-шоу, Документальный
Продолжительность: 00:44:49
Перевод: Не требуется
Русские субтитры: нет
Ведущая: Юлия Меньшова
Выпущено: Россия, Первый канал.

Описание: «Наедине со всеми» — это программа-портрет: люди через призму наиболее известных, серьезных и важных событий их жизни. Нас интересует не столько информация, сколько чувства. Конечно, степень открытости будет зависеть от собеседника. Но многие гости программы знают меня лично, и это помогает сделать разговор комфортным для собеседника и говорить на темы, о которых они обычно предпочитают молчать. Очень часто журналисты задают стандартные вопросы, и суть человека ускользает. Моя задача поймать эту суть, и мне кажется, она заключена именно в чувствах, а не в словах. При подготовке к каждой программе я читаю громадное количество информации о герое, поднимаю весь бэкграунд и попытаюсь уловить, что интересует людей в отношении моего героя".
В этом выпуске: Ее имя золотыми буквами вписано в книгу российской эстрады, где она неизменно – Императрица. Она всегда мечтала о зрительской любви и добилась ее. На сцене – яркая сексуальная дива, дома – любящая мама, бабушка и настоящая хозяйка, о чьих кулинарных способностях ходят легенды. Она четыре раза была замужем, но признается, что так и не встретила мужчину сильнее себя. Она редко дает интервью, но, соглашаясь, уверена, что должна говорить только правду.

Наедине со всеми - народная артистка России Ирина Аллегрова.
Источник: Собственный рип.

Доп. информация: Рип чистый. Без посторонних надписей. Выкладывается как есть.


Качество: HDTV 1080i
Контейнер: TS
Видео кодек: H.264
Аудио кодек: MP2
Видео: AVC, 1920x1080 (16:9) 25.000 fps 6 700 Kbps, 0.129 bit/pixel
Аудио: MPEG Audio 48000Hz stereo 224 Кбит/сек 2 channels
Общее
Идентификатор : 1 (0x1)
Полное имя : H:\Раздачи\Программы, передачи, шоу, спектакли\Наедине со всеми\Наедине со всеми. Ирина Аллегрова (2015, HDTV 1080i, Документальный, Тв-шоу, Эфир от 19.10.2015) (by Nokia5150).ts
Формат : MPEG-TS
Размер файла : 2,28 Гбайт
Продолжительность : 44 м.
Режим общего битрейта : Переменный
Общий поток : 7286 Кбит/сек
Видео
Идентификатор : 2661 (0xA65)
Идентификатор меню : 1 (0x1)
Формат : AVC
Формат/Информация : Advanced Video Codec
Профиль формата : High@L4
Параметр CABAC формата : Да
Параметр ReFrames формата : 3 кадра
Идентификатор кодека : 27
Продолжительность : 44 м.
Битрейт : 6700 Кбит/сек
Ширина : 1920 пикселей
Высота : 1080 пикселей
Соотношение сторон : 16:9
Частота кадров : 25,000 кадров/сек
Стандарт вещания : Component
Цветовое пространство : YUV
Субдискретизация насыщенности : 4:2:0
Битовая глубина : 8 бит
Тип развёртки : Чересстрочная
Порядок развёртки : Верхнее поле первое
Бит/(Пиксели*Кадры) : 0.129
Размер потока : 2,10 Гбайт (92%)
colour_range : Limited
Основные цвета : BT.709
Характеристики трансфера : BT.709
Коэффициенты матрицы : BT.709

Аудио
Идентификатор : 3661 (0xE4D)
Идентификатор меню : 1 (0x1)
Формат : MPEG Audio
Версия формата : Version 1
Профиль формата : Layer 2
Идентификатор кодека : 3
Продолжительность : 44 м.
Вид битрейта : Постоянный
Битрейт : 224 Кбит/сек
Каналы : 2 канала
Частота : 48,0 КГц
Метод сжатия : С потерями
Размер потока : 71,8 Мбайт (3%)
Язык : Russian

 
Не забывайте говорить Спасибо. Не уходите с раздачи!   
Торрент: Зарегистрирован [20 окт 2015, 11:24] Для скачивания .torrent
необходима регистрация
Или скачать с помощью
MediaGet
Статус:
Проверен
 
.torrent скачан: 0 раз
Хэш: 65d8eb36a9faf3ef404e9ca27eec0057ea9e4c77
Размер: 2.28 ГБ (2 449 191 996 байт)
Стать Автором раздачи
 
Аватара пользователя
 
Раздал: 2.45 ГБ
Скачал: 15.94 МБ
Ратио: 157.696
Сообщения: 337733
Зарегистрирован: 16 янв 2012, 17:03


  • Похожие торренты
    Ответы
    Просмотры
    Последнее сообщение

Вернуться в Телепередачи (HD Video), не являющиеся документалистикой

Кто сейчас на конференции

Сейчас эту тему просматривают: нет зарегистрированных пользователей и гости: 1

Ресурс не предоставляет электронные версии произведений, а занимается лишь коллекционированием и каталогизацией ссылок, присылаемых и публикуемых на форуме нашими читателями. Если вы являетесь правообладателем какого-либо представленного материала и не желаете чтобы ссылка на него находилась в нашем каталоге, свяжитесь с нами и мы незамедлительно удалим её. Файлы для обмена на трекере предоставлены пользователями сайта, и администрация не несёт ответственности за их содержание. Просьба не заливать файлы, защищенные авторскими правами, а также файлы нелегального содержания!