Дорога (1955) DVDRip [H.264] [MP4|720x480]

 
 Статистика раздачи 
Размер: 785.35 МБ   |  Зарегистрирован: 16 окт 2015, 02:30   |   .torrent скачан: 1 раз
Сидеров: 1  [ 0 байт/сек ]     Личеров: 2  [ 0 байт/сек ]  
  

Дорога (1955) DVDRip [H.264] [MP4|720x480]

Сообщение ExaByte » 16 окт 2015, 02:30

Дорога (1955) DVDRip

Производство: CCCР
Жанр: Детектив

Режиссер: Е. Зильберштейн
Актеры: Актеры: Андрей Попов, Виталий Доронин, Николай Гриценко, Тамара Логинова, Лев Свердлин, Виктор Авдюшко, Евгений Матвеев, Евгений Леонов, Владимир Кенигсон, Борис Битюков

Описание:
На одной из автостанций горной дороги Дальнего Востока из-за снегопадов застряли десятки машин с пассажирами и срочным грузом. Под вечер на станцию прибывают ещё два пассажира — капитан госбезопасности и «иностранный турист». Утром, несмотря на пургу, автоколонна направляется на штурм перевала. Никто не подозревает, что капитан сопровождает диверсанта, назначившего встречу на перевале.



Продолжительность: 01:36:34
Качество видео: DVDRip

Видео: AVC/H.264, 720x480 (4:3), ~1000 kbps
Аудио: AAC, 2 ch, 128 kbps
Код:
Код: Выделить всё
General
Complete name                  : C:\Users\Mersicc\Documents\Дорога (1955).mp4
Format                         : MPEG-4
Format profile                 : Base Media
Codec ID                       : isom
File size                      : 785 MiB
Duration                       : 1h 36mn
Overall bit rate mode          : Variable
Overall bit rate               : 1 137 Kbps
Encoded date                   : UTC 1970-01-01 00:00:00
Tagged date                    : UTC 1970-01-01 00:00:00
Writing application            : Lavf52.31.0

Video
ID                             : 1
Format                         : AVC
Format/Info                    : Advanced Video Codec
Format profile                 :
Format settings, CABAC         : Yes
Format settings, ReFrames      : 5 frames
Codec ID                       : avc1
Codec ID/Info                  : Advanced Video Coding
Duration                       : 1h 36mn
Bit rate                       : 1 005 Kbps
Width                          : 720 pixels
Height                         : 480 pixels
Display aspect ratio           : 4:3
Frame rate mode                : Variable
Frame rate                     : 25.000 fps
Minimum frame rate             : 12.500 fps
Maximum frame rate             : 25.000 fps
Standard                       : NTSC
Color space                    : YUV
Chroma subsampling             : 4:2:0
Bit depth                      : 8 bits
Scan type                      : Progressive
Bits/(Pixel*Frame)             : 0.116
Stream size                    : 694 MiB (88%)
Language                       : Russian
Encoded date                   : UTC 1970-01-01 00:00:00
Tagged date                    : UTC 2011-09-30 05:13:58

Audio
ID                             : 2
Format                         : AAC
Format/Info                    : Advanced Audio Codec
Format profile                 : LC
Codec ID                       : 40
Duration                       : 1h 36mn
Bit rate mode                  : Variable
Bit rate                       : 128 Kbps
Channel(s)                     : 2 channels
Channel positions              : Front: L R
Sampling rate                  : 48.0 KHz
Compression mode               : Lossy
Stream size                    : 88.4 MiB (11%)
Language                       : Russian
Encoded date                   : UTC 1970-01-01 00:00:00
Tagged date                    : UTC 2011-09-30 05:13:58

Скриншоты:



Время раздачи: 24/7 (круглосуточно)
 
Не забывайте говорить Спасибо. Не уходите с раздачи!   
Торрент: Зарегистрирован [16 окт 2015, 02:30] Для скачивания .torrent
необходима регистрация
Или скачать с помощью
MediaGet
Статус:
Проверен
 
.torrent скачан: 1 раз
Хэш: 200a7d0c0d3c59d5df006a81d6cbdb24b352eb56
Размер: 785.35 МБ (823 501 425 байт)
Стать Автором раздачи
 
 
Раздал: 2.54 ГБ
Скачал: 0 байт
Ратио: Seed.
Сообщения: 236702
Зарегистрирован: 05 июл 2013, 10:11


  • Похожие торренты
    Ответы
    Просмотры
    Последнее сообщение

Вернуться в Видео для мобильных устройств

Ресурс не предоставляет электронные версии произведений, а занимается лишь коллекционированием и каталогизацией ссылок, присылаемых и публикуемых на форуме нашими читателями. Если вы являетесь правообладателем какого-либо представленного материала и не желаете чтобы ссылка на него находилась в нашем каталоге, свяжитесь с нами и мы незамедлительно удалим её. Файлы для обмена на трекере предоставлены пользователями сайта, и администрация не несёт ответственности за их содержание. Просьба не заливать файлы, защищенные авторскими правами, а также файлы нелегального содержания!
cron