Знание - Сила (03.10.2015) WEB-DL

 
 Статистика раздачи 
Размер: 537.99 МБ   |  Зарегистрирован: 12 окт 2015, 01:26   |   .torrent скачан: 0 раз
Сидеров: 1  [ 0 байт/сек ]     Личеров: 0  [ 0 байт/сек ]  
  

Знание - Сила (03.10.2015) WEB-DL

Сообщение Seepas » 12 окт 2015, 01:26

Знание - Сила (03.10.2015) (2015) WEB-DL

Телекомпания: Россия HD
Жанр: Телепередача

Описание:
Популярный ведущий телеканала "Россия" Дмитрий Киселев выступит в новом амплуа. В борьбе за миллион рублей его гостям предстоит ответить на вопросы из разных областей науки, искусства, истории и кино.

Продолжительность: 0:38:56
Качество видео: WEB-DL

Видео: AVC/H.264, 1280x720, ~1800 kbps
Аудио: AAC, 2 ch, 125-179, VBR
Код:
Код: Выделить всё
Общее
Полное имя                               : Знание сила.mp4
Формат                                   : MPEG-4
Профиль формата                          : Base Media / Version 2
Идентификатор кодека                     : mp42
Размер файла                             : 538 Мбайт
Продолжительность                        : 38 м.
Режим общего битрейта                    : Переменный
Общий поток                              : 1932 Кбит/сек
Дата кодирования                         : UTC 2015-10-10 16:23:23
Дата пометки                             : UTC 2015-10-10 16:23:23

Видео
Идентификатор                            : 1
Формат                                   : AVC
Формат/Информация                        : Advanced Video Codec
Профиль формата                          :
Параметр CABAC формата                   : Да
Параметр ReFrames формата                : 2 кадра
Идентификатор кодека                     : avc1
Идентификатор кодека/Информация          : Advanced Video Coding
Продолжительность                        : 38 м.
Вид битрейта                             : Постоянный
Битрейт                                  : 1800 Кбит/сек
Ширина                                   : 1280 пикселей
Высота                                   : 720 пикселей
Соотношение сторон                       : 16:9
Режим частоты кадров                     : Постоянный
Частота кадров                           : 25,000 кадров/сек
Стандарт вещания                         : PAL
Цветовое пространство                    : YUV
Субдискретизация насыщенности            : 4:2:0
Битовая глубина                          : 8 бит
Тип развёртки                            : Прогрессивная
Бит/(Пиксели*Кадры)                      : 0.078
Размер потока                            : 502 Мбайт (93%)
Язык                                     : English
Дата кодирования                         : UTC 2015-10-10 16:23:23
Дата пометки                             : UTC 2015-10-10 16:23:23
colour_range                             : Limited
Основные цвета                           : BT.709
Характеристики трансфера                 : BT.709
Коэффициенты матрицы                     : BT.709

Аудио
Идентификатор                            : 2
Формат                                   : AAC
Формат/Информация                        : Advanced Audio Codec
Профиль формата                          : LC
Идентификатор кодека                     : 40
Продолжительность                        : 38 м.
Вид битрейта                             : Переменный
Битрейт                                  : 125 Кбит/сек
Максимальный битрейт                     : 179 Кбит/сек
Каналы                                   : 2 канала
Расположение каналов                     : Front: L R
Частота                                  : 48,0 КГц
Метод сжатия                             : С потерями
Размер потока                            : 34,9 Мбайт (6%)
Язык                                     : English
Дата кодирования                         : UTC 2015-10-10 16:23:23
Дата пометки                             : UTC 2015-10-10 16:23:23

Скриншоты:




Время раздачи: 8-23
 
Не забывайте говорить Спасибо. Не уходите с раздачи!   
Торрент: Зарегистрирован [12 окт 2015, 01:26] Для скачивания .torrent
необходима регистрация
Или скачать с помощью
MediaGet
Статус:
Проверен
 
.torrent скачан: 0 раз
Хэш: e63c2556a08bfc18ba659d5c5e201f31b759ea2d
Размер: 537.99 МБ (564 118 606 байт)
Стать Автором раздачи
 
 
Раздал: 0 байт
Скачал: 0 байт
Ратио: Inf.
Сообщения: 188877
Зарегистрирован: 14 июн 2014, 20:46


  • Похожие торренты
    Ответы
    Просмотры
    Последнее сообщение

Вернуться в Видео для мобильных устройств

Ресурс не предоставляет электронные версии произведений, а занимается лишь коллекционированием и каталогизацией ссылок, присылаемых и публикуемых на форуме нашими читателями. Если вы являетесь правообладателем какого-либо представленного материала и не желаете чтобы ссылка на него находилась в нашем каталоге, свяжитесь с нами и мы незамедлительно удалим её. Файлы для обмена на трекере предоставлены пользователями сайта, и администрация не несёт ответственности за их содержание. Просьба не заливать файлы, защищенные авторскими правами, а также файлы нелегального содержания!
cron