25/17 - Русский подорожник (Сборник видеоклипов) (2014) WEB-DLRip

 
 Статистика раздачи 
Размер: 600.08 МБ   |  Зарегистрирован: 08 окт 2015, 00:01   |   .torrent скачан: 0 раз
Сидеров: 1  [ 0 байт/сек ]     Личеров: 0  [ 0 байт/сек ]  
  

25/17 - Русский подорожник (Сборник видеоклипов) (2014) WEB-DLRip

Сообщение Seepas » 08 окт 2015, 00:01

25/17 - Русский подорожник (Сборник видеоклипов) (2014) WEB-DLRip

Жанр: Rap, Rap-Rock, Rock, Punk-rock
Режиссер: 25/17
Актеры: Андрей Позднухов (Бледный), Антон Завьялов (Ант)
Описание: Участники: Андрей Позднухов (Бледный) и Антон Завьялов (Ант).
Группа 25/17 была создана Андреем Бледным в 2002 году в Москве и до 2009 года была известна как «Иезекииль 25:17» (библейский стих из книги ветхозаветного пророка Иезекииля, цитируемый персонажем Самуэля Л. Джексона в фильме «Криминальное чтиво»). В 2007 году концертным диджеем группы стал DJ Navvy. С 2012 года группа 25/17 выступает с концертным составом музыкантов.
После первых прослушиваний альбома я долго пытался понять, насколько я русский человек и русский ли вообще, много вспоминал отдельные моменты и разговоры на тему. И никак не мог вспомнить, когда ещё музыка так задевало за живое.
Леша Горбаш. The Flow

Эти люди — на пике формы.
Андрей Никитин. The Flow

«РП» — это очень русская пластинка. В той же мере, насколько прилепинский «Грех» — очень русская книга, а балабановский «Брат» — русский фильм. Здесь все про нас.
Андрей Недашковский. The Flow

C этого альбома нужно навсегда запретить себе рассматривать 25/17 в парадигме русского рэпа, теперь это лучшие люди отечественного рока.
Руслан Муннибаев. The Flow

Если говорить о «Русском подорожнике», то это, конечно, и фильм года, и режиссер года, и лучшие актерские работы, и лучшие стихи.
Борис Барабанов. Ъ-Weekend

«Русский подорожник» — самоценный сложный мир, в котором много боли, страсти, жизни, но человек в нём «измеряется не с ног до головы, а от головы до неба» (Конфуций).
Андрей Смирнов. «Завтра»

В итоге на пластинке мы имеем дело с близким к идеальному сочетанием пения и речитатива.
Алексей Мажаев. InterMedia

В русском рэпе Бледный и Ант давно на первых ролях, а сейчас выходят на первые роли в русском роке.
Сергей Рязанов. «Аргументы Недели»

Ант и Бледный, создатели «25/17», живые классики «русского рэпа» (именно русского, так как пародии на негритянский рэп были в нашей стране и до «25/17»), могут, похоже, стать его невольными могильщиками.
Константин Душенов

Пафосный и припадающий к земле русский хип-хоп не лучшего качества.
«Афиша Волна»

Это смертельно серьезный, агрессивно-задушевный эпос о том, как на Руси жить никому не хорошо, но надо, потому что это наша родина, сынок.
Сергей Мезенов. Colta

«Подорожник» даже безотносительно к реакции публики — безусловно, выход на новый уровень для самой группы.
Михаил Савотиков. ONE AGE RADIO
Продолжительность: 00:44:52
Качество видео: WEB-DLRip
Перевод: Не требуется

Видео: AVC/H.264, 1280х720, ~1340 - 1620 kbps
Аудио: AAC, 2 ch, 192Kbps тип VBR
Треклист:
01. Подорожник п.у. Дмитрий Ревякин
02. Под цыганским солнцем
03. Чернотроп
04. Поезд
05. Горький Туман
06. Волчонок
07. Облако
08. Последний из нас
09. Думай сам
10. Зима-мама
11. Девятибально
12. Отец
Код:
Код: Выделить всё
General
Complete name               : C:\Users\Администратор\Desktop\Новая папка\25_17 01. Подорожник п.у. Дмитрий Ревякин (Русский подорожник 2014).mp4
Format                      : MPEG-4
Format profile              : Base Media / Version 2
Codec ID                    : mp42
File size                   : 42.7 MiB
Duration                    : 3mn 29s
Overall bit rate mode       : Variable
Overall bit rate            : 1 705 Kbps
Encoded date                : UTC 2015-05-18 19:26:00
Tagged date                 : UTC 2015-05-18 19:26:00
gsst                        : 0
gstd                        : 209976
gssd                        : BADC2154AHM1443988585373765
gshh                        : r10---sn-3c27ln7e.googlevideo.com

Video
ID                          : 1
Format                      : AVC
Format/Info                 : Advanced Video Codec
Format profile              :
Format settings, CABAC      : Yes
Format settings, ReFrames   : 1 frame
Format settings, GOP        : M=1, N=60
Codec ID                    : avc1
Codec ID/Info               : Advanced Video Coding
Duration                    : 3mn 29s
Bit rate                    : 1 511 Kbps
Maximum bit rate            : 4 678 Kbps
Width                       : 1 280 pixels
Height                      : 720 pixels
Display aspect ratio        : 16:9
Frame rate mode             : Constant
Frame rate                  : 24.000 fps
Color space                 : YUV
Chroma subsampling          : 4:2:0
Bit depth                   : 8 bits
Scan type                   : Progressive
Bits/(Pixel*Frame)          : 0.068
Stream size                 : 37.8 MiB (89%)
Tagged date                 : UTC 2015-05-18 19:26:05

Audio
ID                          : 2
Format                      : AAC
Format/Info                 : Advanced Audio Codec
Format profile              : LC
Codec ID                    : 40
Duration                    : 3mn 29s
Bit rate mode               : Variable
Bit rate                    : 192 Kbps
Maximum bit rate            : 201 Kbps
Channel(s)                  : 2 channels
Channel positions           : Front: L R
Sampling rate               : 44.1 KHz
Compression mode            : Lossy
Stream size                 : 4.80 MiB (11%)
Title                       : IsoMedia File Produced by Google, 5-11-2011
Encoded date                : UTC 2015-05-18 19:26:03
Tagged date                 : UTC 2015-05-18 19:26:05
General
Complete name               : C:\Users\Администратор\Desktop\Новая папка\25_17 02. Под цыганским солнцем (Русский подорожник 2014).mp4
Format                      : MPEG-4
Format profile              : Base Media / Version 2
Codec ID                    : mp42
File size                   : 39.4 MiB
Duration                    : 3mn 35s
Overall bit rate mode       : Variable
Overall bit rate            : 1 529 Kbps
Encoded date                : UTC 2014-09-06 01:26:18
Tagged date                 : UTC 2014-09-06 01:26:18
gsst                        : 0
gstd                        : 216015
gssd                        : BADC230E7HM1443988597992060
gshh                        : r7---sn-3c27ln7y.googlevideo.com

Video
ID                          : 1
Format                      : AVC
Format/Info                 : Advanced Video Codec
Format profile              :
Format settings, CABAC      : Yes
Format settings, ReFrames   : 1 frame
Codec ID                    : avc1
Codec ID/Info               : Advanced Video Coding
Duration                    : 3mn 35s
Bit rate                    : 1 334 Kbps
Maximum bit rate            : 5 595 Kbps
Width                       : 1 280 pixels
Height                      : 720 pixels
Display aspect ratio        : 16:9
Frame rate mode             : Constant
Frame rate                  : 24.000 fps
Color space                 : YUV
Chroma subsampling          : 4:2:0
Bit depth                   : 8 bits
Scan type                   : Progressive
Bits/(Pixel*Frame)          : 0.060
Stream size                 : 34.3 MiB (87%)
Tagged date                 : UTC 2014-09-06 01:26:19

Audio
ID                          : 2
Format                      : AAC
Format/Info                 : Advanced Audio Codec
Format profile              : LC
Codec ID                    : 40
Duration                    : 3mn 35s
Bit rate mode               : Variable
Bit rate                    : 192 Kbps
Maximum bit rate            : 201 Kbps
Channel(s)                  : 2 channels
Channel positions           : Front: L R
Sampling rate               : 44.1 KHz
Compression mode            : Lossy
Stream size                 : 4.94 MiB (13%)
Title                       : IsoMedia File Produced by Google, 5-11-2011
Encoded date                : UTC 2014-09-06 01:26:19
Tagged date                 : UTC 2014-09-06 01:26:19

General
Complete name               : C:\Users\Администратор\Desktop\Новая папка\25_17 03. Чернотроп (Русский подорожник 2014).mp4
Format                      : MPEG-4
Format profile              : Base Media / Version 2
Codec ID                    : mp42
File size                   : 47.9 MiB
Duration                    : 4mn 9s
Overall bit rate mode       : Variable
Overall bit rate            : 1 609 Kbps
Encoded date                : UTC 2014-09-06 01:26:46
Tagged date                 : UTC 2014-09-06 01:26:46
gsst                        : 0
gstd                        : 249985
gssd                        : BADC21544HM1443988604505988
gshh                        : r4---sn-3c27ln7e.googlevideo.com

Video
ID                          : 1
Format                      : AVC
Format/Info                 : Advanced Video Codec
Format profile              :
Format settings, CABAC      : Yes
Format settings, ReFrames   : 1 frame
Codec ID                    : avc1
Codec ID/Info               : Advanced Video Coding
Duration                    : 4mn 9s
Bit rate                    : 1 415 Kbps
Maximum bit rate            : 7 098 Kbps
Width                       : 1 280 pixels
Height                      : 720 pixels
Display aspect ratio        : 16:9
Frame rate mode             : Constant
Frame rate                  : 24.000 fps
Color space                 : YUV
Chroma subsampling          : 4:2:0
Bit depth                   : 8 bits
Scan type                   : Progressive
Bits/(Pixel*Frame)          : 0.064
Stream size                 : 42.2 MiB (88%)
Tagged date                 : UTC 2014-09-06 01:26:48

Audio
ID                          : 2
Format                      : AAC
Format/Info                 : Advanced Audio Codec
Format profile              : LC
Codec ID                    : 40
Duration                    : 4mn 9s
Bit rate mode               : Variable
Bit rate                    : 192 Kbps
Maximum bit rate            : 201 Kbps
Channel(s)                  : 2 channels
Channel positions           : Front: L R
Sampling rate               : 44.1 KHz
Compression mode            : Lossy
Stream size                 : 5.72 MiB (12%)
Title                       : IsoMedia File Produced by Google, 5-11-2011
Encoded date                : UTC 2014-09-06 01:26:47
Tagged date                 : UTC 2014-09-06 01:26:48

General
Complete name               : C:\Users\Администратор\Desktop\Новая папка\25_17 04. Поезд (Русский подорожник 2014).mp4
Format                      : MPEG-4
Format profile              : Base Media / Version 2
Codec ID                    : mp42
File size                   : 81.4 MiB
Duration                    : 4mn 6s
Overall bit rate mode       : Variable
Overall bit rate            : 2 772 Kbps
Encoded date                : UTC 2014-09-23 01:37:50
Tagged date                 : UTC 2014-09-23 01:37:50
gsst                        : 0
gstd                        : 246501
gssd                        : BADC21542MM1443988612268785
gshh                        : r2---sn-3c27ln7e.googlevideo.com

Video
ID                          : 1
Format                      : AVC
Format/Info                 : Advanced Video Codec
Format profile              :
Format settings, CABAC      : Yes
Format settings, ReFrames   : 1 frame
Codec ID                    : avc1
Codec ID/Info               : Advanced Video Coding
Duration                    : 4mn 6s
Bit rate                    : 2 577 Kbps
Maximum bit rate            : 6 385 Kbps
Width                       : 1 280 pixels
Height                      : 720 pixels
Display aspect ratio        : 16:9
Frame rate mode             : Constant
Frame rate                  : 25.000 fps
Color space                 : YUV
Chroma subsampling          : 4:2:0
Bit depth                   : 8 bits
Scan type                   : Progressive
Bits/(Pixel*Frame)          : 0.112
Stream size                 : 75.7 MiB (93%)
Tagged date                 : UTC 2014-09-23 01:37:52

Audio
ID                          : 2
Format                      : AAC
Format/Info                 : Advanced Audio Codec
Format profile              : LC
Codec ID                    : 40
Duration                    : 4mn 6s
Bit rate mode               : Variable
Bit rate                    : 192 Kbps
Maximum bit rate            : 201 Kbps
Channel(s)                  : 2 channels
Channel positions           : Front: L R
Sampling rate               : 44.1 KHz
Compression mode            : Lossy
Stream size                 : 5.64 MiB (7%)
Title                       : IsoMedia File Produced by Google, 5-11-2011
Encoded date                : UTC 2014-09-23 01:37:52

General
Complete name               : C:\Users\Администратор\Desktop\Новая папка\25_17 05. Горький Туман (Русский подорожник 2014).mp4
Format                      : MPEG-4
Format profile              : Base Media / Version 2
Codec ID                    : mp42
File size                   : 41.9 MiB
Duration                    : 3mn 56s
Overall bit rate mode       : Variable
Overall bit rate            : 1 490 Kbps
Encoded date                : UTC 2015-04-17 08:16:10
Tagged date                 : UTC 2015-04-17 08:16:10
gsst                        : 0
gstd                        : 236053
gssd                        : BADC21582MM1443988619248463
gshh                        : r2---sn-3c27ln7z.googlevideo.com

Video
ID                          : 1
Format                      : AVC
Format/Info                 : Advanced Video Codec
Format profile              :
Format settings, CABAC      : Yes
Format settings, ReFrames   : 1 frame
Codec ID                    : avc1
Codec ID/Info               : Advanced Video Coding
Duration                    : 3mn 56s
Bit rate                    : 1 295 Kbps
Maximum bit rate            : 4 073 Kbps
Width                       : 1 280 pixels
Height                      : 720 pixels
Display aspect ratio        : 16:9
Frame rate mode             : Constant
Frame rate                  : 24.000 fps
Color space                 : YUV
Chroma subsampling          : 4:2:0
Bit depth                   : 8 bits
Scan type                   : Progressive
Bits/(Pixel*Frame)          : 0.059
Stream size                 : 36.4 MiB (87%)
Encoded date                : UTC 1970-01-01 00:00:00
Tagged date                 : UTC 2015-04-17 08:16:12

Audio
ID                          : 2
Format                      : AAC
Format/Info                 : Advanced Audio Codec
Format profile              : LC
Codec ID                    : 40
Duration                    : 3mn 56s
Bit rate mode               : Variable
Bit rate                    : 192 Kbps
Maximum bit rate            : 201 Kbps
Channel(s)                  : 2 channels
Channel positions           : Front: L R
Sampling rate               : 44.1 KHz
Compression mode            : Lossy
Stream size                 : 5.40 MiB (13%)
Title                       : IsoMedia File Produced by Google, 5-11-2011
Encoded date                : UTC 2015-04-17 08:16:11
Tagged date                 : UTC 2015-04-17 08:16:12

General
Complete name               : C:\Users\Администратор\Desktop\Новая папка\25_17 06. Волчонок (Русский подорожник 2014).mp4
Format                      : MPEG-4
Format profile              : Base Media / Version 2
Codec ID                    : mp42
File size                   : 39.9 MiB
Duration                    : 3mn 30s
Overall bit rate mode       : Variable
Overall bit rate            : 1 590 Kbps
Encoded date                : UTC 2014-09-11 01:35:47
Tagged date                 : UTC 2014-09-11 01:35:47
gsst                        : 0
gstd                        : 210558
gssd                        : BADC21548HM1443988627289679
gshh                        : r8---sn-3c27ln7e.googlevideo.com

Video
ID                          : 1
Format                      : AVC
Format/Info                 : Advanced Video Codec
Format profile              :
Format settings, CABAC      : Yes
Format settings, ReFrames   : 1 frame
Codec ID                    : avc1
Codec ID/Info               : Advanced Video Coding
Duration                    : 3mn 30s
Bit rate                    : 1 395 Kbps
Maximum bit rate            : 4 752 Kbps
Width                       : 1 280 pixels
Height                      : 720 pixels
Display aspect ratio        : 16:9
Frame rate mode             : Constant
Frame rate                  : 24.000 fps
Color space                 : YUV
Chroma subsampling          : 4:2:0
Bit depth                   : 8 bits
Scan type                   : Progressive
Bits/(Pixel*Frame)          : 0.063
Stream size                 : 35.0 MiB (88%)
Tagged date                 : UTC 2014-09-11 01:35:48

Audio
ID                          : 2
Format                      : AAC
Format/Info                 : Advanced Audio Codec
Format profile              : LC
Codec ID                    : 40
Duration                    : 3mn 30s
Bit rate mode               : Variable
Bit rate                    : 192 Kbps
Maximum bit rate            : 201 Kbps
Channel(s)                  : 2 channels
Channel positions           : Front: L R
Sampling rate               : 44.1 KHz
Compression mode            : Lossy
Stream size                 : 4.82 MiB (12%)
Title                       : IsoMedia File Produced by Google, 5-11-2011
Encoded date                : UTC 2014-09-11 01:35:48
Tagged date                 : UTC 2014-09-11 01:35:48

General
Complete name               : C:\Users\Администратор\Desktop\Новая папка\25_17 07. Облако (Русский подорожник 2014).mp4
Format                      : MPEG-4
Format profile              : Base Media / Version 2
Codec ID                    : mp42
File size                   : 35.9 MiB
Duration                    : 3mn 32s
Overall bit rate mode       : Variable
Overall bit rate            : 1 414 Kbps
Encoded date                : UTC 2015-04-22 10:32:05
Tagged date                 : UTC 2015-04-22 10:32:05
gsst                        : 0
gstd                        : 212973
gssd                        : BADC21503HM1443988632665207
gshh                        : r3---sn-3c27ln7r.googlevideo.com

Video
ID                          : 1
Format                      : AVC
Format/Info                 : Advanced Video Codec
Format profile              :
Format settings, CABAC      : Yes
Format settings, ReFrames   : 1 frame
Codec ID                    : avc1
Codec ID/Info               : Advanced Video Coding
Duration                    : 3mn 32s
Bit rate                    : 1 219 Kbps
Maximum bit rate            : 3 236 Kbps
Width                       : 1 280 pixels
Height                      : 720 pixels
Display aspect ratio        : 16:9
Frame rate mode             : Constant
Frame rate                  : 24.000 fps
Color space                 : YUV
Chroma subsampling          : 4:2:0
Bit depth                   : 8 bits
Scan type                   : Progressive
Bits/(Pixel*Frame)          : 0.055
Stream size                 : 30.9 MiB (86%)
Encoded date                : UTC 1970-01-01 00:00:00
Tagged date                 : UTC 2015-04-22 10:32:07

Audio
ID                          : 2
Format                      : AAC
Format/Info                 : Advanced Audio Codec
Format profile              : LC
Codec ID                    : 40
Duration                    : 3mn 32s
Bit rate mode               : Variable
Bit rate                    : 192 Kbps
Maximum bit rate            : 201 Kbps
Channel(s)                  : 2 channels
Channel positions           : Front: L R
Sampling rate               : 44.1 KHz
Compression mode            : Lossy
Stream size                 : 4.87 MiB (14%)
Title                       : IsoMedia File Produced by Google, 5-11-2011
Encoded date                : UTC 2015-04-22 10:32:06
Tagged date                 : UTC 2015-04-22 10:32:07

General
Complete name               : C:\Users\Администратор\Desktop\Новая папка\25_17 08. Последний из нас (Русский подорожник 2014).mp4
Format                      : MPEG-4
Format profile              : Base Media / Version 2
Codec ID                    : mp42
File size                   : 43.3 MiB
Duration                    : 3mn 47s
Overall bit rate mode       : Variable
Overall bit rate            : 1 594 Kbps
Encoded date                : UTC 2015-04-20 10:34:07
Tagged date                 : UTC 2015-04-20 10:34:07
gsst                        : 0
gstd                        : 227880
gssd                        : BADC2150AHM1443988638498576
gshh                        : r10---sn-3c27ln7r.googlevideo.com

Video
ID                          : 1
Format                      : AVC
Format/Info                 : Advanced Video Codec
Format profile              :
Format settings, CABAC      : Yes
Format settings, ReFrames   : 1 frame
Codec ID                    : avc1
Codec ID/Info               : Advanced Video Coding
Duration                    : 3mn 47s
Bit rate                    : 1 399 Kbps
Maximum bit rate            : 4 822 Kbps
Width                       : 1 280 pixels
Height                      : 720 pixels
Display aspect ratio        : 16:9
Frame rate mode             : Constant
Frame rate                  : 24.000 fps
Color space                 : YUV
Chroma subsampling          : 4:2:0
Bit depth                   : 8 bits
Scan type                   : Progressive
Bits/(Pixel*Frame)          : 0.063
Stream size                 : 38.0 MiB (88%)
Encoded date                : UTC 1970-01-01 00:00:00
Tagged date                 : UTC 2015-04-20 10:34:10

Audio
ID                          : 2
Format                      : AAC
Format/Info                 : Advanced Audio Codec
Format profile              : LC
Codec ID                    : 40
Duration                    : 3mn 47s
Bit rate mode               : Variable
Bit rate                    : 192 Kbps
Maximum bit rate            : 201 Kbps
Channel(s)                  : 2 channels
Channel positions           : Front: L R
Sampling rate               : 44.1 KHz
Compression mode            : Lossy
Stream size                 : 5.21 MiB (12%)
Title                       : IsoMedia File Produced by Google, 5-11-2011
Encoded date                : UTC 2015-04-20 10:34:09
Tagged date                 : UTC 2015-04-20 10:34:10

General
Complete name               : C:\Users\Администратор\Desktop\Новая папка\25_17 09. Думай сам (Русский подорожник 2014).mp4
Format                      : MPEG-4
Format profile              : Base Media / Version 2
Codec ID                    : mp42
File size                   : 65.3 MiB
Duration                    : 4mn 26s
Overall bit rate mode       : Variable
Overall bit rate            : 2 059 Kbps
Encoded date                : UTC 2015-04-22 11:03:15
Tagged date                 : UTC 2015-04-22 11:03:15
gsst                        : 0
gstd                        : 266216
gssd                        : BADC213C2HM1443988644907353
gshh                        : r2---sn-3c27ln7k.googlevideo.com

Video
ID                          : 1
Format                      : AVC
Format/Info                 : Advanced Video Codec
Format profile              :
Format settings, CABAC      : Yes
Format settings, ReFrames   : 1 frame
Codec ID                    : avc1
Codec ID/Info               : Advanced Video Coding
Duration                    : 4mn 26s
Bit rate                    : 1 864 Kbps
Maximum bit rate            : 10.6 Mbps
Width                       : 1 280 pixels
Height                      : 720 pixels
Display aspect ratio        : 16:9
Frame rate mode             : Constant
Frame rate                  : 24.000 fps
Color space                 : YUV
Chroma subsampling          : 4:2:0
Bit depth                   : 8 bits
Scan type                   : Progressive
Bits/(Pixel*Frame)          : 0.084
Stream size                 : 59.2 MiB (91%)
Encoded date                : UTC 1970-01-01 00:00:00
Tagged date                 : UTC 2015-04-22 11:03:17

Audio
ID                          : 2
Format                      : AAC
Format/Info                 : Advanced Audio Codec
Format profile              : LC
Codec ID                    : 40
Duration                    : 4mn 26s
Bit rate mode               : Variable
Bit rate                    : 192 Kbps
Maximum bit rate            : 201 Kbps
Channel(s)                  : 2 channels
Channel positions           : Front: L R
Sampling rate               : 44.1 KHz
Compression mode            : Lossy
Stream size                 : 6.09 MiB (9%)
Title                       : IsoMedia File Produced by Google, 5-11-2011
Encoded date                : UTC 2015-04-22 11:03:16
Tagged date                 : UTC 2015-04-22 11:03:17

General
Complete name               : C:\Users\Администратор\Desktop\Новая папка\25_17 10. Зима-мама (Русский подорожник 2014).mp4
Format                      : MPEG-4
Format profile              : Base Media / Version 2
Codec ID                    : mp42
File size                   : 52.7 MiB
Duration                    : 3mn 14s
Overall bit rate mode       : Variable
Overall bit rate            : 2 274 Kbps
Encoded date                : UTC 2014-11-28 21:42:58
Tagged date                 : UTC 2014-11-28 21:42:58
gsst                        : 0
gstd                        : 194581
gssd                        : BADC2150CHM1443988650637154
gshh                        : r12---sn-3c27ln7r.googlevideo.com

Video
ID                          : 1
Format                      : AVC
Format/Info                 : Advanced Video Codec
Format profile              :
Format settings, CABAC      : Yes
Format settings, ReFrames   : 1 frame
Codec ID                    : avc1
Codec ID/Info               : Advanced Video Coding
Duration                    : 3mn 14s
Bit rate                    : 2 080 Kbps
Maximum bit rate            : 5 529 Kbps
Width                       : 1 280 pixels
Height                      : 720 pixels
Display aspect ratio        : 16:9
Frame rate mode             : Constant
Frame rate                  : 25.000 fps
Color space                 : YUV
Chroma subsampling          : 4:2:0
Bit depth                   : 8 bits
Scan type                   : Progressive
Bits/(Pixel*Frame)          : 0.090
Stream size                 : 48.2 MiB (91%)
Tagged date                 : UTC 2014-11-28 21:42:59

Audio
ID                          : 2
Format                      : AAC
Format/Info                 : Advanced Audio Codec
Format profile              : LC
Codec ID                    : 40
Duration                    : 3mn 14s
Bit rate mode               : Variable
Bit rate                    : 192 Kbps
Maximum bit rate            : 201 Kbps
Channel(s)                  : 2 channels
Channel positions           : Front: L R
Sampling rate               : 44.1 KHz
Compression mode            : Lossy
Stream size                 : 4.45 MiB (8%)
Title                       : IsoMedia File Produced by Google, 5-11-2011
Encoded date                : UTC 2014-11-28 21:42:58
Tagged date                 : UTC 2014-11-28 21:42:59

General
Complete name               : C:\Users\Администратор\Desktop\Новая папка\25_17 11. Девятибально (Русский подорожник 2014).mp4
Format                      : MPEG-4
Format profile              : Base Media / Version 2
Codec ID                    : mp42
File size                   : 64.6 MiB
Duration                    : 3mn 48s
Overall bit rate mode       : Variable
Overall bit rate            : 2 372 Kbps
Encoded date                : UTC 2014-11-26 07:36:00
Tagged date                 : UTC 2014-11-26 07:36:00
gsst                        : 0
gstd                        : 228506
gssd                        : B4A7D0DEAHM1443988656498333
gshh                        : r10---sn-3c27ln7d.googlevideo.com

Video
ID                          : 1
Format                      : AVC
Format/Info                 : Advanced Video Codec
Format profile              :
Format settings, CABAC      : Yes
Format settings, ReFrames   : 1 frame
Format settings, GOP        : M=1, N=60
Codec ID                    : avc1
Codec ID/Info               : Advanced Video Coding
Duration                    : 3mn 48s
Bit rate                    : 2 178 Kbps
Maximum bit rate            : 7 982 Kbps
Width                       : 1 280 pixels
Height                      : 720 pixels
Display aspect ratio        : 16:9
Frame rate mode             : Constant
Frame rate                  : 24.000 fps
Color space                 : YUV
Chroma subsampling          : 4:2:0
Bit depth                   : 8 bits
Scan type                   : Progressive
Bits/(Pixel*Frame)          : 0.098
Stream size                 : 59.3 MiB (92%)
Tagged date                 : UTC 2014-11-26 07:36:02

Audio
ID                          : 2
Format                      : AAC
Format/Info                 : Advanced Audio Codec
Format profile              : LC
Codec ID                    : 40
Duration                    : 3mn 48s
Bit rate mode               : Variable
Bit rate                    : 192 Kbps
Maximum bit rate            : 201 Kbps
Channel(s)                  : 2 channels
Channel positions           : Front: L R
Sampling rate               : 44.1 KHz
Compression mode            : Lossy
Stream size                 : 5.23 MiB (8%)
Title                       : IsoMedia File Produced by Google, 5-11-2011
Encoded date                : UTC 2014-11-26 07:36:01
Tagged date                 : UTC 2014-11-26 07:36:02

General
Complete name               : C:\Users\Администратор\Desktop\Новая папка\25_17 12. Отец (Русский подорожник 2014).mp4
Format                      : MPEG-4
Format profile              : Base Media / Version 2
Codec ID                    : mp42
File size                   : 45.1 MiB
Duration                    : 3mn 14s
Overall bit rate mode       : Variable
Overall bit rate            : 1 946 Kbps
Encoded date                : UTC 2014-09-18 03:21:31
Tagged date                 : UTC 2014-09-18 03:21:31
gsst                        : 0
gstd                        : 194350
gssd                        : BADC21547HM1443988663042427
gshh                        : r7---sn-3c27ln7e.googlevideo.com

Video
ID                          : 1
Format                      : AVC
Format/Info                 : Advanced Video Codec
Format profile              :
Format settings, CABAC      : Yes
Format settings, ReFrames   : 1 frame
Format settings, GOP        : M=1, N=60
Codec ID                    : avc1
Codec ID/Info               : Advanced Video Coding
Duration                    : 3mn 14s
Bit rate                    : 1 752 Kbps
Maximum bit rate            : 8 793 Kbps
Width                       : 1 280 pixels
Height                      : 720 pixels
Display aspect ratio        : 16:9
Frame rate mode             : Constant
Frame rate                  : 24.000 fps
Color space                 : YUV
Chroma subsampling          : 4:2:0
Bit depth                   : 8 bits
Scan type                   : Progressive
Bits/(Pixel*Frame)          : 0.079
Stream size                 : 40.6 MiB (90%)
Tagged date                 : UTC 2014-09-18 03:21:32

Audio
ID                          : 2
Format                      : AAC
Format/Info                 : Advanced Audio Codec
Format profile              : LC
Codec ID                    : 40
Duration                    : 3mn 14s
Bit rate mode               : Variable
Bit rate                    : 192 Kbps
Maximum bit rate            : 201 Kbps
Channel(s)                  : 2 channels
Channel positions           : Front: L R
Sampling rate               : 44.1 KHz
Compression mode            : Lossy
Stream size                 : 4.45 MiB (10%)
Title                       : IsoMedia File Produced by Google, 5-11-2011
Encoded date                : UTC 2014-09-18 03:21:31
Tagged date                 : UTC 2014-09-18 03:21:32
Скриншоты:


Время раздачи: По мере возможности, не всегда есть интернет( луганская народная республика )
 
Не забывайте говорить Спасибо. Не уходите с раздачи!   
Торрент: Зарегистрирован [08 окт 2015, 00:01] Скачать торрент
Скачать торрент
[ Размер 13.75 КБ / Просмотров 14 ]
Статус:
Проверен
 
.torrent скачан: 0 раз
Хэш: 7332920d070855053c6fcc60c35a0f54a2c28285
Размер: 600.08 МБ (629 226 264 байт)
Стать Автором раздачи
 
 
Раздал: 0 байт
Скачал: 0 байт
Ратио: Inf.
Сообщения: 188877
Зарегистрирован: 14 июн 2014, 20:46


  • Похожие торренты
    Ответы
    Просмотры
    Последнее сообщение

Вернуться в Музыкальные клипы (транзит)

Ресурс не предоставляет электронные версии произведений, а занимается лишь коллекционированием и каталогизацией ссылок, присылаемых и публикуемых на форуме нашими читателями. Если вы являетесь правообладателем какого-либо представленного материала и не желаете чтобы ссылка на него находилась в нашем каталоге, свяжитесь с нами и мы незамедлительно удалим её. Файлы для обмена на трекере предоставлены пользователями сайта, и администрация не несёт ответственности за их содержание. Просьба не заливать файлы, защищенные авторскими правами, а также файлы нелегального содержания!
cron