Знание - сила 03 выпуск Игорь Бутман 2015.10.03 [2015, Интеллектуальное шоу, HDTV 1080i]

 
 Статистика раздачи 
Размер: 2.29 ГБ   |  Зарегистрирован: 05 окт 2015, 19:50   |   .torrent скачан: 0 раз
Сидеров: 1  [ 0 байт/сек ]     Личеров: 0  [ 0 байт/сек ]  
  

Знание - сила 03 выпуск Игорь Бутман 2015.10.03 [2015, Интеллектуальное шоу, HDTV 1080i]

Сообщение Thelver1947 » 05 окт 2015, 19:50

Знание - сила 03 выпуск Игорь Бутман 2015.10.03

Год выпуска: 2015
Страна: Россия
Жанр: Интеллектуальное шоу
Продолжительность: 00:39:16
Перевод: Не требуется
Русские субтитры: нет

Описание: В борьбе за миллион рублей гостям передачи предстоит ответить на вопросы из разных областей науки, искусства, истории и кино.
В первых выпусках телевикторины примут участие Анатолий Вассерман, Владимир Меньшов.

Ведущий: Дмитрий Киселев

Телеканал: Россия HD

Тип релиза: HDTV 1080i
Контейнер: TS

Видео: H264; 1920x1080 (16:9); 25.000 fps; ~7 736 Kbps
Аудио: MPEG Audio 48000Hz stereo 192 Кбит/сек
Код: Выделить всё
General
ID                             : 1 (0x1)
Complete name                  : Q:\ДИСК-1\Знание - сила 03 выпуск Игорь Бутман 2015.10.03_HDTV 1080i_kuzmichm2196.ts
Format                         : MPEG-TS
File size                      : 2.29 GiB
Duration                       : 39mn 16s
Overall bit rate mode          : Variable
Overall bit rate               : 8 356 Kbps

Video
ID                             : 2292 (0x8F4)
Menu ID                        : 2291 (0x8F3)
Format                         : AVC
Format/Info                    : Advanced Video Codec
Format profile                 : [email protected]
Format settings, CABAC         : Yes
Format settings, ReFrames      : 4 frames
Codec ID                       : 27
Duration                       : 39mn 16s
Bit rate                       : 7 749 Kbps
Width                          : 1 920 pixels
Height                         : 1 080 pixels
Display aspect ratio           : 16:9
Frame rate                     : 25.000 fps
Color space                    : YUV
Chroma subsampling             : 4:2:0
Bit depth                      : 8 bits
Scan type                      : MBAFF
Bits/(Pixel*Frame)             : 0.149
Stream size                    : 2.13 GiB (93%)

Audio
ID                             : 2295 (0x8F7)
Menu ID                        : 2291 (0x8F3)
Format                         : MPEG Audio
Format version                 : Version 1
Format profile                 : Layer 2
Mode                           : Joint stereo
Mode extension                 : Intensity Stereo + MS Stereo
Codec ID                       : 3
Duration                       : 39mn 16s
Bit rate mode                  : Constant
Bit rate                       : 192 Kbps
Channel(s)                     : 2 channels
Sampling rate                  : 48.0 KHz
Compression mode               : Lossy
Stream size                    : 53.9 MiB (2%)
Language                       : English
 
Не забывайте говорить Спасибо. Не уходите с раздачи!   
Торрент: Зарегистрирован [05 окт 2015, 19:50] Для скачивания .torrent
необходима регистрация
Или скачать с помощью
MediaGet
Статус:
Проверен
 
.torrent скачан: 0 раз
Хэш: 4b7e11cb91f4b419b98083d0e8a8beb3cb90f2dd
Размер: 2.29 ГБ (2 461 620 488 байт)
Стать Автором раздачи
 
 
Раздал: 690.52 МБ
Скачал: 0 байт
Ратио: Seed.
Сообщения: 218210
Зарегистрирован: 14 июн 2014, 21:11


  • Похожие торренты
    Ответы
    Просмотры
    Последнее сообщение

Вернуться в Телепередачи (HD Video), не являющиеся документалистикой

Кто сейчас на конференции

Сейчас эту тему просматривают: нет зарегистрированных пользователей и гости: 1

Ресурс не предоставляет электронные версии произведений, а занимается лишь коллекционированием и каталогизацией ссылок, присылаемых и публикуемых на форуме нашими читателями. Если вы являетесь правообладателем какого-либо представленного материала и не желаете чтобы ссылка на него находилась в нашем каталоге, свяжитесь с нами и мы незамедлительно удалим её. Файлы для обмена на трекере предоставлены пользователями сайта, и администрация не несёт ответственности за их содержание. Просьба не заливать файлы, защищенные авторскими правами, а также файлы нелегального содержания!