Доминион / Dominion (2015) WEB-DLRip [H.264] (Сезон 2, серии 1-13 из 13) BaibaKo [MP4|720x400]

 
 Статистика раздачи 
Размер: 7.12 ГБ   |  Зарегистрирован: 04 окт 2015, 23:29   |   .torrent скачан: 0 раз
Сидеров: 1  [ 0 байт/сек ]     Личеров: 0  [ 0 байт/сек ]  
  

Доминион / Dominion (2015) WEB-DLRip [H.264] (Сезон 2, серии 1-13 из 13) BaibaKo [MP4|720x400]

Сообщение Thelver1947 » 04 окт 2015, 23:29

Доминион / Dominion (2015) WEB-DLRip (Сезон 2, серии 1-13 из 13) BaibaKo
«Heaven will raise hell on Earth»

Производство: США
Жанр: ужасы, фантастика, фэнтези, боевик, драма

Режиссер: Скотт Чарльз Стюарт
Актеры: Карл Бьюкс, Алан Дэйл, Кристофер Иган, Крис Фишер, Шивани Гаи, Розалинд Халстэд, Энтони Хэд, Антон Дэвид Джефта, Лэнгли Кирквуд, Роксанна МакКи и др.

Описание:
Новый сериал Доминион основан на персонажах фильма Легион. Сюжет развернется спустя много лет после действий фильма. В 25 году после нашей эры армия ангелов, возглавляемая архангелом Гавриилом ведет кровопролитную войну против всего человечества. Один лишь архангел Михаил решает принять сторону людей и выступить против себе подобных. После долгих 25 лет сражений, укрепившиеся города защищают оставшихся в живых и держат последнюю линию обороны. Самый большой среди уцелевших городов — Вега (бывший Лас Вегас). Казалось бы, в этой войне люди должны быть сплочены перед лицом врага. Но в Веге ведется постоянное противостояние двух сторон за контроль над городом и готовится государственный переворот. В это же время молодой человек, непокорный солдат, отправляется в путешествие, в ходе которого он делает потрясающее открытие о том, что он, по всей видимости – спаситель человечества...



Продолжительность: ~ 00:43:00 серия
Качество видео: WEB-DLRip
Перевод: Многоголосый закадровый, профессиональный - BaibaKo
Автор перевода: Янина Галицкая и vipere
Озвучка: Лира Грим, Anna_Smile, Артемий Мирон, Александр Фурман и Андрей Корзаченко

Видео: AVC/H.264, 720x400 (16:9), ~1536 Кбит/сек
Аудио #1: AAC, 2 канала, 163 Кбит/сек - русский (многоголосый закадровый)
Аудио #2: AAC, 2 канала, 163 Кбит/сек - английский (оригинальный)
Код:
Код: Выделить всё
Полное имя                               : D:\Dominion_s2_WEB-DLRip_x264_BaibaKo_[NNM-CLUB]\Dominion.s02e01.WEB-DLRip.x264.Rus.Eng.BaibaKo.tv.mp4
Формат                                   : MPEG-4
Профиль формата                          : Base Media
Идентификатор кодека                     : isom
Размер файла                             : 566 Мбайт
Продолжительность                        : 42 м.
Режим общего битрейта                    : Переменный
Общий поток                              : 1866 Кбит/сек
Дата кодирования                         : UTC 2015-07-11 13:49:36
Дата пометки                             : UTC 2015-07-11 13:49:36

Видео
Идентификатор                            : 1
Формат                                   : AVC
Формат/Информация                        : Advanced Video Codec
Профиль формата                          :
Параметр CABAC формата                   : Нет
Параметр ReFrames формата                : 3 кадра
Идентификатор кодека                     : avc1
Идентификатор кодека/Информация          : Advanced Video Coding
Продолжительность                        : 42 м.
Битрейт                                  : 1536 Кбит/сек
Максимальный битрейт                     : 8497 Кбит/сек
Ширина                                   : 720 пикселей
Высота                                   : 400 пикселей
Соотношение сторон                       : 16:9
Режим частоты кадров                     : Переменный
Частота кадров                           : 23,976 кадра/сек
Минимальная частота кадров               : 23,974 кадра/сек
Максимальная частота кадров              : 23,981 кадра/сек
Цветовое пространство                    : YUV
Субдискретизация насыщенности            : 4:2:0
Битовая глубина                          : 8 бит
Тип развёртки                            : Прогрессивная
Бит/(Пиксели*Кадры)                      : 0.222
Размер потока                            : 466 Мбайт (82%)
Библиотека кодирования                   : x264 core 142 r2479 dd79a61
Настройки программы                      : cabac=0 / ref=3 / deblock=1:0:0 / analyse=0x1:0x111 / me=hex / subme=7 / psy=1 / psy_rd=1.00:0.00 / mixed_ref=1 / me_range=16 / chroma_me=1 / trellis=1 / 8x8dct=0 / cqm=0 / deadzone=21,11 / fast_pskip=1 / chroma_qp_offset=-2 / threads=6 / lookahead_threads=1 / sliced_threads=0 / nr=0 / decimate=1 / interlaced=0 / bluray_compat=0 / constrained_intra=0 / bframes=0 / weightp=0 / keyint=240 / keyint_min=24 / scenecut=40 / intra_refresh=0 / rc_lookahead=40 / rc=2pass / mbtree=1 / bitrate=1536 / ratetol=1.0 / qcomp=0.60 / qpmin=0 / qpmax=69 / qpstep=4 / cplxblur=20.0 / qblur=0.5 / ip_ratio=1.40 / aq=1:1.00
Дата кодирования                         : UTC 2036-02-06 06:28:16
Дата пометки                             : UTC 2015-07-11 13:49:51
Основные цвета                           : BT.709
Характеристики трансфера                 : BT.709
Коэффициенты матрицы                     : BT.709

Аудио #1
Идентификатор                            : 2
Формат                                   : AAC
Формат/Информация                        : Advanced Audio Codec
Профиль формата                          : LC
Идентификатор кодека                     : 40
Продолжительность                        : 42 м.
Вид битрейта                             : Переменный
Битрейт                                  : 163 Кбит/сек
Максимальный битрейт                     : 221 Кбит/сек
Каналы                                   : 2 канала
Расположение каналов                     : Front: L R
Частота                                  : 48,0 КГц
Метод сжатия                             : С потерями
Размер потока                            : 49,4 Мбайт (9%)
Язык                                     : Russian
Дата кодирования                         : UTC 2015-07-11 13:49:44
Дата пометки                             : UTC 2015-07-11 13:49:51

Аудио #2
Идентификатор                            : 3
Формат                                   : AAC
Формат/Информация                        : Advanced Audio Codec
Профиль формата                          : LC
Идентификатор кодека                     : 40
Продолжительность                        : 42 м.
Вид битрейта                             : Переменный
Битрейт                                  : 163 Кбит/сек
Максимальный битрейт                     : 221 Кбит/сек
Каналы                                   : 2 канала
Расположение каналов                     : Front: L R
Частота                                  : 48,0 КГц
Метод сжатия                             : С потерями
Размер потока                            : 49,4 Мбайт (9%)
Язык                                     : English
Дата кодирования                         : UTC 2015-07-11 13:49:48
Дата пометки                             : UTC 2015-07-11 13:49:51
01 - Наследники спасения / Heirs of Salvation
02 - Пещера проклятых / Mouth of the Damned
03 - Узкие врата / The Narrow Gate
04 - Горькая правда / A Bitter Truth
05 - Сын падшего / Son of the Fallen
06 - И пожнут они бурю / Reap of the Whirlwind
07 - Пред царями отдам тебя на позор / Lay Thee Before Kings
08 - Тернистый путь / The Longest Mile Home
09 - Семя зла / The Seed of Evil
10 - Дом жертвоприношения / House of Sacrifice
11 - Смущение сердца / Bewilderment of Heart
12 - Судный день / Day of Wrath
13 - Ничто без бога / Sine Deo Nihil

Скриншоты:




Время раздачи:
24/7 - круглосуточно
(до первых 5-ти сидов - потом по возможности)
 
Не забывайте говорить Спасибо. Не уходите с раздачи!   
Торрент: Зарегистрирован [04 окт 2015, 23:29] Для скачивания .torrent
необходима регистрация
Или скачать с помощью
MediaGet
Статус:
Проверен
 
.torrent скачан: 0 раз
Хэш: 05031170623f76f8206d059b43edc250e3bcfc82
Размер: 7.12 ГБ (7 649 529 594 байт)
Стать Автором раздачи
 
 
Раздал: 690.52 МБ
Скачал: 0 байт
Ратио: Seed.
Сообщения: 218210
Зарегистрирован: 14 июн 2014, 21:11


  • Похожие торренты
    Ответы
    Просмотры
    Последнее сообщение

Вернуться в Видео для мобильных устройств

Ресурс не предоставляет электронные версии произведений, а занимается лишь коллекционированием и каталогизацией ссылок, присылаемых и публикуемых на форуме нашими читателями. Если вы являетесь правообладателем какого-либо представленного материала и не желаете чтобы ссылка на него находилась в нашем каталоге, свяжитесь с нами и мы незамедлительно удалим её. Файлы для обмена на трекере предоставлены пользователями сайта, и администрация не несёт ответственности за их содержание. Просьба не заливать файлы, защищенные авторскими правами, а также файлы нелегального содержания!
cron