Наедине со всеми (2015) TVRip [H.264] (3 сезон, выпуски 56-70) [MP4|640x360]

 
 Статистика раздачи 
Размер: 3.63 ГБ   |  Зарегистрирован: 03 окт 2015, 20:29   |   .torrent скачан: 0 раз
Сидеров: 1  [ 0 байт/сек ]     Личеров: 0  [ 0 байт/сек ]  
  

Наедине со всеми (2015) TVRip [H.264] (3 сезон, выпуски 56-70) [MP4|640x360]

Сообщение BitFire » 03 окт 2015, 20:29

Наедине со всеми (3 сезон, выпуски 56-70) (2015) TVRip

Производство: 1 канал
Жанр: Документальный

Описание:
Юлия Меньшова: «"Наедине со всеми" — это программа-портрет: люди через призму наиболее известных, серьезных и важных событий их жизни. Нас интересует не столько информация, сколько чувства. Конечно, степень открытости будет зависеть от собеседника. Но многие гости программы знают меня лично, и это помогает сделать разговор комфортным для собеседника и говорить на темы, о которых они обычно предпочитают молчать. Очень часто журналисты задают стандартные вопросы, и суть человека ускользает. Моя задача поймать эту суть, и мне кажется, она заключена именно в чувствах, а не в словах. При подготовке к каждой программе я читаю громадное количество информации о герое, поднимаю весь бэкграунд и попытаюсь уловить, что интересует людей в отношении моего героя

Ведущая: Юлия Меньшова
Гости: Татьяна Кравченко, Сергей Шнуров, Алена Яковлева, Екатерина Волкова, Нина Дворжецкая, Валерий Николаев, Джуна, Михаил Шуфутинский, Евгения Крюкова, Вадим Демча, Татьяна Пилецкая, Алика Смехова, Анатолий Кучерена, Галина Данилова, Ивар Калныньш

Продолжительность: ~00:45:00 серия
Качество видео: TVRip

Видео: AVC/H.264, 640х360, ~650 Кбит/сек
Аудио: AAC, 2 ch, 120 Кбит/сек, CBR
Сэмпл: Скачать
Код:
Код: Выделить всё
Общее
Полное имя                               : E:\Torrent\Наедине со всеми 3 сезон\Наедине со всеми 3 сезон 56-70 выпуски\Алена Яковлева.mp4
Формат                                   : MPEG-4
Профиль формата                          : Base Media
Идентификатор кодека                     : isom
Размер файла                             : 251 Мбайт
Продолжительность                        : 45 м.
Общий поток                              : 776 Кбит/сек
Программа кодирования                    : Lavf53.4.0

Видео
Идентификатор                            : 1
Формат                                   : AVC
Формат/Информация                        : Advanced Video Codec
Профиль формата                          :
Параметр CABAC формата                   : Да
Параметр ReFrames формата                : 5 кадров
Идентификатор кодека                     : avc1
Идентификатор кодека/Информация          : Advanced Video Coding
Продолжительность                        : 45 м.
Битрейт                                  : 650 Кбит/сек
Ширина                                   : 640 пикселей
Высота                                   : 360 пикселей
Соотношение сторон                       : 16:9
Режим частоты кадров                     : Постоянный
Частота кадров                           : 25,000 кадров/сек
Цветовое пространство                    : YUV
Субдискретизация насыщенности            : 4:2:0
Битовая глубина                          : 8 бит
Тип развёртки                            : Прогрессивная
Бит/(Пиксели*Кадры)                      : 0.113
Размер потока                            : 210 Мбайт (84%)
Библиотека кодирования                   : x264 core 115

Аудио
Идентификатор                            : 2
Формат                                   : AAC
Формат/Информация                        : Advanced Audio Codec
Профиль формата                          : LC
Идентификатор кодека                     : 40
Продолжительность                        : 45 м.
Вид битрейта                             : Постоянный
Битрейт                                  : 120 Кбит/сек
Каналы                                   : 2 канала
Расположение каналов                     : Front: L R
Частота                                  : 48,0 КГц
Метод сжатия                             : С потерями
Размер потока                            : 38,7 Мбайт (15%)

Скриншоты:



Наедине со всеми на NoNaMe-club
Время раздачи: По возможности 12/7
 
Не забывайте говорить Спасибо. Не уходите с раздачи!   
Торрент: Зарегистрирован [03 окт 2015, 20:29] Для скачивания .torrent
необходима регистрация
Или скачать с помощью
MediaGet
Статус:
Проверен
 
.torrent скачан: 0 раз
Хэш: 8e78836df2d47324014e7b9713926210e841277d
Размер: 3.63 ГБ (3 901 072 171 байт)
Стать Автором раздачи
 
 
Раздал: 398.6 ГБ
Скачал: 172 МБ
Ратио: 2373.085
Сообщения: 228130
Зарегистрирован: 17 апр 2014, 15:26


  • Похожие торренты
    Ответы
    Просмотры
    Последнее сообщение

Вернуться в Видео для мобильных устройств

Ресурс не предоставляет электронные версии произведений, а занимается лишь коллекционированием и каталогизацией ссылок, присылаемых и публикуемых на форуме нашими читателями. Если вы являетесь правообладателем какого-либо представленного материала и не желаете чтобы ссылка на него находилась в нашем каталоге, свяжитесь с нами и мы незамедлительно удалим её. Файлы для обмена на трекере предоставлены пользователями сайта, и администрация не несёт ответственности за их содержание. Просьба не заливать файлы, защищенные авторскими правами, а также файлы нелегального содержания!
cron