VA - Official UK Top 40 Video Chart (02-10-2015) WEBRip [H.264/1080p-LQ]

 
 Статистика раздачи 
Размер: 2.75 ГБ   |  Зарегистрирован: 02 окт 2015, 19:04   |   .torrent скачан: 0 раз
Сидеров: 1  [ 0 байт/сек ]     Личеров: 0  [ 0 байт/сек ]  
  

VA - Official UK Top 40 Video Chart (02-10-2015) WEBRip [H.264/1080p-LQ]

Сообщение Seepas » 02 окт 2015, 19:04

VA - Official UK Top 40 Video Chart (30-05-2015) WEBRip

Жанр: Pop, Dance, Rock, R&B, Other
Контейнер: MP4
Кол-во клипов: 40
Продолжительность: 02:26:25

Описание:
Достаточно много времени прошло с момента размещения на трекере последнего Топ-40 (Видео). 02 октября 2015 года опубликован очередной UK Singles Chart - официальный хит-парад синглов Великобритании, отсортированных по результатам продаж за неделю. В релизе использованы официальные видеоролики.

Качество видео: WEBRip
Язык: Английский
Видео: AVC/H.264, 1920x1080 (16:9), 1774 ~ 3343 kbps
Аудио: AAC, 2 ch, 126 - 254 kpbs, CBR
[color=#transparent]Треклист:[/color]
01. Justin Bieber - What Do You Mean (4:58)
03. R. City - Locked Away ft. Adam Levine (4:25)
04. Calvin Harris & Disciples - How Deep Is Your Love (4:21)
05. The Weeknd - Can t Feel My Face (3:38)
06. Jess Glynne - Don t Be So Hard On Yourself [Official Video] (4:11)
07. Ellie Goulding - On My Mind (4:05)
08. Rachel Platten - Fight Song (Official Video) (3:25)
09. Pia Mia - Do It Again ft. Chris Brown, Tyga (3:33)
10. Galantis - Peanut Butter Jelly (Official Video) (3:54)
11. Naughty Boy - Runnin (Lose It All) ft. Beyoncé, Arrow Benjamin (3:44)
12. Charlie Puth - Marvin Gaye ft. Meghan Trainor [Official Video] (3:29)
13. WALK THE MOON - Shut up and Dance (4:06)
14. Martin Solveig & GTA - Intoxicated (Official Music Video) (3:14)
15. MACKLEMORE & RYAN LEWIS - DOWNTOWN (OFFICIAL MUSIC VIDEO) (5:23)
16. Felix Jaehn - Ain’t Nobody (Loves Me Better) ft. Jasmine Thompson (3:08)
18. One Direction - Drag Me Down (3:12)
19. Demi Lovato - Cool for the Summer (Official Video) (3:48)
20. Little Mix - Black Magic (3:46)
21. Lost Frequencies - Are You With Me (Official Music Video) (2:16)
22. Major Lazer & DJ Snake - Lean On (feat. MØ) (Official Music Video) (2:59)
23. Fetty Wap - Trap Queen (Official Video) Prod. By Tony Fadd (4:04)
24. OMI - Cheerleader (Felix Jaehn Remix) [Official Video] (3:09)
25. Birdy - Wings (Official Video) (4:25)
26. Ed Sheeran - Photograph (Official Music Video) (4:34)
27. RITA ORA - Body on Me ft. Chris Brown (4:38)
28. Sigma ft. Ella Henderson - Glitterball (Official Video) (3:51)
29. The Weeknd - The Hills (3:54)
30. Disclosure - Omen ft. Sam Smith (4:00)
31. Jason Derulo - Want To Want Me (Official Video) (3:48)
32. Skrillex and Diplo - Where Are Ü Now with Justin Bieber (Official Video) (4:11)
33. Silentó - Watch Me (Whip Nae Nae) (Official) (3:22)
34. Naguale feat. Andra - Falava (La Maruta) (3:10)
35. Years & Years - Shine (4:25)
36. Fetty Wap 679 feat. Remy Boyz [Official Video] (3:44)
37. Selena Gomez - Good For You (Explicit) ft. A$AP ROCKY (3:45)
38. Sam Feldt - Show Me Love (ft. Kimberly Anne) [Official Music Video] (3:01)
39. Mark Ronson - Uptown Funk ft. Bruno Mars (4:30)
40. James Bay - Let It Go (4:18)
Код:
Код: Выделить всё
Общее
Полное имя                               : D:\The Official UK Top 40 Singles Chart (02-10-2015)mp4\01. Justin Bieber - What Do You Mean.mp4
Формат                                   : MPEG-4
Профиль формата                          : Base Media
Идентификатор кодека                     : isom
Размер файла                             : 78,8 Мбайт
Продолжительность                        : 4 м. 57 с.
Общий поток                              : 2220 Кбит/сек
Программа кодирования                    : Lavf55.33.100

Видео
Идентификатор                            : 1
Формат                                   : AVC
Формат/Информация                        : Advanced Video Codec
Профиль формата                          :
Параметр CABAC формата                   : Да
Параметр ReFrames формата                : 3 кадра
Идентификатор кодека                     : avc1
Идентификатор кодека/Информация          : Advanced Video Coding
Продолжительность                        : 4 м. 57 с.
Битрейт                                  : 2088 Кбит/сек
Ширина                                   : 1920 пикселей
Высота                                   : 1080 пикселей
Соотношение сторон                       : 16:9
Режим частоты кадров                     : Переменный
Частота кадров                           : 23,976 кадра/сек
Минимальная частота кадров               : 23,974 кадра/сек
Максимальная частота кадров              : 90000,000 кадров/сек
Цветовое пространство                    : YUV
Субдискретизация насыщенности            : 4:2:0
Битовая глубина                          : 8 бит
Тип развёртки                            : Прогрессивная
Бит/(Пиксели*Кадры)                      : 0.042
Размер потока                            : 74,1 Мбайт (94%)

Аудио
Идентификатор                            : 2
Формат                                   : AAC
Формат/Информация                        : Advanced Audio Codec
Профиль формата                          : LC
Идентификатор кодека                     : 40
Продолжительность                        : 4 м. 57 с.
Вид битрейта                             : Постоянный
Битрейт                                  : 126 Кбит/сек
Каналы                                   : 2 канала
Расположение каналов                     : Front: L R
Частота                                  : 44,1 КГц
Метод сжатия                             : С потерями
Размер потока                            : 4,46 Мбайт (6%)

Общее
Полное имя                               : D:\The Official UK Top 40 Singles Chart (02-10-2015)mp4\03. R. City - Locked Away ft. Adam Levine.mp4
Формат                                   : MPEG-4
Профиль формата                          : Base Media
Идентификатор кодека                     : isom
Размер файла                             : 65,8 Мбайт
Продолжительность                        : 4 м. 25 с.
Общий поток                              : 2081 Кбит/сек
Программа кодирования                    : Lavf55.33.100

Видео
Идентификатор                            : 1
Формат                                   : AVC
Формат/Информация                        : Advanced Video Codec
Профиль формата                          :
Параметр CABAC формата                   : Да
Параметр ReFrames формата                : 3 кадра
Идентификатор кодека                     : avc1
Идентификатор кодека/Информация          : Advanced Video Coding
Продолжительность                        : 4 м. 25 с.
Битрейт                                  : 1950 Кбит/сек
Ширина                                   : 1920 пикселей
Высота                                   : 1080 пикселей
Соотношение сторон                       : 16:9
Режим частоты кадров                     : Переменный
Частота кадров                           : 23,976 кадра/сек
Минимальная частота кадров               : 23,974 кадра/сек
Максимальная частота кадров              : 90000,000 кадров/сек
Цветовое пространство                    : YUV
Субдискретизация насыщенности            : 4:2:0
Битовая глубина                          : 8 бит
Тип развёртки                            : Прогрессивная
Бит/(Пиксели*Кадры)                      : 0.039
Размер потока                            : 61,6 Мбайт (94%)

Аудио
Идентификатор                            : 2
Формат                                   : AAC
Формат/Информация                        : Advanced Audio Codec
Профиль формата                          : LC
Идентификатор кодека                     : 40
Продолжительность                        : 4 м. 25 с.
Вид битрейта                             : Постоянный
Битрейт                                  : 126 Кбит/сек
Каналы                                   : 2 канала
Расположение каналов                     : Front: L R
Частота                                  : 44,1 КГц
Метод сжатия                             : С потерями
Размер потока                            : 3,97 Мбайт (6%)

Общее
Полное имя                               : D:\The Official UK Top 40 Singles Chart (02-10-2015)mp4\04. Calvin Harris & Disciples - How Deep Is Your Love.mp4
Формат                                   : MPEG-4
Профиль формата                          : Base Media
Идентификатор кодека                     : isom
Размер файла                             : 70,0 Мбайт
Продолжительность                        : 4 м. 20 с.
Общий поток                              : 2252 Кбит/сек
Программа кодирования                    : Lavf55.33.100

Видео
Идентификатор                            : 1
Формат                                   : AVC
Формат/Информация                        : Advanced Video Codec
Профиль формата                          :
Параметр CABAC формата                   : Да
Параметр ReFrames формата                : 3 кадра
Идентификатор кодека                     : avc1
Идентификатор кодека/Информация          : Advanced Video Coding
Продолжительность                        : 4 м. 20 с.
Битрейт                                  : 2121 Кбит/сек
Ширина                                   : 1920 пикселей
Высота                                   : 1080 пикселей
Соотношение сторон                       : 16:9
Режим частоты кадров                     : Переменный
Частота кадров                           : 23,976 кадра/сек
Минимальная частота кадров               : 23,974 кадра/сек
Максимальная частота кадров              : 90000,000 кадров/сек
Цветовое пространство                    : YUV
Субдискретизация насыщенности            : 4:2:0
Битовая глубина                          : 8 бит
Тип развёртки                            : Прогрессивная
Бит/(Пиксели*Кадры)                      : 0.043
Размер потока                            : 65,9 Мбайт (94%)

Аудио
Идентификатор                            : 2
Формат                                   : AAC
Формат/Информация                        : Advanced Audio Codec
Профиль формата                          : LC
Идентификатор кодека                     : 40
Продолжительность                        : 4 м. 20 с.
Вид битрейта                             : Постоянный
Битрейт                                  : 126 Кбит/сек
Каналы                                   : 2 канала
Расположение каналов                     : Front: L R
Частота                                  : 44,1 КГц
Метод сжатия                             : С потерями
Размер потока                            : 3,90 Мбайт (6%)

Общее
Полное имя                               : D:\The Official UK Top 40 Singles Chart (02-10-2015)mp4\05. The Weeknd - Can t Feel My Face.mp4
Формат                                   : MPEG-4
Профиль формата                          : Base Media
Идентификатор кодека                     : isom
Размер файла                             : 68,2 Мбайт
Продолжительность                        : 3 м. 38 с.
Общий поток                              : 2619 Кбит/сек
Программа кодирования                    : Lavf55.33.100

Видео
Идентификатор                            : 1
Формат                                   : AVC
Формат/Информация                        : Advanced Video Codec
Профиль формата                          :
Параметр CABAC формата                   : Да
Параметр ReFrames формата                : 3 кадра
Идентификатор кодека                     : avc1
Идентификатор кодека/Информация          : Advanced Video Coding
Продолжительность                        : 3 м. 38 с.
Битрейт                                  : 2487 Кбит/сек
Ширина                                   : 1920 пикселей
Высота                                   : 1080 пикселей
Соотношение сторон                       : 16:9
Режим частоты кадров                     : Переменный
Частота кадров                           : 23,976 кадра/сек
Минимальная частота кадров               : 23,974 кадра/сек
Максимальная частота кадров              : 90000,000 кадров/сек
Цветовое пространство                    : YUV
Субдискретизация насыщенности            : 4:2:0
Битовая глубина                          : 8 бит
Тип развёртки                            : Прогрессивная
Бит/(Пиксели*Кадры)                      : 0.050
Размер потока                            : 64,8 Мбайт (95%)

Аудио
Идентификатор                            : 2
Формат                                   : AAC
Формат/Информация                        : Advanced Audio Codec
Профиль формата                          : LC
Идентификатор кодека                     : 40
Продолжительность                        : 3 м. 38 с.
Вид битрейта                             : Постоянный
Битрейт                                  : 126 Кбит/сек
Каналы                                   : 2 канала
Расположение каналов                     : Front: L R
Частота                                  : 44,1 КГц
Метод сжатия                             : С потерями
Размер потока                            : 3,27 Мбайт (5%)

Общее
Полное имя                               : D:\The Official UK Top 40 Singles Chart (02-10-2015)mp4\06. Jess Glynne - Don t Be So Hard On Yourself [Official Video].mp4
Формат                                   : MPEG-4
Профиль формата                          : Base Media
Идентификатор кодека                     : isom
Размер файла                             : 62,7 Мбайт
Продолжительность                        : 4 м. 10 с.
Общий поток                              : 2097 Кбит/сек
Программа кодирования                    : Lavf55.33.100

Видео
Идентификатор                            : 1
Формат                                   : AVC
Формат/Информация                        : Advanced Video Codec
Профиль формата                          :
Параметр CABAC формата                   : Да
Параметр ReFrames формата                : 3 кадра
Идентификатор кодека                     : avc1
Идентификатор кодека/Информация          : Advanced Video Coding
Продолжительность                        : 4 м. 10 с.
Duration_FirstFrame                      : -40 мс.
Битрейт                                  : 1966 Кбит/сек
Ширина                                   : 1920 пикселей
Высота                                   : 1080 пикселей
Соотношение сторон                       : 16:9
Режим частоты кадров                     : Переменный
Частота кадров                           : 25,000 кадров/сек
Минимальная частота кадров               : 25,000 кадров/сек
Максимальная частота кадров              : 25,014 кадров/сек
Цветовое пространство                    : YUV
Субдискретизация насыщенности            : 4:2:0
Битовая глубина                          : 8 бит
Тип развёртки                            : Прогрессивная
Бит/(Пиксели*Кадры)                      : 0.038
Размер потока                            : 58,7 Мбайт (94%)

Аудио
Идентификатор                            : 2
Формат                                   : AAC
Формат/Информация                        : Advanced Audio Codec
Профиль формата                          : LC
Идентификатор кодека                     : 40
Продолжительность                        : 4 м. 10 с.
Вид битрейта                             : Постоянный
Битрейт                                  : 126 Кбит/сек
Каналы                                   : 2 канала
Расположение каналов                     : Front: L R
Частота                                  : 44,1 КГц
Метод сжатия                             : С потерями
Размер потока                            : 3,75 Мбайт (6%)

Общее
Полное имя                               : D:\The Official UK Top 40 Singles Chart (02-10-2015)mp4\07. Ellie Goulding - On My Mind.mp4
Формат                                   : MPEG-4
Профиль формата                          : Base Media
Идентификатор кодека                     : isom
Размер файла                             : 72,5 Мбайт
Продолжительность                        : 4 м. 4 с.
Общий поток                              : 2486 Кбит/сек
Программа кодирования                    : Lavf55.33.100

Видео
Идентификатор                            : 1
Формат                                   : AVC
Формат/Информация                        : Advanced Video Codec
Профиль формата                          :
Параметр CABAC формата                   : Да
Параметр ReFrames формата                : 3 кадра
Идентификатор кодека                     : avc1
Идентификатор кодека/Информация          : Advanced Video Coding
Продолжительность                        : 4 м. 4 с.
Битрейт                                  : 2354 Кбит/сек
Ширина                                   : 1920 пикселей
Высота                                   : 1080 пикселей
Соотношение сторон                       : 16:9
Режим частоты кадров                     : Переменный
Частота кадров                           : 23,976 кадра/сек
Минимальная частота кадров               : 23,974 кадра/сек
Максимальная частота кадров              : 90000,000 кадров/сек
Цветовое пространство                    : YUV
Субдискретизация насыщенности            : 4:2:0
Битовая глубина                          : 8 бит
Тип развёртки                            : Прогрессивная
Бит/(Пиксели*Кадры)                      : 0.047
Размер потока                            : 68,7 Мбайт (95%)

Аудио
Идентификатор                            : 2
Формат                                   : AAC
Формат/Информация                        : Advanced Audio Codec
Профиль формата                          : LC
Идентификатор кодека                     : 40
Продолжительность                        : 4 м. 4 с.
Вид битрейта                             : Постоянный
Битрейт                                  : 126 Кбит/сек
Каналы                                   : 2 канала
Расположение каналов                     : Front: L R
Частота                                  : 44,1 КГц
Метод сжатия                             : С потерями
Размер потока                            : 3,66 Мбайт (5%)

Общее
Полное имя                               : D:\The Official UK Top 40 Singles Chart (02-10-2015)mp4\08. Rachel Platten - Fight Song (Official Video).mp4
Формат                                   : MPEG-4
Профиль формата                          : Base Media
Идентификатор кодека                     : isom
Размер файла                             : 55,6 Мбайт
Продолжительность                        : 3 м. 25 с.
Общий поток                              : 2272 Кбит/сек
Программа кодирования                    : Lavf55.33.100

Видео
Идентификатор                            : 1
Формат                                   : AVC
Формат/Информация                        : Advanced Video Codec
Профиль формата                          :
Параметр CABAC формата                   : Да
Параметр ReFrames формата                : 3 кадра
Идентификатор кодека                     : avc1
Идентификатор кодека/Информация          : Advanced Video Coding
Продолжительность                        : 3 м. 25 с.
Битрейт                                  : 2012 Кбит/сек
Ширина                                   : 1920 пикселей
Высота                                   : 1080 пикселей
Соотношение сторон                       : 16:9
Режим частоты кадров                     : Переменный
Частота кадров                           : 23,976 кадра/сек
Минимальная частота кадров               : 23,974 кадра/сек
Максимальная частота кадров              : 90000,000 кадров/сек
Цветовое пространство                    : YUV
Субдискретизация насыщенности            : 4:2:0
Битовая глубина                          : 8 бит
Тип развёртки                            : Прогрессивная
Бит/(Пиксели*Кадры)                      : 0.040
Размер потока                            : 49,2 Мбайт (89%)

Аудио
Идентификатор                            : 2
Формат                                   : AAC
Формат/Информация                        : Advanced Audio Codec
Профиль формата                          : LC
Идентификатор кодека                     : 40
Продолжительность                        : 3 м. 25 с.
Вид битрейта                             : Постоянный
Битрейт                                  : 254 Кбит/сек
Каналы                                   : 2 канала
Расположение каналов                     : Front: L R
Частота                                  : 44,1 КГц
Метод сжатия                             : С потерями
Размер потока                            : 6,20 Мбайт (11%)

Общее
Полное имя                               : D:\The Official UK Top 40 Singles Chart (02-10-2015)mp4\09. Pia Mia - Do It Again ft. Chris Brown, Tyga.mp4
Формат                                   : MPEG-4
Профиль формата                          : Base Media
Идентификатор кодека                     : isom
Размер файла                             : 91,8 Мбайт
Продолжительность                        : 3 м. 33 с.
Общий поток                              : 3610 Кбит/сек
Программа кодирования                    : Lavf55.33.100

Видео
Идентификатор                            : 1
Формат                                   : AVC
Формат/Информация                        : Advanced Video Codec
Профиль формата                          :
Параметр CABAC формата                   : Да
Параметр ReFrames формата                : 3 кадра
Идентификатор кодека                     : avc1
Идентификатор кодека/Информация          : Advanced Video Coding
Продолжительность                        : 3 м. 33 с.
Битрейт                                  : 3479 Кбит/сек
Ширина                                   : 1920 пикселей
Высота                                   : 1080 пикселей
Соотношение сторон                       : 16:9
Режим частоты кадров                     : Переменный
Частота кадров                           : 23,976 кадра/сек
Минимальная частота кадров               : 23,974 кадра/сек
Максимальная частота кадров              : 90000,000 кадров/сек
Цветовое пространство                    : YUV
Субдискретизация насыщенности            : 4:2:0
Битовая глубина                          : 8 бит
Тип развёртки                            : Прогрессивная
Бит/(Пиксели*Кадры)                      : 0.070
Размер потока                            : 88,5 Мбайт (96%)

Аудио
Идентификатор                            : 2
Формат                                   : AAC
Формат/Информация                        : Advanced Audio Codec
Профиль формата                          : LC
Идентификатор кодека                     : 40
Продолжительность                        : 3 м. 33 с.
Вид битрейта                             : Постоянный
Битрейт                                  : 126 Кбит/сек
Каналы                                   : 2 канала
Расположение каналов                     : Front: L R
Частота                                  : 44,1 КГц
Метод сжатия                             : С потерями
Размер потока                            : 3,20 Мбайт (3%)

Общее
Полное имя                               : D:\The Official UK Top 40 Singles Chart (02-10-2015)mp4\10. Galantis - Peanut Butter Jelly (Official Video).mp4
Формат                                   : MPEG-4
Профиль формата                          : Base Media
Идентификатор кодека                     : isom
Размер файла                             : 63,6 Мбайт
Продолжительность                        : 3 м. 53 с.
Общий поток                              : 2283 Кбит/сек
Программа кодирования                    : Lavf55.33.100

Видео
Идентификатор                            : 1
Формат                                   : AVC
Формат/Информация                        : Advanced Video Codec
Профиль формата                          :
Параметр CABAC формата                   : Да
Параметр ReFrames формата                : 3 кадра
Идентификатор кодека                     : avc1
Идентификатор кодека/Информация          : Advanced Video Coding
Продолжительность                        : 3 м. 53 с.
Битрейт                                  : 2152 Кбит/сек
Ширина                                   : 1920 пикселей
Высота                                   : 1080 пикселей
Соотношение сторон                       : 16:9
Режим частоты кадров                     : Переменный
Частота кадров                           : 23,976 кадра/сек
Минимальная частота кадров               : 23,974 кадра/сек
Максимальная частота кадров              : 90000,000 кадров/сек
Цветовое пространство                    : YUV
Субдискретизация насыщенности            : 4:2:0
Битовая глубина                          : 8 бит
Тип развёртки                            : Прогрессивная
Бит/(Пиксели*Кадры)                      : 0.043
Размер потока                            : 59,9 Мбайт (94%)

Аудио
Идентификатор                            : 2
Формат                                   : AAC
Формат/Информация                        : Advanced Audio Codec
Профиль формата                          : LC
Идентификатор кодека                     : 40
Продолжительность                        : 3 м. 53 с.
Вид битрейта                             : Постоянный
Битрейт                                  : 126 Кбит/сек
Каналы                                   : 2 канала
Расположение каналов                     : Front: L R
Частота                                  : 44,1 КГц
Метод сжатия                             : С потерями
Размер потока                            : 3,50 Мбайт (6%)

Общее
Полное имя                               : D:\The Official UK Top 40 Singles Chart (02-10-2015)mp4\11. Naughty Boy - Runnin  (Lose It All) ft. Beyoncé, Arrow Benjamin.mp4
Формат                                   : MPEG-4
Профиль формата                          : Base Media
Идентификатор кодека                     : isom
Размер файла                             : 73,7 Мбайт
Продолжительность                        : 3 м. 43 с.
Общий поток                              : 2761 Кбит/сек
Программа кодирования                    : Lavf55.33.100

Видео
Идентификатор                            : 1
Формат                                   : AVC
Формат/Информация                        : Advanced Video Codec
Профиль формата                          :
Параметр CABAC формата                   : Да
Параметр ReFrames формата                : 3 кадра
Идентификатор кодека                     : avc1
Идентификатор кодека/Информация          : Advanced Video Coding
Продолжительность                        : 3 м. 43 с.
Duration_FirstFrame                      : -40 мс.
Битрейт                                  : 2629 Кбит/сек
Ширина                                   : 1920 пикселей
Высота                                   : 1080 пикселей
Соотношение сторон                       : 16:9
Режим частоты кадров                     : Переменный
Частота кадров                           : 25,000 кадров/сек
Минимальная частота кадров               : 25,000 кадров/сек
Максимальная частота кадров              : 25,014 кадров/сек
Цветовое пространство                    : YUV
Субдискретизация насыщенности            : 4:2:0
Битовая глубина                          : 8 бит
Тип развёртки                            : Прогрессивная
Бит/(Пиксели*Кадры)                      : 0.051
Размер потока                            : 70,2 Мбайт (95%)

Аудио
Идентификатор                            : 2
Формат                                   : AAC
Формат/Информация                        : Advanced Audio Codec
Профиль формата                          : LC
Идентификатор кодека                     : 40
Продолжительность                        : 3 м. 43 с.
Вид битрейта                             : Постоянный
Битрейт                                  : 126 Кбит/сек
Каналы                                   : 2 канала
Расположение каналов                     : Front: L R
Частота                                  : 44,1 КГц
Метод сжатия                             : С потерями
Размер потока                            : 3,35 Мбайт (5%)

Общее
Полное имя                               : D:\The Official UK Top 40 Singles Chart (02-10-2015)mp4\12. Charlie Puth - Marvin Gaye ft. Meghan Trainor [Official Video].mp4
Формат                                   : MPEG-4
Профиль формата                          : Base Media
Идентификатор кодека                     : isom
Размер файла                             : 81,8 Мбайт
Продолжительность                        : 3 м. 28 с.
Общий поток                              : 3285 Кбит/сек
Программа кодирования                    : Lavf55.33.100

Видео
Идентификатор                            : 1
Формат                                   : AVC
Формат/Информация                        : Advanced Video Codec
Профиль формата                          :
Параметр CABAC формата                   : Да
Параметр ReFrames формата                : 3 кадра
Идентификатор кодека                     : avc1
Идентификатор кодека/Информация          : Advanced Video Coding
Продолжительность                        : 3 м. 28 с.
Битрейт                                  : 3026 Кбит/сек
Ширина                                   : 1920 пикселей
Высота                                   : 1080 пикселей
Соотношение сторон                       : 16:9
Режим частоты кадров                     : Переменный
Частота кадров                           : 23,976 кадра/сек
Минимальная частота кадров               : 23,974 кадра/сек
Максимальная частота кадров              : 90000,000 кадров/сек
Цветовое пространство                    : YUV
Субдискретизация насыщенности            : 4:2:0
Битовая глубина                          : 8 бит
Тип развёртки                            : Прогрессивная
Бит/(Пиксели*Кадры)                      : 0.061
Размер потока                            : 75,4 Мбайт (92%)

Аудио
Идентификатор                            : 2
Формат                                   : AAC
Формат/Информация                        : Advanced Audio Codec
Профиль формата                          : LC
Идентификатор кодека                     : 40
Продолжительность                        : 3 м. 28 с.
Вид битрейта                             : Постоянный
Битрейт                                  : 254 Кбит/сек
Каналы                                   : 2 канала
Расположение каналов                     : Front: L R
Частота                                  : 44,1 КГц
Метод сжатия                             : С потерями
Размер потока                            : 6,32 Мбайт (8%)

Общее
Полное имя                               : D:\The Official UK Top 40 Singles Chart (02-10-2015)mp4\13. WALK THE MOON - Shut up and Dance.mp4
Формат                                   : MPEG-4
Профиль формата                          : Base Media
Идентификатор кодека                     : isom
Размер файла                             : 90,8 Мбайт
Продолжительность                        : 4 м. 6 с.
Общий поток                              : 3094 Кбит/сек
Программа кодирования                    : Lavf55.33.100

Видео
Идентификатор                            : 1
Формат                                   : AVC
Формат/Информация                        : Advanced Video Codec
Профиль формата                          :
Параметр CABAC формата                   : Да
Параметр ReFrames формата                : 3 кадра
Идентификатор кодека                     : avc1
Идентификатор кодека/Информация          : Advanced Video Coding
Продолжительность                        : 4 м. 6 с.
Битрейт                                  : 2835 Кбит/сек
Ширина                                   : 1920 пикселей
Высота                                   : 1080 пикселей
Соотношение сторон                       : 16:9
Режим частоты кадров                     : Переменный
Частота кадров                           : 23,976 кадра/сек
Минимальная частота кадров               : 23,974 кадра/сек
Максимальная частота кадров              : 90000,000 кадров/сек
Цветовое пространство                    : YUV
Субдискретизация насыщенности            : 4:2:0
Битовая глубина                          : 8 бит
Тип развёртки                            : Прогрессивная
Бит/(Пиксели*Кадры)                      : 0.057
Размер потока                            : 83,2 Мбайт (92%)

Аудио
Идентификатор                            : 2
Формат                                   : AAC
Формат/Информация                        : Advanced Audio Codec
Профиль формата                          : LC
Идентификатор кодека                     : 40
Продолжительность                        : 4 м. 6 с.
Вид битрейта                             : Постоянный
Битрейт                                  : 254 Кбит/сек
Каналы                                   : 2 канала
Расположение каналов                     : Front: L R
Частота                                  : 44,1 КГц
Метод сжатия                             : С потерями
Размер потока                            : 7,44 Мбайт (8%)

Общее
Полное имя                               : D:\The Official UK Top 40 Singles Chart (02-10-2015)mp4\14. Martin Solveig & GTA - Intoxicated (Official Music Video).mp4
Формат                                   : MPEG-4
Профиль формата                          : Base Media
Идентификатор кодека                     : isom
Размер файла                             : 73,4 Мбайт
Продолжительность                        : 3 м. 14 с.
Общий поток                              : 3169 Кбит/сек
Программа кодирования                    : Lavf55.33.100

Видео
Идентификатор                            : 1
Формат                                   : AVC
Формат/Информация                        : Advanced Video Codec
Профиль формата                          :
Параметр CABAC формата                   : Да
Параметр ReFrames формата                : 3 кадра
Идентификатор кодека                     : avc1
Идентификатор кодека/Информация          : Advanced Video Coding
Продолжительность                        : 3 м. 14 с.
Duration_FirstFrame                      : -40 мс.
Битрейт                                  : 2912 Кбит/сек
Ширина                                   : 1920 пикселей
Высота                                   : 1080 пикселей
Соотношение сторон                       : 16:9
Режим частоты кадров                     : Переменный
Частота кадров                           : 25,000 кадров/сек
Минимальная частота кадров               : 25,000 кадров/сек
Максимальная частота кадров              : 25,014 кадров/сек
Цветовое пространство                    : YUV
Субдискретизация насыщенности            : 4:2:0
Битовая глубина                          : 8 бит
Тип развёртки                            : Прогрессивная
Бит/(Пиксели*Кадры)                      : 0.056
Размер потока                            : 67,3 Мбайт (92%)

Аудио
Идентификатор                            : 2
Формат                                   : AAC
Формат/Информация                        : Advanced Audio Codec
Профиль формата                          : LC
Идентификатор кодека                     : 40
Продолжительность                        : 3 м. 14 с.
Вид битрейта                             : Постоянный
Битрейт                                  : 254 Кбит/сек
Каналы                                   : 2 канала
Расположение каналов                     : Front: L R
Частота                                  : 44,1 КГц
Метод сжатия                             : С потерями
Размер потока                            : 5,87 Мбайт (8%)

Общее
Полное имя                               : D:\The Official UK Top 40 Singles Chart (02-10-2015)mp4\15. MACKLEMORE & RYAN LEWIS - DOWNTOWN (OFFICIAL MUSIC VIDEO).mp4
Формат                                   : MPEG-4
Профиль формата                          : Base Media
Идентификатор кодека                     : isom
Размер файла                             : 148 Мбайт
Продолжительность                        : 5 м. 22 с.
Общий поток                              : 3860 Кбит/сек
Программа кодирования                    : Lavf55.33.100

Видео
Идентификатор                            : 1
Формат                                   : AVC
Формат/Информация                        : Advanced Video Codec
Профиль формата                          :
Параметр CABAC формата                   : Да
Параметр ReFrames формата                : 2 кадра
Идентификатор кодека                     : avc1
Идентификатор кодека/Информация          : Advanced Video Coding
Продолжительность                        : 5 м. 22 с.
Битрейт                                  : 3729 Кбит/сек
Ширина                                   : 1920 пикселей
Высота                                   : 1080 пикселей
Соотношение сторон                       : 16:9
Режим частоты кадров                     : Переменный
Частота кадров                           : 23,976 кадра/сек
Минимальная частота кадров               : 23,974 кадра/сек
Максимальная частота кадров              : 90000,000 кадров/сек
Цветовое пространство                    : YUV
Субдискретизация насыщенности            : 4:2:0
Битовая глубина                          : 8 бит
Тип развёртки                            : Прогрессивная
Бит/(Пиксели*Кадры)                      : 0.075
Размер потока                            : 143 Мбайт (97%)

Аудио
Идентификатор                            : 2
Формат                                   : AAC
Формат/Информация                        : Advanced Audio Codec
Профиль формата                          : LC
Идентификатор кодека                     : 40
Продолжительность                        : 5 м. 22 с.
Вид битрейта                             : Постоянный
Битрейт                                  : 126 Кбит/сек
Каналы                                   : 2 канала
Расположение каналов                     : Front: L R
Частота                                  : 44,1 КГц
Метод сжатия                             : С потерями
Размер потока                            : 4,83 Мбайт (3%)

Общее
Полное имя                               : D:\The Official UK Top 40 Singles Chart (02-10-2015)mp4\16. Felix Jaehn - Ain’t Nobody (Loves Me Better) ft. Jasmine Thompson.mp4
Формат                                   : MPEG-4
Профиль формата                          : Base Media
Идентификатор кодека                     : isom
Размер файла                             : 49,2 Мбайт
Продолжительность                        : 3 м. 8 с.
Общий поток                              : 2189 Кбит/сек
Программа кодирования                    : Lavf55.33.100

Видео
Идентификатор                            : 1
Формат                                   : AVC
Формат/Информация                        : Advanced Video Codec
Профиль формата                          :
Параметр CABAC формата                   : Да
Параметр ReFrames формата                : 3 кадра
Идентификатор кодека                     : avc1
Идентификатор кодека/Информация          : Advanced Video Coding
Продолжительность                        : 3 м. 8 с.
Duration_FirstFrame                      : -40 мс.
Битрейт                                  : 1930 Кбит/сек
Ширина                                   : 1920 пикселей
Высота                                   : 1080 пикселей
Соотношение сторон                       : 16:9
Режим частоты кадров                     : Переменный
Частота кадров                           : 25,000 кадров/сек
Минимальная частота кадров               : 25,000 кадров/сек
Максимальная частота кадров              : 25,014 кадров/сек
Цветовое пространство                    : YUV
Субдискретизация насыщенности            : 4:2:0
Битовая глубина                          : 8 бит
Тип развёртки                            : Прогрессивная
Бит/(Пиксели*Кадры)                      : 0.037
Размер потока                            : 43,3 Мбайт (88%)

Аудио
Идентификатор                            : 2
Формат                                   : AAC
Формат/Информация                        : Advanced Audio Codec
Профиль формата                          : LC
Идентификатор кодека                     : 40
Продолжительность                        : 3 м. 8 с.
Вид битрейта                             : Постоянный
Битрейт                                  : 254 Кбит/сек
Каналы                                   : 2 канала
Расположение каналов                     : Front: L R
Частота                                  : 44,1 КГц
Метод сжатия                             : С потерями
Размер потока                            : 5,70 Мбайт (12%)

Общее
Полное имя                               : D:\The Official UK Top 40 Singles Chart (02-10-2015)mp4\18. One Direction - Drag Me Down.mp4
Формат                                   : MPEG-4
Профиль формата                          : Base Media
Идентификатор кодека                     : isom
Размер файла                             : 49,0 Мбайт
Продолжительность                        : 3 м. 11 с.
Общий поток                              : 2144 Кбит/сек
Программа кодирования                    : Lavf55.33.100

Видео
Идентификатор                            : 1
Формат                                   : AVC
Формат/Информация                        : Advanced Video Codec
Профиль формата                          :
Параметр CABAC формата                   : Да
Параметр ReFrames формата                : 3 кадра
Идентификатор кодека                     : avc1
Идентификатор кодека/Информация          : Advanced Video Coding
Продолжительность                        : 3 м. 11 с.
Битрейт                                  : 2013 Кбит/сек
Ширина                                   : 1920 пикселей
Высота                                   : 1080 пикселей
Соотношение сторон                       : 16:9
Режим частоты кадров                     : Переменный
Частота кадров                           : 23,976 кадра/сек
Минимальная частота кадров               : 23,974 кадра/сек
Максимальная частота кадров              : 90000,000 кадров/сек
Цветовое пространство                    : YUV
Субдискретизация насыщенности            : 4:2:0
Битовая глубина                          : 8 бит
Тип развёртки                            : Прогрессивная
Бит/(Пиксели*Кадры)                      : 0.040
Размер потока                            : 46,0 Мбайт (94%)

Аудио
Идентификатор                            : 2
Формат                                   : AAC
Формат/Информация                        : Advanced Audio Codec
Профиль формата                          : LC
Идентификатор кодека                     : 40
Продолжительность                        : 3 м. 11 с.
Вид битрейта                             : Постоянный
Битрейт                                  : 126 Кбит/сек
Каналы                                   : 2 канала
Расположение каналов                     : Front: L R
Частота                                  : 44,1 КГц
Метод сжатия                             : С потерями
Размер потока                            : 2,87 Мбайт (6%)

Общее
Полное имя                               : D:\The Official UK Top 40 Singles Chart (02-10-2015)mp4\19. Demi Lovato - Cool for the Summer (Official Video).mp4
Формат                                   : MPEG-4
Профиль формата                          : Base Media
Идентификатор кодека                     : isom
Размер файла                             : 62,2 Мбайт
Продолжительность                        : 3 м. 47 с.
Общий поток                              : 2290 Кбит/сек
Программа кодирования                    : Lavf55.33.100

Видео
Идентификатор                            : 1
Формат                                   : AVC
Формат/Информация                        : Advanced Video Codec
Профиль формата                          :
Параметр CABAC формата                   : Да
Параметр ReFrames формата                : 3 кадра
Идентификатор кодека                     : avc1
Идентификатор кодека/Информация          : Advanced Video Coding
Продолжительность                        : 3 м. 47 с.
Битрейт                                  : 2158 Кбит/сек
Ширина                                   : 1920 пикселей
Высота                                   : 1080 пикселей
Соотношение сторон                       : 16:9
Режим частоты кадров                     : Переменный
Частота кадров                           : 23,976 кадра/сек
Минимальная частота кадров               : 23,974 кадра/сек
Максимальная частота кадров              : 90000,000 кадров/сек
Цветовое пространство                    : YUV
Субдискретизация насыщенности            : 4:2:0
Битовая глубина                          : 8 бит
Тип развёртки                            : Прогрессивная
Бит/(Пиксели*Кадры)                      : 0.043
Размер потока                            : 58,6 Мбайт (94%)

Аудио
Идентификатор                            : 2
Формат                                   : AAC
Формат/Информация                        : Advanced Audio Codec
Профиль формата                          : LC
Идентификатор кодека                     : 40
Продолжительность                        : 3 м. 47 с.
Вид битрейта                             : Постоянный
Битрейт                                  : 126 Кбит/сек
Каналы                                   : 2 канала
Расположение каналов                     : Front: L R
Частота                                  : 44,1 КГц
Метод сжатия                             : С потерями
Размер потока                            : 3,41 Мбайт (5%)

Общее
Полное имя                               : D:\The Official UK Top 40 Singles Chart (02-10-2015)mp4\20. Little Mix - Black Magic.mp4
Формат                                   : MPEG-4
Профиль формата                          : Base Media
Идентификатор кодека                     : isom
Размер файла                             : 88,0 Мбайт
Продолжительность                        : 3 м. 45 с.
Общий поток                              : 3271 Кбит/сек
Программа кодирования                    : Lavf55.33.100

Видео
Идентификатор                            : 1
Формат                                   : AVC
Формат/Информация                        : Advanced Video Codec
Профиль формата                          :
Параметр CABAC формата                   : Да
Параметр ReFrames формата                : 3 кадра
Идентификатор кодека                     : avc1
Идентификатор кодека/Информация          : Advanced Video Coding
Продолжительность                        : 3 м. 45 с.
Битрейт                                  : 3012 Кбит/сек
Ширина                                   : 1920 пикселей
Высота                                   : 1080 пикселей
Соотношение сторон                       : 16:9
Режим частоты кадров                     : Переменный
Частота кадров                           : 23,976 кадра/сек
Минимальная частота кадров               : 23,974 кадра/сек
Максимальная частота кадров              : 90000,000 кадров/сек
Цветовое пространство                    : YUV
Субдискретизация насыщенности            : 4:2:0
Битовая глубина                          : 8 бит
Тип развёртки                            : Прогрессивная
Бит/(Пиксели*Кадры)                      : 0.061
Размер потока                            : 81,0 Мбайт (92%)

Аудио
Идентификатор                            : 2
Формат                                   : AAC
Формат/Информация                        : Advanced Audio Codec
Профиль формата                          : LC
Идентификатор кодека                     : 40
Продолжительность                        : 3 м. 45 с.
Вид битрейта                             : Постоянный
Битрейт                                  : 254 Кбит/сек
Каналы                                   : 2 канала
Расположение каналов                     : Front: L R
Частота                                  : 44,1 КГц
Метод сжатия                             : С потерями
Размер потока                            : 6,82 Мбайт (8%)

Общее
Полное имя                               : D:\The Official UK Top 40 Singles Chart (02-10-2015)mp4\21. Lost Frequencies - Are You With Me (Official Music Video).mp4
Формат                                   : MPEG-4
Профиль формата                          : Base Media
Идентификатор кодека                     : isom
Размер файла                             : 33,7 Мбайт
Продолжительность                        : 2 м. 16 с.
Общий поток                              : 2075 Кбит/сек
Программа кодирования                    : Lavf55.33.100

Видео
Идентификатор                            : 1
Формат                                   : AVC
Формат/Информация                        : Advanced Video Codec
Профиль формата                          :
Параметр CABAC формата                   : Да
Параметр ReFrames формата                : 3 кадра
Идентификатор кодека                     : avc1
Идентификатор кодека/Информация          : Advanced Video Coding
Продолжительность                        : 2 м. 16 с.
Duration_FirstFrame                      : -40 мс.
Битрейт                                  : 1817 Кбит/сек
Ширина                                   : 1920 пикселей
Высота                                   : 1080 пикселей
Соотношение сторон                       : 16:9
Режим частоты кадров                     : Переменный
Частота кадров                           : 25,000 кадров/сек
Минимальная частота кадров               : 25,000 кадров/сек
Максимальная частота кадров              : 25,014 кадров/сек
Цветовое пространство                    : YUV
Субдискретизация насыщенности            : 4:2:0
Битовая глубина                          : 8 бит
Тип развёртки                            : Прогрессивная
Бит/(Пиксели*Кадры)                      : 0.035
Размер потока                            : 29,5 Мбайт (87%)

Аудио
Идентификатор                            : 2
Формат                                   : AAC
Формат/Информация                        : Advanced Audio Codec
Профиль формата                          : LC
Идентификатор кодека                     : 40
Продолжительность                        : 2 м. 16 с.
Вид битрейта                             : Постоянный
Битрейт                                  : 254 Кбит/сек
Каналы                                   : 2 канала
Расположение каналов                     : Front: L R
Частота                                  : 44,1 КГц
Метод сжатия                             : С потерями
Размер потока                            : 4,12 Мбайт (12%)

Общее
Полное имя                               : D:\The Official UK Top 40 Singles Chart (02-10-2015)mp4\22. Major Lazer & DJ Snake - Lean On (feat. MØ) (Official Music Video).mp4
Формат                                   : MPEG-4
Профиль формата                          : Base Media
Идентификатор кодека                     : isom
Размер файла                             : 84,3 Мбайт
Продолжительность                        : 2 м. 58 с.
Общий поток                              : 3954 Кбит/сек
Программа кодирования                    : Lavf55.33.100

Видео
Идентификатор                            : 1
Формат                                   : AVC
Формат/Информация                        : Advanced Video Codec
Профиль формата                          :
Параметр CABAC формата                   : Да
Параметр ReFrames формата                : 3 кадра
Идентификатор кодека                     : avc1
Идентификатор кодека/Информация          : Advanced Video Coding
Продолжительность                        : 2 м. 58 с.
Duration_FirstFrame                      : -40 мс.
Битрейт                                  : 3695 Кбит/сек
Ширина                                   : 1920 пикселей
Высота                                   : 1080 пикселей
Соотношение сторон                       : 16:9
Режим частоты кадров                     : Переменный
Частота кадров                           : 25,000 кадров/сек
Минимальная частота кадров               : 25,000 кадров/сек
Максимальная частота кадров              : 25,014 кадров/сек
Цветовое пространство                    : YUV
Субдискретизация насыщенности            : 4:2:0
Битовая глубина                          : 8 бит
Тип развёртки                            : Прогрессивная
Бит/(Пиксели*Кадры)                      : 0.071
Размер потока                            : 78,8 Мбайт (93%)

Аудио
Идентификатор                            : 2
Формат                                   : AAC
Формат/Информация                        : Advanced Audio Codec
Профиль формата                          : LC
Идентификатор кодека                     : 40
Продолжительность                        : 2 м. 58 с.
Вид битрейта                             : Постоянный
Битрейт                                  : 254 Кбит/сек
Каналы                                   : 2 канала
Расположение каналов                     : Front: L R
Частота                                  : 44,1 КГц
Метод сжатия                             : С потерями
Размер потока                            : 5,41 Мбайт (6%)

Общее
Полное имя                               : D:\The Official UK Top 40 Singles Chart (02-10-2015)mp4\23. Fetty Wap - Trap Queen (Official Video) Prod. By Tony Fadd.mp4
Формат                                   : MPEG-4
Профиль формата                          : Base Media
Идентификатор кодека                     : isom
Размер файла                             : 36,1 Мбайт
Продолжительность                        : 4 м. 4 с.
Общий поток                              : 1240 Кбит/сек
Программа кодирования                    : Lavf55.33.100

Видео
Идентификатор                            : 1
Формат                                   : AVC
Формат/Информация                        : Advanced Video Codec
Профиль формата                          :
Параметр CABAC формата                   : Да
Параметр ReFrames формата                : 3 кадра
Идентификатор кодека                     : avc1
Идентификатор кодека/Информация          : Advanced Video Coding
Продолжительность                        : 4 м. 4 с.
Битрейт                                  : 980 Кбит/сек
Ширина                                   : 1280 пикселей
Высота                                   : 640 пикселей
Соотношение сторон                       : 2,000
Режим частоты кадров                     : Переменный
Частота кадров                           : 23,976 кадра/сек
Минимальная частота кадров               : 23,974 кадра/сек
Максимальная частота кадров              : 90000,000 кадров/сек
Цветовое пространство                    : YUV
Субдискретизация насыщенности            : 4:2:0
Битовая глубина                          : 8 бит
Тип развёртки                            : Прогрессивная
Бит/(Пиксели*Кадры)                      : 0.050
Размер потока                            : 28,5 Мбайт (79%)

Аудио
Идентификатор                            : 2
Формат                                   : AAC
Формат/Информация                        : Advanced Audio Codec
Профиль формата                          : LC
Идентификатор кодека                     : 40
Продолжительность                        : 4 м. 4 с.
Вид битрейта                             : Постоянный
Битрейт                                  : 254 Кбит/сек
Каналы                                   : 2 канала
Расположение каналов                     : Front: L R
Частота                                  : 44,1 КГц
Метод сжатия                             : С потерями
Размер потока                            : 7,39 Мбайт (20%)

Общее
Полное имя                               : D:\The Official UK Top 40 Singles Chart (02-10-2015)mp4\24. OMI - Cheerleader (Felix Jaehn Remix) [Official Video].mp4
Формат                                   : MPEG-4
Профиль формата                          : Base Media
Идентификатор кодека                     : isom
Размер файла                             : 74,7 Мбайт
Продолжительность                        : 3 м. 9 с.
Общий поток                              : 3311 Кбит/сек
Программа кодирования                    : Lavf55.33.100

Видео
Идентификатор                            : 1
Формат                                   : AVC
Формат/Информация                        : Advanced Video Codec
Профиль формата                          :
Параметр CABAC формата                   : Да
Параметр ReFrames формата                : 3 кадра
Идентификатор кодека                     : avc1
Идентификатор кодека/Информация          : Advanced Video Coding
Продолжительность                        : 3 м. 9 с.
Duration_FirstFrame                      : -40 мс.
Битрейт                                  : 3052 Кбит/сек
Ширина                                   : 1920 пикселей
Высота                                   : 1080 пикселей
Соотношение сторон                       : 16:9
Режим частоты кадров                     : Переменный
Частота кадров                           : 25,000 кадров/сек
Минимальная частота кадров               : 25,000 кадров/сек
Максимальная частота кадров              : 25,014 кадров/сек
Цветовое пространство                    : YUV
Субдискретизация насыщенности            : 4:2:0
Битовая глубина                          : 8 бит
Тип развёртки                            : Прогрессивная
Бит/(Пиксели*Кадры)                      : 0.059
Размер потока                            : 68,8 Мбайт (92%)

Аудио
Идентификатор                            : 2
Формат                                   : AAC
Формат/Информация                        : Advanced Audio Codec
Профиль формата                          : LC
Идентификатор кодека                     : 40
Продолжительность                        : 3 м. 9 с.
Вид битрейта                             : Постоянный
Битрейт                                  : 254 Кбит/сек
Каналы                                   : 2 канала
Расположение каналов                     : Front: L R
Частота                                  : 44,1 КГц
Метод сжатия                             : С потерями
Размер потока                            : 5,72 Мбайт (8%)

Общее
Полное имя                               : D:\The Official UK Top 40 Singles Chart (02-10-2015)mp4\25. Birdy - Wings (Official Video).mp4
Формат                                   : MPEG-4
Профиль формата                          : Base Media
Идентификатор кодека                     : isom
Размер файла                             : 91,9 Мбайт
Продолжительность                        : 4 м. 24 с.
Общий поток                              : 2911 Кбит/сек
Программа кодирования                    : Lavf55.33.100

Видео
Идентификатор                            : 1
Формат                                   : AVC
Формат/Информация                        : Advanced Video Codec
Профиль формата                          :
Параметр CABAC формата                   : Да
Параметр ReFrames формата                : 3 кадра
Идентификатор кодека                     : avc1
Идентификатор кодека/Информация          : Advanced Video Coding
Продолжительность                        : 4 м. 24 с.
Duration_FirstFrame                      : -40 мс.
Битрейт                                  : 2652 Кбит/сек
Ширина                                   : 1920 пикселей
Высота                                   : 1080 пикселей
Соотношение сторон                       : 16:9
Режим частоты кадров                     : Переменный
Частота кадров                           : 25,000 кадров/сек
Минимальная частота кадров               : 25,000 кадров/сек
Максимальная частота кадров              : 25,014 кадров/сек
Цветовое пространство                    : YUV
Субдискретизация насыщенности            : 4:2:0
Битовая глубина                          : 8 бит
Тип развёртки                            : Прогрессивная
Бит/(Пиксели*Кадры)                      : 0.051
Размер потока                            : 83,7 Мбайт (91%)

Аудио
Идентификатор                            : 2
Формат                                   : AAC
Формат/Информация                        : Advanced Audio Codec
Профиль формата                          : LC
Идентификатор кодека                     : 40
Продолжительность                        : 4 м. 24 с.
Вид битрейта                             : Постоянный
Битрейт                                  : 254 Кбит/сек
Каналы                                   : 2 канала
Расположение каналов                     : Front: L R
Частота                                  : 44,1 КГц
Метод сжатия                             : С потерями
Размер потока                            : 8,01 Мбайт (9%)

Общее
Полное имя                               : D:\The Official UK Top 40 Singles Chart (02-10-2015)mp4\26. Ed Sheeran - Photograph (Official Music Video).mp4
Формат                                   : MPEG-4
Профиль формата                          : Base Media
Идентификатор кодека                     : isom
Размер файла                             : 90,6 Мбайт
Продолжительность                        : 4 м. 34 с.
Общий поток                              : 2770 Кбит/сек
Программа кодирования                    : Lavf55.33.100

Видео
Идентификатор                            : 1
Формат                                   : AVC
Формат/Информация                        : Advanced Video Codec
Профиль формата                          :
Параметр CABAC формата                   : Да
Параметр ReFrames формата                : 3 кадра
Идентификатор кодека                     : avc1
Идентификатор кодека/Информация          : Advanced Video Coding
Продолжительность                        : 4 м. 34 с.
Duration_FirstFrame                      : -40 мс.
Битрейт                                  : 2510 Кбит/сек
Ширина                                   : 1920 пикселей
Высота                                   : 1080 пикселей
Соотношение сторон                       : 16:9
Режим частоты кадров                     : Переменный
Частота кадров                           : 25,000 кадров/сек
Минимальная частота кадров               : 25,000 кадров/сек
Максимальная частота кадров              : 25,014 кадров/сек
Цветовое пространство                    : YUV
Субдискретизация насыщенности            : 4:2:0
Битовая глубина                          : 8 бит
Тип развёртки                            : Прогрессивная
Бит/(Пиксели*Кадры)                      : 0.048
Размер потока                            : 82,1 Мбайт (91%)

Аудио
Идентификатор                            : 2
Формат                                   : AAC
Формат/Информация                        : Advanced Audio Codec
Профиль формата                          : LC
Идентификатор кодека                     : 40
Продолжительность                        : 4 м. 34 с.
Вид битрейта                             : Постоянный
Битрейт                                  : 254 Кбит/сек
Каналы                                   : 2 канала
Расположение каналов                     : Front: L R
Частота                                  : 44,1 КГц
Метод сжатия                             : С потерями
Размер потока                            : 8,29 Мбайт (9%)

Общее
Полное имя                               : D:\The Official UK Top 40 Singles Chart (02-10-2015)mp4\27. RITA ORA - Body on Me ft. Chris Brown.mp4
Формат                                   : MPEG-4
Профиль формата                          : Base Media
Идентификатор кодека                     : isom
Размер файла                             : 66,1 Мбайт
Продолжительность                        : 4 м. 38 с.
Общий поток                              : 1992 Кбит/сек
Программа кодирования                    : Lavf55.33.100

Видео
Идентификатор                            : 1
Формат                                   : AVC
Формат/Информация                        : Advanced Video Codec
Профиль формата                          :
Параметр CABAC формата                   : Да
Параметр ReFrames формата                : 3 кадра
Идентификатор кодека                     : avc1
Идентификатор кодека/Информация          : Advanced Video Coding
Продолжительность                        : 4 м. 38 с.
Битрейт                                  : 1860 Кбит/сек
Ширина                                   : 1920 пикселей
Высота                                   : 1080 пикселей
Соотношение сторон                       : 16:9
Режим частоты кадров                     : Переменный
Частота кадров                           : 23,976 кадра/сек
Минимальная частота кадров               : 23,974 кадра/сек
Максимальная частота кадров              : 90000,000 кадров/сек
Цветовое пространство                    : YUV
Субдискретизация насыщенности            : 4:2:0
Битовая глубина                          : 8 бит
Тип развёртки                            : Прогрессивная
Бит/(Пиксели*Кадры)                      : 0.037
Размер потока                            : 61,7 Мбайт (93%)

Аудио
Идентификатор                            : 2
Формат                                   : AAC
Формат/Информация                        : Advanced Audio Codec
Профиль формата                          : LC
Идентификатор кодека                     : 40
Продолжительность                        : 4 м. 38 с.
Вид битрейта                             : Постоянный
Битрейт                                  : 126 Кбит/сек
Каналы                                   : 2 канала
Расположение каналов                     : Front: L R
Частота                                  : 44,1 КГц
Метод сжатия                             : С потерями
Размер потока                            : 4,17 Мбайт (6%)

Общее
Полное имя                               : D:\The Official UK Top 40 Singles Chart (02-10-2015)mp4\28. Sigma ft. Ella Henderson - Glitterball (Official Video).mp4
Формат                                   : MPEG-4
Профиль формата                          : Base Media
Идентификатор кодека                     : isom
Размер файла                             : 86,1 Мбайт
Продолжительность                        : 3 м. 50 с.
Общий поток                              : 3134 Кбит/сек
Программа кодирования                    : Lavf55.33.100

Видео
Идентификатор                            : 1
Формат                                   : AVC
Формат/Информация                        : Advanced Video Codec
Профиль формата                          :
Параметр CABAC формата                   : Да
Параметр ReFrames формата                : 3 кадра
Идентификатор кодека                     : avc1
Идентификатор кодека/Информация          : Advanced Video Coding
Продолжительность                        : 3 м. 50 с.
Duration_FirstFrame                      : -40 мс.
Битрейт                                  : 3003 Кбит/сек
Ширина                                   : 1920 пикселей
Высота                                   : 1080 пикселей
Соотношение сторон                       : 16:9
Режим частоты кадров                     : Переменный
Частота кадров                           : 25,000 кадров/сек
Минимальная частота кадров               : 25,000 кадров/сек
Максимальная частота кадров              : 25,014 кадров/сек
Цветовое пространство                    : YUV
Субдискретизация насыщенности            : 4:2:0
Битовая глубина                          : 8 бит
Тип развёртки                            : Прогрессивная
Бит/(Пиксели*Кадры)                      : 0.058
Размер потока                            : 82,5 Мбайт (96%)

Аудио
Идентификатор                            : 2
Формат                                   : AAC
Формат/Информация                        : Advanced Audio Codec
Профиль формата                          : LC
Идентификатор кодека                     : 40
Продолжительность                        : 3 м. 50 с.
Вид битрейта                             : Постоянный
Битрейт                                  : 126 Кбит/сек
Каналы                                   : 2 канала
Расположение каналов                     : Front: L R
Частота                                  : 44,1 КГц
Метод сжатия                             : С потерями
Размер потока                            : 3,45 Мбайт (4%)

Общее
Полное имя                               : D:\The Official UK Top 40 Singles Chart (02-10-2015)mp4\29. The Weeknd - The Hills.mp4
Формат                                   : MPEG-4
Профиль формата                          : Base Media
Идентификатор кодека                     : isom
Размер файла                             : 64,3 Мбайт
Продолжительность                        : 3 м. 54 с.
Общий поток                              : 2303 Кбит/сек
Программа кодирования                    : Lavf55.33.100

Видео
Идентификатор                            : 1
Формат                                   : AVC
Формат/Информация                        : Advanced Video Codec
Профиль формата                          :
Параметр CABAC формата                   : Да
Параметр ReFrames формата                : 3 кадра
Идентификатор кодека                     : avc1
Идентификатор кодека/Информация          : Advanced Video Coding
Продолжительность                        : 3 м. 54 с.
Битрейт                                  : 2044 Кбит/сек
Ширина                                   : 1920 пикселей
Высота                                   : 1080 пикселей
Соотношение сторон                       : 16:9
Режим частоты кадров                     : Переменный
Частота кадров                           : 23,976 кадра/сек
Минимальная частота кадров               : 23,974 кадра/сек
Максимальная частота кадров              : 90000,000 кадров/сек
Цветовое пространство                    : YUV
Субдискретизация насыщенности            : 4:2:0
Битовая глубина                          : 8 бит
Тип развёртки                            : Прогрессивная
Бит/(Пиксели*Кадры)                      : 0.041
Размер потока                            : 57,0 Мбайт (89%)

Аудио
Идентификатор                            : 2
Формат                                   : AAC
Формат/Информация                        : Advanced Audio Codec
Профиль формата                          : LC
Идентификатор кодека                     : 40
Продолжительность                        : 3 м. 54 с.
Вид битрейта                             : Постоянный
Битрейт                                  : 254 Кбит/сек
Каналы                                   : 2 канала
Расположение каналов                     : Front: L R
Частота                                  : 44,1 КГц
Метод сжатия                             : С потерями
Размер потока                            : 7,08 Мбайт (11%)

Общее
Полное имя                               : D:\The Official UK Top 40 Singles Chart (02-10-2015)mp4\30. Disclosure - Omen ft. Sam Smith.mp4
Формат                                   : MPEG-4
Профиль формата                          : Base Media
Идентификатор кодека                     : isom
Размер файла                             : 56,4 Мбайт
Продолжительность                        : 3 м. 59 с.
Общий поток                              : 1973 Кбит/сек
Программа кодирования                    : Lavf55.33.100

Видео
Идентификатор                            : 1
Формат                                   : AVC
Формат/Информация                        : Advanced Video Codec
Профиль формата                          :
Параметр CABAC формата                   : Да
Параметр ReFrames формата                : 3 кадра
Идентификатор кодека                     : avc1
Идентификатор кодека/Информация          : Advanced Video Coding
Продолжительность                        : 3 м. 59 с.
Duration_FirstFrame                      : -40 мс.
Битрейт                                  : 1842 Кбит/сек
Ширина                                   : 1920 пикселей
Высота                                   : 1080 пикселей
Соотношение сторон                       : 16:9
Режим частоты кадров                     : Переменный
Частота кадров                           : 25,000 кадров/сек
Минимальная частота кадров               : 25,000 кадров/сек
Максимальная частота кадров              : 25,014 кадров/сек
Цветовое пространство                    : YUV
Субдискретизация насыщенности            : 4:2:0
Битовая глубина                          : 8 бит
Тип развёртки                            : Прогрессивная
Бит/(Пиксели*Кадры)                      : 0.036
Размер потока                            : 52,6 Мбайт (93%)

Аудио
Идентификатор                            : 2
Формат                                   : AAC
Формат/Информация                        : Advanced Audio Codec
Профиль формата                          : LC
Идентификатор кодека                     : 40
Продолжительность                        : 3 м. 59 с.
Вид битрейта                             : Постоянный
Битрейт                                  : 126 Кбит/сек
Каналы                                   : 2 канала
Расположение каналов                     : Front: L R
Частота                                  : 44,1 КГц
Метод сжатия                             : С потерями
Размер потока                            : 3,59 Мбайт (6%)

Общее
Полное имя                               : D:\The Official UK Top 40 Singles Chart (02-10-2015)mp4\31. Jason Derulo -  Want To Want Me  (Official Video).mp4
Формат                                   : MPEG-4
Профиль формата                          : Base Media
Идентификатор кодека                     : isom
Размер файла                             : 69,5 Мбайт
Продолжительность                        : 3 м. 47 с.
Общий поток                              : 2559 Кбит/сек
Программа кодирования                    : Lavf55.33.100

Видео
Идентификатор                            : 1
Формат                                   : AVC
Формат/Информация                        : Advanced Video Codec
Профиль формата                          :
Параметр CABAC формата                   : Да
Параметр ReFrames формата                : 3 кадра
Идентификатор кодека                     : avc1
Идентификатор кодека/Информация          : Advanced Video Coding
Продолжительность                        : 3 м. 47 с.
Битрейт                                  : 2300 Кбит/сек
Ширина                                   : 1920 пикселей
Высота                                   : 1080 пикселей
Соотношение сторон                       : 16:9
Режим частоты кадров                     : Переменный
Частота кадров                           : 23,976 кадра/сек
Минимальная частота кадров               : 23,974 кадра/сек
Максимальная частота кадров              : 90000,000 кадров/сек
Цветовое пространство                    : YUV
Субдискретизация насыщенности            : 4:2:0
Битовая глубина                          : 8 бит
Тип развёртки                            : Прогрессивная
Бит/(Пиксели*Кадры)                      : 0.046
Размер потока                            : 62,4 Мбайт (90%)

Аудио
Идентификатор                            : 2
Формат                                   : AAC
Формат/Информация                        : Advanced Audio Codec
Профиль формата                          : LC
Идентификатор кодека                     : 40
Продолжительность                        : 3 м. 47 с.
Вид битрейта                             : Постоянный
Битрейт                                  : 254 Кбит/сек
Каналы                                   : 2 канала
Расположение каналов                     : Front: L R
Частота                                  : 44,1 КГц
Метод сжатия                             : С потерями
Размер потока                            : 6,88 Мбайт (10%)

Общее
Полное имя                               : D:\The Official UK Top 40 Singles Chart (02-10-2015)mp4\32. Skrillex and Diplo -  Where Are Ü Now  with Justin Bieber (Official Video).mp4
Формат                                   : MPEG-4
Профиль формата                          : Base Media
Идентификатор кодека                     : isom
Размер файла                             : 84,7 Мбайт
Продолжительность                        : 4 м. 11 с.
Общий поток                              : 2827 Кбит/сек
Программа кодирования                    : Lavf55.33.100

Видео
Идентификатор                            : 1
Формат                                   : AVC
Формат/Информация                        : Advanced Video Codec
Профиль формата                          :
Параметр CABAC формата                   : Да
Параметр ReFrames формата                : 3 кадра
Идентификатор кодека                     : avc1
Идентификатор кодека/Информация          : Advanced Video Coding
Продолжительность                        : 4 м. 11 с.
Битрейт                                  : 2695 Кбит/сек
Ширина                                   : 1920 пикселей
Высота                                   : 1080 пикселей
Соотношение сторон                       : 16:9
Режим частоты кадров                     : Переменный
Частота кадров                           : 23,976 кадра/сек
Минимальная частота кадров               : 23,974 кадра/сек
Максимальная частота кадров              : 90000,000 кадров/сек
Цветовое пространство                    : YUV
Субдискретизация насыщенности            : 4:2:0
Битовая глубина                          : 8 бит
Тип развёртки                            : Прогрессивная
Бит/(Пиксели*Кадры)                      : 0.054
Размер потока                            : 80,7 Мбайт (95%)

Аудио
Идентификатор                            : 2
Формат                                   : AAC
Формат/Информация                        : Advanced Audio Codec
Профиль формата                          : LC
Идентификатор кодека                     : 40
Продолжительность                        : 4 м. 11 с.
Вид битрейта                             : Постоянный
Битрейт                                  : 126 Кбит/сек
Каналы                                   : 2 канала
Расположение каналов                     : Front: L R
Частота                                  : 44,1 КГц
Метод сжатия                             : С потерями
Размер потока                            : 3,76 Мбайт (4%)

Общее
Полное имя                               : D:\The Official UK Top 40 Singles Chart (02-10-2015)mp4\33. Silentó - Watch Me (Whip Nae Nae) (Official).mp4
Формат                                   : MPEG-4
Профиль формата                          : Base Media
Идентификатор кодека                     : isom
Размер файла                             : 99,9 Мбайт
Продолжительность                        : 3 м. 22 с.
Общий поток                              : 4139 Кбит/сек
Программа кодирования                    : Lavf55.33.100

Видео
Идентификатор                            : 1
Формат                                   : AVC
Формат/Информация                        : Advanced Video Codec
Профиль формата                          :
Параметр CABAC формата                   : Да
Параметр ReFrames формата                : 3 кадра
Идентификатор кодека                     : avc1
Идентификатор кодека/Информация          : Advanced Video Coding
Продолжительность                        : 3 м. 22 с.
Битрейт                                  : 4009 Кбит/сек
Ширина                                   : 1920 пикселей
Высота                                   : 1080 пикселей
Соотношение сторон                       : 16:9
Режим частоты кадров                     : Переменный
Частота кадров                           : 23,976 кадра/сек
Минимальная частота кадров               : 23,974 кадра/сек
Максимальная частота кадров              : 90000,000 кадров/сек
Цветовое пространство                    : YUV
Субдискретизация насыщенности            : 4:2:0
Битовая глубина                          : 8 бит
Тип развёртки                            : Прогрессивная
Бит/(Пиксели*Кадры)                      : 0.081
Размер потока                            : 96,7 Мбайт (97%)

Аудио
Идентификатор                            : 2
Формат                                   : AAC
Формат/Информация                        : Advanced Audio Codec
Профиль формата                          : LC
Идентификатор кодека                     : 40
Продолжительность                        : 3 м. 22 с.
Вид битрейта                             : Постоянный
Битрейт                                  : 126 Кбит/сек
Каналы                                   : 2 канала
Расположение каналов                     : Front: L R
Частота                                  : 44,1 КГц
Метод сжатия                             : С потерями
Размер потока                            : 3,03 Мбайт (3%)

Общее
Полное имя                               : D:\The Official UK Top 40 Singles Chart (02-10-2015)mp4\34. Naguale feat. Andra - Falava (La Maruta).mp4
Формат                                   : MPEG-4
Профиль формата                          : Base Media
Идентификатор кодека                     : isom
Размер файла                             : 95,2 Мбайт
Продолжительность                        : 3 м. 9 с.
Общий поток                              : 4213 Кбит/сек
Программа кодирования                    : Lavf55.33.100

Видео
Идентификатор                            : 1
Формат                                   : AVC
Формат/Информация                        : Advanced Video Codec
Профиль формата                          :
Параметр CABAC формата                   : Да
Параметр ReFrames формата                : 3 кадра
Идентификатор кодека                     : avc1
Идентификатор кодека/Информация          : Advanced Video Coding
Продолжительность                        : 3 м. 9 с.
Duration_FirstFrame                      : -40 мс.
Битрейт                                  : 3955 Кбит/сек
Ширина                                   : 1920 пикселей
Высота                                   : 1080 пикселей
Соотношение сторон                       : 16:9
Режим частоты кадров                     : Переменный
Частота кадров                           : 25,000 кадров/сек
Минимальная частота кадров               : 25,000 кадров/сек
Максимальная частота кадров              : 25,014 кадров/сек
Цветовое пространство                    : YUV
Субдискретизация насыщенности            : 4:2:0
Битовая глубина                          : 8 бит
Тип развёртки                            : Прогрессивная
Бит/(Пиксели*Кадры)                      : 0.076
Размер потока                            : 89,3 Мбайт (94%)

Аудио
Идентификатор                            : 2
Формат                                   : AAC
Формат/Информация                        : Advanced Audio Codec
Профиль формата                          : LC
Идентификатор кодека                     : 40
Продолжительность                        : 3 м. 9 с.
Вид битрейта                             : Постоянный
Битрейт                                  : 254 Кбит/сек
Каналы                                   : 2 канала
Расположение каналов                     : Front: L R
Частота                                  : 44,1 КГц
Метод сжатия                             : С потерями
Размер потока                            : 5,73 Мбайт (6%)

Общее
Полное имя                               : D:\The Official UK Top 40 Singles Chart (02-10-2015)mp4\35. Years & Years - Shine.mp4
Формат                                   : MPEG-4
Профиль формата                          : Base Media
Идентификатор кодека                     : isom
Размер файла                             : 61,6 Мбайт
Продолжительность                        : 4 м. 24 с.
Общий поток                              : 1955 Кбит/сек
Программа кодирования                    : Lavf55.33.100

Видео
Идентификатор                            : 1
Формат                                   : AVC
Формат/Информация                        : Advanced Video Codec
Профиль формата                          :
Параметр CABAC формата                   : Да
Параметр ReFrames формата                : 3 кадра
Идентификатор кодека                     : avc1
Идентификатор кодека/Информация          : Advanced Video Coding
Продолжительность                        : 4 м. 24 с.
Duration_FirstFrame                      : -40 мс.
Битрейт                                  : 1823 Кбит/сек
Ширина                                   : 1920 пикселей
Высота                                   : 1080 пикселей
Соотношение сторон                       : 16:9
Режим частоты кадров                     : Переменный
Частота кадров                           : 25,000 кадров/сек
Минимальная частота кадров               : 25,000 кадров/сек
Максимальная частота кадров              : 25,014 кадров/сек
Цветовое пространство                    : YUV
Субдискретизация насыщенности            : 4:2:0
Битовая глубина                          : 8 бит
Тип развёртки                            : Прогрессивная
Бит/(Пиксели*Кадры)                      : 0.035
Размер потока                            : 57,5 Мбайт (93%)

Аудио
Идентификатор                            : 2
Формат                                   : AAC
Формат/Информация                        : Advanced Audio Codec
Профиль формата                          : LC
Идентификатор кодека                     : 40
Продолжительность                        : 4 м. 24 с.
Вид битрейта                             : Постоянный
Битрейт                                  : 126 Кбит/сек
Каналы                                   : 2 канала
Расположение каналов                     : Front: L R
Частота                                  : 44,1 КГц
Метод сжатия                             : С потерями
Размер потока                            : 3,96 Мбайт (6%)

Общее
Полное имя                               : D:\The Official UK Top 40 Singles Chart (02-10-2015)mp4\36. Fetty Wap  679  feat. Remy Boyz [Official Video].mp4
Формат                                   : MPEG-4
Профиль формата                          : Base Media
Идентификатор кодека                     : isom
Размер файла                             : 83,2 Мбайт
Продолжительность                        : 3 м. 43 с.
Общий поток                              : 3119 Кбит/сек
Программа кодирования                    : Lavf55.33.100

Видео
Идентификатор                            : 1
Формат                                   : AVC
Формат/Информация                        : Advanced Video Codec
Профиль формата                          :
Параметр CABAC формата                   : Да
Параметр ReFrames формата                : 3 кадра
Идентификатор кодека                     : avc1
Идентификатор кодека/Информация          : Advanced Video Coding
Продолжительность                        : 3 м. 43 с.
Duration_FirstFrame                      : -42 мс.
Битрейт                                  : 2988 Кбит/сек
Ширина                                   : 1920 пикселей
Высота                                   : 1080 пикселей
Соотношение сторон                       : 16:9
Режим частоты кадров                     : Переменный
Частота кадров                           : 24,000 кадра/сек
Минимальная частота кадров               : 24,000 кадра/сек
Максимальная частота кадров              : 24,013 кадра/сек
Цветовое пространство                    : YUV
Субдискретизация насыщенности            : 4:2:0
Битовая глубина                          : 8 бит
Тип развёртки                            : Прогрессивная
Бит/(Пиксели*Кадры)                      : 0.060
Размер потока                            : 79,7 Мбайт (96%)

Аудио
Идентификатор                            : 2
Формат                                   : AAC
Формат/Информация                        : Advanced Audio Codec
Профиль формата                          : LC
Идентификатор кодека                     : 40
Продолжительность                        : 3 м. 43 с.
Вид битрейта                             : Постоянный
Битрейт                                  : 126 Кбит/сек
Каналы                                   : 2 канала
Расположение каналов                     : Front: L R
Частота                                  : 44,1 КГц
Метод сжатия                             : С потерями
Размер потока                            : 3,35 Мбайт (4%)

Общее
Полное имя                               : D:\The Official UK Top 40 Singles Chart (02-10-2015)mp4\37. Selena Gomez - Good For You (Explicit) ft. A$AP ROCKY.mp4
Формат                                   : MPEG-4
Профиль формата                          : Base Media
Идентификатор кодека                     : isom
Размер файла                             : 69,3 Мбайт
Продолжительность                        : 3 м. 45 с.
Общий поток                              : 2581 Кбит/сек
Программа кодирования                    : Lavf55.33.100

Видео
Идентификатор                            : 1
Формат                                   : AVC
Формат/Информация                        : Advanced Video Codec
Профиль формата                          :
Параметр CABAC формата                   : Да
Параметр ReFrames формата                : 3 кадра
Идентификатор кодека                     : avc1
Идентификатор кодека/Информация          : Advanced Video Coding
Продолжительность                        : 3 м. 45 с.
Битрейт                                  : 2449 Кбит/сек
Ширина                                   : 1920 пикселей
Высота                                   : 1080 пикселей
Соотношение сторон                       : 16:9
Режим частоты кадров                     : Переменный
Частота кадров                           : 23,976 кадра/сек
Минимальная частота кадров               : 23,974 кадра/сек
Максимальная частота кадров              : 90000,000 кадров/сек
Цветовое пространство                    : YUV
Субдискретизация насыщенности            : 4:2:0
Битовая глубина                          : 8 бит
Тип развёртки                            : Прогрессивная
Бит/(Пиксели*Кадры)                      : 0.049
Размер потока                            : 65,8 Мбайт (95%)

Аудио
Идентификатор                            : 2
Формат                                   : AAC
Формат/Информация                        : Advanced Audio Codec
Профиль формата                          : LC
Идентификатор кодека                     : 40
Продолжительность                        : 3 м. 45 с.
Вид битрейта                             : Постоянный
Битрейт                                  : 126 Кбит/сек
Каналы                                   : 2 канала
Расположение каналов                     : Front: L R
Частота                                  : 44,1 КГц
Метод сжатия                             : С потерями
Размер потока                            : 3,37 Мбайт (5%)

Общее
Полное имя                               : D:\The Official UK Top 40 Singles Chart (02-10-2015)mp4\38. Sam Feldt - Show Me Love (ft. Kimberly Anne) [Official Music Video].mp4
Формат                                   : MPEG-4
Профиль формата                          : Base Media
Идентификатор кодека                     : isom
Размер файла                             : 47,4 Мбайт
Продолжительность                        : 3 м. 1 с.
Общий поток                              : 2196 Кбит/сек
Программа кодирования                    : Lavf55.33.100

Видео
Идентификатор                            : 1
Формат                                   : AVC
Формат/Информация                        : Advanced Video Codec
Профиль формата                          :
Параметр CABAC формата                   : Да
Параметр ReFrames формата                : 3 кадра
Идентификатор кодека                     : avc1
Идентификатор кодека/Информация          : Advanced Video Coding
Продолжительность                        : 3 м. 1 с.
Duration_FirstFrame                      : -40 мс.
Битрейт                                  : 1937 Кбит/сек
Ширина                                   : 1920 пикселей
Высота                                   : 1080 пикселей
Соотношение сторон                       : 16:9
Режим частоты кадров                     : Переменный
Частота кадров                           : 25,000 кадров/сек
Минимальная частота кадров               : 25,000 кадров/сек
Максимальная частота кадров              : 25,014 кадров/сек
Цветовое пространство                    : YUV
Субдискретизация насыщенности            : 4:2:0
Битовая глубина                          : 8 бит
Тип развёртки                            : Прогрессивная
Бит/(Пиксели*Кадры)                      : 0.037
Размер потока                            : 41,8 Мбайт (88%)

Аудио
Идентификатор                            : 2
Формат                                   : AAC
Формат/Информация                        : Advanced Audio Codec
Профиль формата                          : LC
Идентификатор кодека                     : 40
Продолжительность                        : 3 м. 1 с.
Вид битрейта                             : Постоянный
Битрейт                                  : 254 Кбит/сек
Каналы                                   : 2 канала
Расположение каналов                     : Front: L R
Частота                                  : 44,1 КГц
Метод сжатия                             : С потерями
Размер потока                            : 5,48 Мбайт (12%)

Общее
Полное имя                               : D:\The Official UK Top 40 Singles Chart (02-10-2015)mp4\39. Mark Ronson - Uptown Funk ft. Bruno Mars.mp4
Формат                                   : MPEG-4
Профиль формата                          : Base Media
Идентификатор кодека                     : isom
Размер файла                             : 111 Мбайт
Продолжительность                        : 4 м. 30 с.
Общий поток                              : 3445 Кбит/сек
Программа кодирования                    : Lavf55.33.100

Видео
Идентификатор                            : 1
Формат                                   : AVC
Формат/Информация                        : Advanced Video Codec
Профиль формата                          :
Параметр CABAC формата                   : Да
Параметр ReFrames формата                : 3 кадра
Идентификатор кодека                     : avc1
Идентификатор кодека/Информация          : Advanced Video Coding
Продолжительность                        : 4 м. 30 с.
Битрейт                                  : 3186 Кбит/сек
Ширина                                   : 1920 пикселей
Высота                                   : 1080 пикселей
Соотношение сторон                       : 16:9
Режим частоты кадров                     : Переменный
Частота кадров                           : 23,976 кадра/сек
Минимальная частота кадров               : 23,974 кадра/сек
Максимальная частота кадров              : 90000,000 кадров/сек
Цветовое пространство                    : YUV
Субдискретизация насыщенности            : 4:2:0
Битовая глубина                          : 8 бит
Тип развёртки                            : Прогрессивная
Бит/(Пиксели*Кадры)                      : 0.064
Размер потока                            : 103 Мбайт (92%)

Аудио
Идентификатор                            : 2
Формат                                   : AAC
Формат/Информация                        : Advanced Audio Codec
Профиль формата                          : LC
Идентификатор кодека                     : 40
Продолжительность                        : 4 м. 30 с.
Вид битрейта                             : Постоянный
Битрейт                                  : 254 Кбит/сек
Каналы                                   : 2 канала
Расположение каналов                     : Front: L R
Частота                                  : 44,1 КГц
Метод сжатия                             : С потерями
Размер потока                            : 8,18 Мбайт (7%)

Общее
Полное имя                               : D:\The Official UK Top 40 Singles Chart (02-10-2015)mp4\40. James Bay - Let It Go.mp4
Формат                                   : MPEG-4
Профиль формата                          : Base Media
Идентификатор кодека                     : isom
Размер файла                             : 63,0 Мбайт
Продолжительность                        : 4 м. 18 с.
Общий поток                              : 2046 Кбит/сек
Программа кодирования                    : Lavf55.33.100

Видео
Идентификатор                            : 1
Формат                                   : AVC
Формат/Информация                        : Advanced Video Codec
Профиль формата                          :
Параметр CABAC формата                   : Да
Параметр ReFrames формата                : 3 кадра
Идентификатор кодека                     : avc1
Идентификатор кодека/Информация          : Advanced Video Coding
Продолжительность                        : 4 м. 18 с.
Duration_FirstFrame                      : -40 мс.
Битрейт                                  : 1787 Кбит/сек
Ширина                                   : 1920 пикселей
Высота                                   : 1080 пикселей
Соотношение сторон                       : 16:9
Режим частоты кадров                     : Переменный
Частота кадров                           : 25,000 кадров/сек
Минимальная частота кадров               : 25,000 кадров/сек
Максимальная частота кадров              : 25,014 кадров/сек
Цветовое пространство                    : YUV
Субдискретизация насыщенности            : 4:2:0
Битовая глубина                          : 8 бит
Тип развёртки                            : Прогрессивная
Бит/(Пиксели*Кадры)                      : 0.034
Размер потока                            : 55,0 Мбайт (87%)

Аудио
Идентификатор                            : 2
Формат                                   : AAC
Формат/Информация                        : Advanced Audio Codec
Профиль формата                          : LC
Идентификатор кодека                     : 40
Продолжительность                        : 4 м. 18 с.
Вид битрейта                             : Постоянный
Битрейт                                  : 254 Кбит/сек
Каналы                                   : 2 канала
Расположение каналов                     : Front: L R
Частота                                  : 44,1 КГц
Метод сжатия                             : С потерями
Размер потока                            : 7,81 Мбайт (12%)

Скриншоты:

Время раздачи: 24/7 (круглосуточно), до устойчивого сидирования
 
Не забывайте говорить Спасибо. Не уходите с раздачи!   
Торрент: Зарегистрирован [02 окт 2015, 19:04] Скачать торрент
Скачать торрент
[ Размер 17.59 КБ / Просмотров 10 ]
Статус:
Проверен
 
.torrent скачан: 0 раз
Хэш: cd40758eadd23e0671ffdd593efff1abb53eea44
Размер: 2.75 ГБ (2 951 491 020 байт)
Стать Автором раздачи
 
 
Раздал: 0 байт
Скачал: 0 байт
Ратио: Inf.
Сообщения: 188877
Зарегистрирован: 14 июн 2014, 20:46


  • Похожие торренты
    Ответы
    Просмотры
    Последнее сообщение

Вернуться в Музыкальные клипы (транзит)

Ресурс не предоставляет электронные версии произведений, а занимается лишь коллекционированием и каталогизацией ссылок, присылаемых и публикуемых на форуме нашими читателями. Если вы являетесь правообладателем какого-либо представленного материала и не желаете чтобы ссылка на него находилась в нашем каталоге, свяжитесь с нами и мы незамедлительно удалим её. Файлы для обмена на трекере предоставлены пользователями сайта, и администрация не несёт ответственности за их содержание. Просьба не заливать файлы, защищенные авторскими правами, а также файлы нелегального содержания!
cron