Новости 112. Итоговый выпуск / Новини 112. Підсумковий випуск / Выпуски за сентябрь (+30 сентября) [2015 г., Информация, публицистика, репортаж, HDTVRip 720p]

 
 Статистика раздачи 
Размер: 12.29 ГБ   |  Зарегистрирован: 01 окт 2015, 10:56   |   .torrent скачан: 0 раз
Сидеров: 1  [ 0 байт/сек ]     Личеров: 0  [ 0 байт/сек ]  
  

Новости 112. Итоговый выпуск / Новини 112. Підсумковий випуск / Выпуски за сентябрь (+30 сентября) [2015 г., Информация, публицистика, репортаж, HDTVRip 720p]

Сообщение Thelver1947 » 01 окт 2015, 10:56

Новости 112. Итоговый выпуск
Выпуски за сентябрь 2015 года

30 сентября в 23:05 добавлен выпуск за 30 сентября,
перекачайте торрент-файл, пожалуйста
HDTVRip (XviD) | Все выпуски
Год выпуска: 2015
Страна: Украина
Жанр: Информационная программа
Ведущие: Инна Керча, Владимир Андриевский, Юлия Галушка, Иван Костроба, Светлана Катренко, Тимур Мирошниченко
Язык: Украинский, русский
Продолжительность: ~ 00:25:00
Описание:
Новости 112 - оперативное, беспристрастное и всестороннее освещение событий в Украине и мире. Новости канала "112 Украина" – с раннего утра до поздней ночи только в прямом эфире.
Выход в эфир: ежедневно на "112 Украина HD".
Исходник: HDTV 1080i
Качество: HDTVRip 720p
Формат: MKV
Видео кодек: H.264/AVC _ Аудио кодек: AC-3
Видео: 1280x720 (16:9), ~ 3 000 Kbps, 25 fps, 0.120 bit/pixel
Аудио: AC-3, 128 Kbps, 48.0 KHz, 2 ch
01) Выпуск за 1 сентября (19:00)
02) Выпуск за 2 сентября (19:00)
03) Выпуск за 3 сентября (19:00)
04) Выпуск за 4 сентября (19:00)
05) Выпуск за 5 сентября (19:00)
06) Выпуск за 6 сентября (19:00)
07) Выпуск за 7 сентября (19:00)
08) Выпуск за 8 сентября (19:00)
09) Выпуск за 9 сентября (19:00)
10) Выпуск за 10 сентября (19:00)
11) Выпуск за 11 сентября (19:00)
12) Выпуск за 12 сентября (19:00)
13) Выпуск за 13 сентября (19:00)
14) Выпуск за 14 сентября (19:00)
15) Выпуск за 15 сентября (19:00)
16) Выпуск за 16 сентября (19:00)
17) Выпуск за 17 сентября (20:00)
18) Выпуск за 18 сентября (19:00)
19) Выпуск за 19 сентября (19:00)
20) Выпуск за 20 сентября (19:00)
21) Выпуск за 21 сентября (19:00)
22) Выпуск за 22 сентября (19:00)
23) Выпуск за 23 сентября (19:00)
24) Выпуск за 24 сентября (19:00)
25) Выпуск за 25 сентября (19:00)
26) Выпуск за 26 сентября (19:00)
27) Выпуск за 27 сентября (19:00)
28) Выпуск за 28 сентября (20:00)
29) Выпуск за 29 сентября (19:00)
30) Выпуск за 30 сентября (19:00)

Код:
Код: Выделить всё
General
Unique ID                  : 227867279490321729732138547175135945334 (0xAB6DA445E75C49C99B7F8CFA3F2CA276)
Complete name              : \Novyny.112.(2015.06).HD.720p\06.01_Novyny.112.(HDTVRip.720p.AleMak).mkv
Format                     : Matroska
Format version             : Version 2
File size                  : 612 MiB
Duration                   : 30mn 11s
Overall bit rate           : 2 836 Kbps
Encoded date               : UTC 2015-06-01 20:11:59
Writing application        : mkvmerge v3.4.0 ('Rapunzel') сборка от May 15 2010 09:38:20
Writing library            : libebml v0.8.0 + libmatroska v0.9.0

Video
ID                         : 1
Format                     : AVC
Format/Info                : Advanced Video Codec
Format profile             : High@L4.1
Format settings, CABAC     : Yes
Format settings, ReFrames  : 8 frames
Codec ID                   : V_MPEG4/ISO/AVC
Duration                   : 30mn 11s
Bit rate                   : 2 651 Kbps
Width                      : 1 280 pixels
Height                     : 720 pixels
Display aspect ratio       : 16:9
Frame rate mode            : Constant
Frame rate                 : 25.000 fps
Color space                : YUV
Chroma subsampling         : 4:2:0
Bit depth                  : 8 bits
Scan type                  : Progressive
Bits/(Pixel*Frame)         : 0.115
Stream size                : 573 MiB (93%)
Writing library            : x264 core 125 r2200 999b753
Encoding settings          : cabac=1 / ref=8 / deblock=1:-1:0 / analyse=0x3:0x113 / me=umh / subme=9 / psy=1 / psy_rd=0.40:0.00 / mixed_ref=1 / me_range=24 / chroma_me=1 / trellis=2 / 8x8dct=1 / cqm=0 / deadzone=21,11 / fast_pskip=0 / chroma_qp_offset=-2 / threads=6 / lookahead_threads=1 / sliced_threads=0 / nr=0 / decimate=1 / interlaced=0 / bluray_compat=0 / constrained_intra=0 / bframes=3 / b_pyramid=2 / b_adapt=2 / b_bias=0 / direct=3 / weightb=1 / open_gop=0 / weightp=2 / keyint=250 / keyint_min=25 / scenecut=40 / intra_refresh=0 / rc_lookahead=60 / rc=crf / mbtree=1 / crf=22.0 / qcomp=0.70 / qpmin=0 / qpmax=69 / qpstep=4 / vbv_maxrate=17500 / vbv_bufsize=14000 / crf_max=0.0 / nal_hrd=none / ip_ratio=1.40 / aq=1:0.60
Default                    : No
Forced                     : No

Audio
ID                         : 2
Format                     : AC-3
Format/Info                : Audio Coding 3
Mode extension             : CM (complete main)
Format settings, Endianness: Big
Codec ID                   : A_AC3
Duration                   : 30mn 11s
Bit rate mode              : Constant
Bit rate                   : 128 Kbps
Channel(s)                 : 2 channels
Channel positions          : Front: L R
Sampling rate              : 48.0 KHz
Bit depth                  : 16 bits
Compression mode           : Lossy
Stream size                : 27.6 MiB (5%)
Default                    : Yes
Forced                     : No


При каждом добавлении создаётся новый торрент. Чтобы начать докачку нового выпуска, пользователям необходимо сделать следующее:
● остановить скачивание;
● удалить старый торрент у себя из клиента (старые выпуски удалять не надо);
● скачать новый торрент и запустить его у себя в клиенте вместо старого, при этом указать клиенту путь в старую папку куда и должно происходить скачивание новых выпусков;
● ваш клиент при запуске должен произвести хеширование (проверку) старой папки (если не производит сам - помогите ему сделать это), и будет докачивать только те выпуски, которых у вас ещё нет. Старые выпуски при этом не удаляются, а продолжают раздаваться!
● Eсли вы уже удалили старые выпуски, то предотвратить повторную закачку старых выпусков можно, отжав галочку в соответсвующих местах при запуске нового торрента.
Как закачать отдельный файл из торрента или докачать ранее пропущенные файлы торрента!
При закачке сериалов или видео-сборников рекомендую такую схему:
выставляем приоритет первого выпуска Высокий, следующих 1-2-х выпусков - Нормальный, следующих 1-2-х выпусков - Низкий, приоритет остальных пока ставим - Не загружать (пропущен).
По мере выкачки первых выпусков меняем приоритеты последующих. В итоге довольно скоро начинаем смотреть первые выпуски, а остальные пока качаются.

Украинские политические ток-шоу в прямом эфире:
Шустер live (ТРК "Украина", "Первый национальный")
Свобода слова (ICTV)
Большая Политика (ИНТЕР)
РесПублика с Анной Безулик (5 канал)
Вечер с Николаем Княжицким (ТВi)
Черное и белое (TVi)
---
Российские политические ток-шоу в прямом эфире:
Прямой эфир с Савиком Шустером (РБК ТВ)
---
Заседания Совета Безопасности ООН по Украине за март-май 2014 г
Если на раздаче долгое время нет раздающих - пишите мне в личку
 
Не забывайте говорить Спасибо. Не уходите с раздачи!   
Торрент: Зарегистрирован [01 окт 2015, 10:56] Для скачивания .torrent
необходима регистрация
Или скачать с помощью
MediaGet
Статус:
Проверен
 
.torrent скачан: 0 раз
Хэш: 126a9379b69337a02279de2c15c10aa6dc3d1027
Размер: 12.29 ГБ (13 193 335 801 байт)
Стать Автором раздачи
 
 
Раздал: 690.52 МБ
Скачал: 0 байт
Ратио: Seed.
Сообщения: 218210
Зарегистрирован: 14 июн 2014, 21:11


  • Похожие торренты
    Ответы
    Просмотры
    Последнее сообщение

Вернуться в Телепередачи (HD Video), не являющиеся документалистикой

Кто сейчас на конференции

Сейчас эту тему просматривают: нет зарегистрированных пользователей и гости: 1

Ресурс не предоставляет электронные версии произведений, а занимается лишь коллекционированием и каталогизацией ссылок, присылаемых и публикуемых на форуме нашими читателями. Если вы являетесь правообладателем какого-либо представленного материала и не желаете чтобы ссылка на него находилась в нашем каталоге, свяжитесь с нами и мы незамедлительно удалим её. Файлы для обмена на трекере предоставлены пользователями сайта, и администрация не несёт ответственности за их содержание. Просьба не заливать файлы, защищенные авторскими правами, а также файлы нелегального содержания!