Универсальный фидер (2014) IPTVRip [H.264] (1-8 серии) [MP4|720x400]

 
 Статистика раздачи 
Размер: 2.9 ГБ   |  Зарегистрирован: 01 окт 2015, 00:57   |   .torrent скачан: 8 раз
Сидеров: 39  [ 0 байт/сек ]     Личеров: 5  [ 0 байт/сек ]  
  

Универсальный фидер (2014) IPTVRip [H.264] (1-8 серии) [MP4|720x400]

Сообщение Seepas » 01 окт 2015, 00:57

Универсальный фидер (2014) IPTVRip

Жанр: Документальный

Режиссер: Андрей Довгопол
Ведущий: Юрий Сипцов

Описание:
Революцией в мире рыболовных снастей стало решение применять кормушку-грузило в сочетании с тонкой, но надежной снастью. И не случайно этот метод получил название "фидер", что по-английски означает "кормушка". Родина этого эффективного способа ловли - Англия, где фидер широко распространен, как среди спортсменов, так и среди рыболовов-любителей. Благодаря универсальности этой снасти число почитателей фидера с каждым днем растет, ведь фидер одинаково эффективен и на водоемах без течения и на реке, позволяет ловить практически любую рыбу, начиная от элементарной плотвы, густеры, леща и карася, и заканчивая карпом, усачом, сазаном и даже форелью и хариусом.

Продолжительность: 8 серий ~ 00:25:00 серия
Качество видео: IPTVRip

Видео: AVC/H.264, 720x400, ~1800 Kbps
Аудио: AC3, 2 ch, 192 Kbps
1. Ведущий программы Юрий Сипцов познакомит зрителя с основами ловли легкой фидерной снастью под названием пикер.
2. Лето в разгаре и информация о поимке хорошего подлещика привела съемочную группу телеканала «Охота и рыбалка» на водоем - канал им. Москвы.
3. Платная рыбалка динамично развивается в России. Секретами поимки карпа на фидер на коммерческом водоеме делится постоянный ведущий программы Юрий Сипцов.
4. В этой программе разговор пойдет о ловле рыбы на водоеме с умеренным течением. Юрий Сипцов расскажет о технике монтажа фидерной снасти.
5. Многие рыболовы сталкиваются с проблемами фидерной рыбалки на быстром течении. Разобраться с ними поможет Юрий Сипцов.
6. Хеви-фидер самый мощный и силовой вид фидерной снасти. Как выполнить дальний заброс и смонтировать снасть для ловли на дальней дистанции расскажет Юрий Сипцов
7. Фидерная снасть под названием "метод" совсем не изучена в России. Этот вид ловли отлично подходит для поимки рыбы семейства карповых. Об этой и пойдет речь.
8. В этой программе пойдет речь о зимнем фидере. Ведущий Юрий Сипцов расскажет о подготовке приманки и характере поведения рыб зимой.
Код:
Код: Выделить всё
Универсальный фидер.mp4
Format                      : MPEG-4
Format profile              : Base Media
Codec ID                    : isom
File size                   : 370 MiB
Duration                    : 25mn 53s
Overall bit rate            : 1 997 Kbps
Writing application         : XviD4PSP 6.0 / 54.29.105

Video
ID                          : 2
Format                      : AVC
Format/Info                 : Advanced Video Codec
Format profile              :
Format settings, CABAC      : Yes
Format settings, ReFrames   : 3 frames
Codec ID                    : avc1
Codec ID/Info               : Advanced Video Coding
Duration                    : 25mn 53s
Bit rate                    : 1 800 Kbps
Width                       : 720 pixels
Height                      : 400 pixels
Display aspect ratio        : 16:9
Frame rate mode             : Constant
Frame rate                  : 25.000 fps
Color space                 : YUV
Chroma subsampling          : 4:2:0
Bit depth                   : 8 bits
Scan type                   : Progressive
Bits/(Pixel*Frame)          : 0.250
Stream size                 : 333 MiB (90%)
Writing library             : x264 core 128 r2216M 198a7ea
Encoding settings           : cabac=1 / ref=3 / deblock=1:0:0 / analyse=0x3:0x133 / me=hex / subme=7 / psy=1 / psy_rd=1.00:0.20 / mixed_ref=1 / me_range=16 / chroma_me=1 / trellis=1 / 8x8dct=1 / cqm=0 / deadzone=21,11 / fast_pskip=1 / chroma_qp_offset=-3 / threads=4 / lookahead_threads=1 / sliced_threads=0 / nr=0 / decimate=1 / interlaced=0 / bluray_compat=0 / constrained_intra=0 / bframes=3 / b_pyramid=1 / b_adapt=2 / b_bias=0 / direct=3 / weightb=1 / open_gop=0 / weightp=2 / keyint=250 / keyint_min=25 / scenecut=40 / intra_refresh=0 / rc_lookahead=40 / rc=2pass / mbtree=1 / bitrate=1800 / ratetol=1.0 / qcomp=0.60 / qpmin=10 / qpmax=51 / qpstep=4 / cplxblur=20.0 / qblur=0.5 / vbv_maxrate=9000 / vbv_bufsize=1835 / nal_hrd=none / ip_ratio=1.40 / aq=1:1.00

Audio
ID                          : 1
Format                      : AC-3
Format/Info                 : Audio Coding 3
Mode extension              : CM (complete main)
Format settings, Endianness : Big
Codec ID                    : ac-3
Duration                    : 25mn 53s
Bit rate mode               : Constant
Bit rate                    : 192 Kbps
Channel(s)                  : 2 channels
Channel positions           : Front: L R
Sampling rate               : 48.0 KHz
Bit depth                   : 16 bits
Compression mode            : Lossy
Stream size                 : 35.6 MiB (10%)
Language                    : Russian

Скриншоты:



Время раздачи: Пн-Пт с 18:00 до 22:00
 
Не забывайте говорить Спасибо. Не уходите с раздачи!   
Торрент: Зарегистрирован [01 окт 2015, 00:57] Для скачивания .torrent
необходима регистрация
Или скачать с помощью
MediaGet
Статус:
Проверен
 
.torrent скачан: 8 раз
Хэш: e37a30e15da48d42c95b49adf77d28a8dfbb8f52
Размер: 2.9 ГБ (3 110 622 241 байт)
Стать Автором раздачи
 
 
Раздал: 0 байт
Скачал: 0 байт
Ратио: Inf.
Сообщения: 188877
Зарегистрирован: 14 июн 2014, 20:46


  • Похожие торренты
    Ответы
    Просмотры
    Последнее сообщение

Вернуться в Видео для мобильных устройств

Ресурс не предоставляет электронные версии произведений, а занимается лишь коллекционированием и каталогизацией ссылок, присылаемых и публикуемых на форуме нашими читателями. Если вы являетесь правообладателем какого-либо представленного материала и не желаете чтобы ссылка на него находилась в нашем каталоге, свяжитесь с нами и мы незамедлительно удалим её. Файлы для обмена на трекере предоставлены пользователями сайта, и администрация не несёт ответственности за их содержание. Просьба не заливать файлы, защищенные авторскими правами, а также файлы нелегального содержания!
cron