Общественно-политическое ток-шоу Светланы Сорокиной - Основной инстинкт (Роман Бутовский) [22.04.2005, VHSRip]

 
 Статистика раздачи 
Размер: 1.43 ГБ   |  Зарегистрирован: 27 сен 2015, 16:04   |   .torrent скачан: 0 раз
Сидеров: 1  [ 0 байт/сек ]     Личеров: 0  [ 0 байт/сек ]  
  

Общественно-политическое ток-шоу Светланы Сорокиной - Основной инстинкт (Роман Бутовский) [22.04.2005, VHSRip]

Сообщение BitFire » 27 сен 2015, 16:04

Основной инстинкт
выпуск (97) Проблемы российского сиротства

Дата/Год выпуска: 22.04.2005
Страна: Россия
Жанр: ток-шоу
Продолжительность: 00:41:10
Перевод: Не требуется
Русские субтитры: нет

Режиссер: Роман Бутовский

Телеканал: Первый
Описание: "Основной инстинкт" - это ток-шоу нового поколения, ломающее стереотипы. Каждый раз Светлана Сорокина, как автор и ведущая, будет выбирать тему программы. Это может быть актуальное событие, которое необходимо немедленно обсудить. Это может быть любое другое, даже незамеченное широкой общественностью событие, которое лично она считает важным и значительным для всех нас. В студии программы нет деления на публику, экспертов и героев. Все сидят рядом на скамьях амфитеатра, все имеют возможность высказать свою точку зрения. Все, включая ведущую, потому что она не собирается скрывать своего отношения к происходящему.

качество: VHSRip
формат: MP4
Видео: H.264/AVC,720X540 (4:3),4793 Кбит/сек,50 кадр/сек
Аудио: AAC,126 Кбит/сек,48кГц.2 канала
Код: Выделить всё
Общее
Формат                                   : MPEG-4
Профиль формата                          : Base Media / Version 2
Идентификатор кодека                     : mp42
Размер файла                             : 1,42 Гбайт
Продолжительность                        : 41 м.
Режим общего битрейта                    : Переменный
Общий поток                              : 4924 Кбит/сек
Дата кодирования                         : UTC 2014-05-25 22:21:57
Дата пометки                             : UTC 2014-05-26 01:35:41

Видео
Идентификатор                            : 1
Формат                                   : AVC
Формат/Информация                        : Advanced Video Codec
Профиль формата                          : High@L3.0
Параметр CABAC формата                   : Да
Параметр ReFrames формата                : 4 кадра
Идентификатор кодека                     : avc1
Идентификатор кодека/Информация          : Advanced Video Coding
Продолжительность                        : 41 м.
Вид битрейта                             : Переменный
Битрейт                                  : 4793 Кбит/сек
Максимальный битрейт                     : 11,1 Мбит/сек
Ширина                                   : 720 пикселей
Высота                                   : 540 пикселей
Соотношение сторон                       : 4:3
Режим частоты кадров                     : Постоянный
Частота кадров                           : 50 кадров/сек
Стандарт вещания                         : PAL
Цветовое пространство                    : YUV
Субдискретизация насыщенности            : 4:2:0
Битовая глубина                          : 8 бит
Тип развёртки                            : Прогрессивная
Бит/(Пиксели*Кадры)                      : 0.493
Размер потока                            : 1,38 Гбайт (97%)
Язык                                     : English
Дата кодирования                         : UTC 2014-05-25 22:21:57
Дата пометки                             : UTC 2014-05-26 01:35:41

Аудио
Идентификатор                            : 2
Формат                                   : AAC
Формат/Информация                        : Advanced Audio Codec
Профиль формата                          : LC
Идентификатор кодека                     : 40
Продолжительность                        : 41 м.
Вид битрейта                             : Переменный
Битрейт                                  : 126 Кбит/сек
Максимальный битрейт                     : 149 Кбит/сек
Каналы                                   : 2 канала
Расположение каналов                     : Front: L R
Частота                                  : 48,0 КГц
Метод сжатия                             : С потерями
Размер потока                            : 37,1 Мбайт (3%)
Заголовок                                : PCM 2-кан. 48KHz
Язык                                     : English
Дата кодирования                         : UTC 2014-05-25 22:21:57
Дата пометки                             : UTC 2014-05-26 01:35:41
 
Не забывайте говорить Спасибо. Не уходите с раздачи!   
Торрент: Зарегистрирован [27 сен 2015, 16:04] Для скачивания .torrent
необходима регистрация
Или скачать с помощью
MediaGet
Статус:
Проверен
 
.torrent скачан: 0 раз
Хэш: c55d18ea2f262dd95aff680468c1f8662a3ad1a9
Размер: 1.43 ГБ (1 533 570 883 байт)
Стать Автором раздачи
 
 
Раздал: 398.6 ГБ
Скачал: 172 МБ
Ратио: 2373.085
Сообщения: 228131
Зарегистрирован: 17 апр 2014, 15:26


  • Похожие торренты
    Ответы
    Просмотры
    Последнее сообщение

Вернуться в Социальные ток-шоу

Ресурс не предоставляет электронные версии произведений, а занимается лишь коллекционированием и каталогизацией ссылок, присылаемых и публикуемых на форуме нашими читателями. Если вы являетесь правообладателем какого-либо представленного материала и не желаете чтобы ссылка на него находилась в нашем каталоге, свяжитесь с нами и мы незамедлительно удалим её. Файлы для обмена на трекере предоставлены пользователями сайта, и администрация не несёт ответственности за их содержание. Просьба не заливать файлы, защищенные авторскими правами, а также файлы нелегального содержания!