VA - Осенний марафон № 194 / Видеоклипы (Зарубежный Коктейль Танцевальных Новинок) (2015) WEBRip [H.264/1080p-LQ]

 
 Статистика раздачи 
Размер: 3.24 ГБ   |  Зарегистрирован: 27 сен 2015, 14:18   |   .torrent скачан: 0 раз
Сидеров: 1  [ 0 байт/сек ]     Личеров: 0  [ 0 байт/сек ]  
  

VA - Осенний марафон № 194 / Видеоклипы (Зарубежный Коктейль Танцевальных Новинок) (2015) WEBRip [H.264/1080p-LQ]

Сообщение Seepas » 27 сен 2015, 14:18

VA - Осенний марафон № 194 / (Зарубежный Коктейль Танцевальных Новинок) (2015) WEBRip

Жанр: Pop, Dance, Latino, Country, House, Electronic, Synthpop

Описание:
Осенние (27.09.2015) поп. новинки зарубежной эстрады. Не пропустите, держите новые треки.

Кол-во клипов: 25
Продолжительность: 01:35:50
Качество видео: WEBRip

Видео: AVC/H.264, 1920x1080 (16:9), 25.000 fps, ~ 4815 kbps
Аудио: AAC, 2 ch, 138 - 152 Kbps avg, VBR
Треклист:
1. Alexander Brown ft. Jack Savoretti - Jack In A Box (Official Video) (00:03:31)
2. Carina Dahl - Champions (Official Video) (00:03:40)
3. Cassadee Pope - I Am Invincible (Official Video) (00:03:33)
4. Chris Brown - Liquor Zero (Explicit Version) (Official Video) (00:09:30)
5. Chris Lago - Seasons (Official Video) (00:03:40)
6. Culcha Candela ft. Roldan - La Bomba (Official Video) (00:03:45)
7. David Guetta & Showtek ft. Magic! & Sonny Wilson - Sun Goes Down (Official Video) (00:03:14)
8. Emin ft. Nile Rodgers - Boomerang (Official Video) (00:02:59)
9. Fanny Lu - El Perfume (Official Video) (00:05:17)
10. Flo Rida - My House (Official Video) (00:03:16)
11. Geo Da Silva & Jack Mazzoni - Bailando Conga (Official Video) (00:03:43)
12. Iyaz - Alive ft. Nash of Hot Chelle Rae (Official Video) (00:03:40)
13. Jackson ft. James Yuill - Love Love Love (Zwette Radio Edit) (Official Video) (00:03:43)
14. James Hersey - Coming Over (filous Remix) (Official Video) (00:03:27)
15. Jesse & Joy - Ecos de Amor (Official Video) (00:03:33)
16. Kate Ryan - Runaway (Smalltown Boy) (Official Video) (00:03:23)
17. Lipstick Gypsy - Infatuation (Official Video) (00:03:59)
18. Margaret - Dance For 2 (Official Video) (00:03:05)
19. Milania - Made Of Steel (Official Video) (00:03:16)
20. Nelly ft. Jeremih - The Fix (Official Video) (00:03:13)
21. Nick Carter - I Will Wait (Official Video) (00:03:29)
22. Scooter – Riot (360° Live Video) (Official Video) (00:08:20)
23. Seven Lions - Falling Away (Lyric Video) (Official Video) (00:04:00)
24. Sofia Carson - Rotten to the Core (Official Video) (00:03:33)
25. Tiësto & Don Diablo ft. Thomas Troelsen - Chemicals (Official Video) (00:03:40)
Код:
Код: Выделить всё
Общее
Полное имя                               : E:\VA - Осенний марафон № 194 (Зарубежный Коктейль Танцевальных Новинок)\Alexander Brown ft. Jack Savoretti - Jack In A Box (Official Video).mp4
Формат                                   : MPEG-4
Профиль формата                          : Base Media
Идентификатор кодека                     : isom
Размер файла                             : 112 Мбайт
Продолжительность                        : 3 м. 31 с.
Режим общего битрейта                    : Переменный
Общий поток                              : 4432 Кбит/сек
Дата кодирования                         : UTC 2015-06-12 05:08:49
Дата пометки                             : UTC 2015-06-12 05:08:49
Программа кодирования                    : Lavf54.63.104

Видео
Идентификатор                            : 1
Формат                                   : AVC
Формат/Информация                        : Advanced Video Codec
Профиль формата                          : Main@L4
Параметр CABAC формата                   : Да
Параметр ReFrames формата                : 1 кадр
Идентификатор кодека                     : avc1
Идентификатор кодека/Информация          : Advanced Video Coding
Продолжительность                        : 3 м. 31 с.
Битрейт                                  : 4496 Кбит/сек
Ширина                                   : 1920 пикселей
Высота                                   : 1080 пикселей
Соотношение сторон                       : 16:9
Режим частоты кадров                     : Постоянный
Частота кадров                           : 25,000 кадров/сек
Цветовое пространство                    : YUV
Субдискретизация насыщенности            : 4:2:0
Битовая глубина                          : 8 бит
Тип развёртки                            : Прогрессивная
Бит/(Пиксели*Кадры)                      : 0.087
Размер потока                            : 108 Мбайт (97%)
Библиотека кодирования                   : x264 core 129
Настройки программы                      : cabac=1 / ref=1 / deblock=1:0:0 / analyse=0x1:0x131 / me=dia / subme=2 / psy=1 / psy_rd=1.00:0.00 / mixed_ref=0 / me_range=16 / chroma_me=1 / trellis=0 / 8x8dct=0 / cqm=0 / deadzone=21,11 / fast_pskip=1 / chroma_qp_offset=0 / threads=2 / lookahead_threads=1 / sliced_threads=0 / nr=0 / decimate=1 / interlaced=0 / bluray_compat=0 / constrained_intra=0 / bframes=0 / weightp=2 / keyint=250 / keyint_min=25 / scenecut=40 / intra_refresh=0 / rc_lookahead=40 / rc=abr / mbtree=1 / bitrate=4496 / ratetol=1.0 / qcomp=0.60 / qpmin=10 / qpmax=51 / qpstep=4 / ip_ratio=1.41 / aq=1:1.00
Дата кодирования                         : UTC 2015-06-12 05:08:49
Дата пометки                             : UTC 2015-06-12 05:08:49

Аудио
Идентификатор                            : 2
Формат                                   : AAC
Формат/Информация                        : Advanced Audio Codec
Профиль формата                          : LC
Идентификатор кодека                     : 40
Продолжительность                        : 3 м. 31 с.
Duration_FirstFrame                      : 70 мс.
Вид битрейта                             : Переменный
Битрейт                                  : 138 Кбит/сек
Максимальный битрейт                     : 176 Кбит/сек
Каналы                                   : 2 канала
Расположение каналов                     : Front: L R
Частота                                  : 44,1 КГц
Метод сжатия                             : С потерями
Размер потока                            : 3,47 Мбайт (3%)
Дата кодирования                         : UTC 2015-06-12 05:08:49
Дата пометки                             : UTC 2015-06-12 05:08:49
Общее
Полное имя                               : E:\VA - Осенний марафон № 194 (Зарубежный Коктейль Танцевальных Новинок)\Carina Dahl - Champions (Official Video).mp4
Формат                                   : MPEG-4
Профиль формата                          : Base Media
Идентификатор кодека                     : isom
Размер файла                             : 124 Мбайт
Продолжительность                        : 3 м. 40 с.
Режим общего битрейта                    : Переменный
Общий поток                              : 4726 Кбит/сек
Дата кодирования                         : UTC 2015-09-24 04:10:27
Дата пометки                             : UTC 2015-09-24 04:10:27
Программа кодирования                    : Lavf54.63.104

Видео
Идентификатор                            : 1
Формат                                   : AVC
Формат/Информация                        : Advanced Video Codec
Профиль формата                          : Main@L4
Параметр CABAC формата                   : Да
Параметр ReFrames формата                : 1 кадр
Идентификатор кодека                     : avc1
Идентификатор кодека/Информация          : Advanced Video Coding
Продолжительность                        : 3 м. 40 с.
Битрейт                                  : 4496 Кбит/сек
Ширина                                   : 1920 пикселей
Высота                                   : 1080 пикселей
Соотношение сторон                       : 16:9
Режим частоты кадров                     : Постоянный
Частота кадров                           : 25,000 кадров/сек
Цветовое пространство                    : YUV
Субдискретизация насыщенности            : 4:2:0
Битовая глубина                          : 8 бит
Тип развёртки                            : Прогрессивная
Бит/(Пиксели*Кадры)                      : 0.087
Размер потока                            : 120 Мбайт (97%)
Библиотека кодирования                   : x264 core 129
Настройки программы                      : cabac=1 / ref=1 / deblock=1:0:0 / analyse=0x1:0x131 / me=dia / subme=2 / psy=1 / psy_rd=1.00:0.00 / mixed_ref=0 / me_range=16 / chroma_me=1 / trellis=0 / 8x8dct=0 / cqm=0 / deadzone=21,11 / fast_pskip=1 / chroma_qp_offset=0 / threads=2 / lookahead_threads=1 / sliced_threads=0 / nr=0 / decimate=1 / interlaced=0 / bluray_compat=0 / constrained_intra=0 / bframes=0 / weightp=2 / keyint=250 / keyint_min=25 / scenecut=40 / intra_refresh=0 / rc_lookahead=40 / rc=abr / mbtree=1 / bitrate=4496 / ratetol=1.0 / qcomp=0.60 / qpmin=10 / qpmax=51 / qpstep=4 / ip_ratio=1.41 / aq=1:1.00
Дата кодирования                         : UTC 2015-09-24 04:10:27
Дата пометки                             : UTC 2015-09-24 04:10:27

Аудио
Идентификатор                            : 2
Формат                                   : AAC
Формат/Информация                        : Advanced Audio Codec
Профиль формата                          : LC
Идентификатор кодека                     : 40
Продолжительность                        : 3 м. 40 с.
Duration_FirstFrame                      : 70 мс.
Вид битрейта                             : Переменный
Битрейт                                  : 152 Кбит/сек
Максимальный битрейт                     : 176 Кбит/сек
Каналы                                   : 2 канала
Расположение каналов                     : Front: L R
Частота                                  : 44,1 КГц
Метод сжатия                             : С потерями
Размер потока                            : 3,99 Мбайт (3%)
Дата кодирования                         : UTC 2015-09-24 04:10:27
Дата пометки                             : UTC 2015-09-24 04:10:27
Общее
Полное имя                               : E:\VA - Осенний марафон № 194 (Зарубежный Коктейль Танцевальных Новинок)\Cassadee Pope - I Am Invincible (Official Video).mp4
Формат                                   : MPEG-4
Профиль формата                          : Base Media
Идентификатор кодека                     : isom
Размер файла                             : 115 Мбайт
Продолжительность                        : 3 м. 33 с.
Режим общего битрейта                    : Переменный
Общий поток                              : 4530 Кбит/сек
Дата кодирования                         : UTC 2015-09-21 21:21:30
Дата пометки                             : UTC 2015-09-21 21:21:30
Программа кодирования                    : Lavf54.63.104

Видео
Идентификатор                            : 1
Формат                                   : AVC
Формат/Информация                        : Advanced Video Codec
Профиль формата                          : Main@L4
Параметр CABAC формата                   : Да
Параметр ReFrames формата                : 1 кадр
Идентификатор кодека                     : avc1
Идентификатор кодека/Информация          : Advanced Video Coding
Продолжительность                        : 3 м. 33 с.
Битрейт                                  : 4496 Кбит/сек
Ширина                                   : 1920 пикселей
Высота                                   : 1080 пикселей
Соотношение сторон                       : 16:9
Режим частоты кадров                     : Постоянный
Частота кадров                           : 25,000 кадров/сек
Цветовое пространство                    : YUV
Субдискретизация насыщенности            : 4:2:0
Битовая глубина                          : 8 бит
Тип развёртки                            : Прогрессивная
Бит/(Пиксели*Кадры)                      : 0.087
Размер потока                            : 111 Мбайт (97%)
Библиотека кодирования                   : x264 core 129
Настройки программы                      : cabac=1 / ref=1 / deblock=1:0:0 / analyse=0x1:0x131 / me=dia / subme=2 / psy=1 / psy_rd=1.00:0.00 / mixed_ref=0 / me_range=16 / chroma_me=1 / trellis=0 / 8x8dct=0 / cqm=0 / deadzone=21,11 / fast_pskip=1 / chroma_qp_offset=0 / threads=2 / lookahead_threads=1 / sliced_threads=0 / nr=0 / decimate=1 / interlaced=0 / bluray_compat=0 / constrained_intra=0 / bframes=0 / weightp=2 / keyint=250 / keyint_min=25 / scenecut=40 / intra_refresh=0 / rc_lookahead=40 / rc=abr / mbtree=1 / bitrate=4496 / ratetol=1.0 / qcomp=0.60 / qpmin=10 / qpmax=51 / qpstep=4 / ip_ratio=1.41 / aq=1:1.00
Дата кодирования                         : UTC 2015-09-21 21:21:30
Дата пометки                             : UTC 2015-09-21 21:21:30

Аудио
Идентификатор                            : 2
Формат                                   : AAC
Формат/Информация                        : Advanced Audio Codec
Профиль формата                          : LC
Идентификатор кодека                     : 40
Продолжительность                        : 3 м. 33 с.
Duration_FirstFrame                      : 70 мс.
Вид битрейта                             : Переменный
Битрейт                                  : 148 Кбит/сек
Максимальный битрейт                     : 176 Кбит/сек
Каналы                                   : 2 канала
Расположение каналов                     : Front: L R
Частота                                  : 44,1 КГц
Метод сжатия                             : С потерями
Размер потока                            : 3,76 Мбайт (3%)
Дата кодирования                         : UTC 2015-09-21 21:21:30
Дата пометки                             : UTC 2015-09-21 21:21:30
Общее
Полное имя                               : E:\VA - Осенний марафон № 194 (Зарубежный Коктейль Танцевальных Новинок)\Chris Brown - Liquor Zero (Explicit Version) (Official Video).mp4
Формат                                   : MPEG-4
Профиль формата                          : Base Media
Идентификатор кодека                     : isom
Размер файла                             : 314 Мбайт
Продолжительность                        : 9 м. 30 с.
Режим общего битрейта                    : Переменный
Общий поток                              : 4612 Кбит/сек
Дата кодирования                         : UTC 2015-09-26 04:34:15
Дата пометки                             : UTC 2015-09-26 04:34:15
Программа кодирования                    : Lavf54.63.104

Видео
Идентификатор                            : 1
Формат                                   : AVC
Формат/Информация                        : Advanced Video Codec
Профиль формата                          : Main@L4
Параметр CABAC формата                   : Да
Параметр ReFrames формата                : 1 кадр
Идентификатор кодека                     : avc1
Идентификатор кодека/Информация          : Advanced Video Coding
Продолжительность                        : 9 м. 30 с.
Битрейт                                  : 4496 Кбит/сек
Ширина                                   : 1920 пикселей
Высота                                   : 1080 пикселей
Соотношение сторон                       : 16:9
Режим частоты кадров                     : Постоянный
Частота кадров                           : 25,000 кадров/сек
Цветовое пространство                    : YUV
Субдискретизация насыщенности            : 4:2:0
Битовая глубина                          : 8 бит
Тип развёртки                            : Прогрессивная
Бит/(Пиксели*Кадры)                      : 0.087
Размер потока                            : 303 Мбайт (97%)
Библиотека кодирования                   : x264 core 129
Настройки программы                      : cabac=1 / ref=1 / deblock=1:0:0 / analyse=0x1:0x131 / me=dia / subme=2 / psy=1 / psy_rd=1.00:0.00 / mixed_ref=0 / me_range=16 / chroma_me=1 / trellis=0 / 8x8dct=0 / cqm=0 / deadzone=21,11 / fast_pskip=1 / chroma_qp_offset=0 / threads=2 / lookahead_threads=1 / sliced_threads=0 / nr=0 / decimate=1 / interlaced=0 / bluray_compat=0 / constrained_intra=0 / bframes=0 / weightp=2 / keyint=250 / keyint_min=25 / scenecut=40 / intra_refresh=0 / rc_lookahead=40 / rc=abr / mbtree=1 / bitrate=4496 / ratetol=1.0 / qcomp=0.60 / qpmin=10 / qpmax=51 / qpstep=4 / ip_ratio=1.41 / aq=1:1.00
Дата кодирования                         : UTC 2015-09-26 04:34:15
Дата пометки                             : UTC 2015-09-26 04:34:15

Аудио
Идентификатор                            : 2
Формат                                   : AAC
Формат/Информация                        : Advanced Audio Codec
Профиль формата                          : LC
Идентификатор кодека                     : 40
Продолжительность                        : 9 м. 30 с.
Duration_FirstFrame                      : 70 мс.
Вид битрейта                             : Переменный
Битрейт                                  : 151 Кбит/сек
Максимальный битрейт                     : 176 Кбит/сек
Каналы                                   : 2 канала
Расположение каналов                     : Front: L R
Частота                                  : 44,1 КГц
Метод сжатия                             : С потерями
Размер потока                            : 10,3 Мбайт (3%)
Дата кодирования                         : UTC 2015-09-26 04:34:15
Дата пометки                             : UTC 2015-09-26 04:34:15
Общее
Полное имя                               : E:\VA - Осенний марафон № 194 (Зарубежный Коктейль Танцевальных Новинок)\Chris Lago - Seasons (Official Video).mp4
Формат                                   : MPEG-4
Профиль формата                          : Base Media
Идентификатор кодека                     : isom
Размер файла                             : 114 Мбайт
Продолжительность                        : 3 м. 40 с.
Режим общего битрейта                    : Переменный
Общий поток                              : 4356 Кбит/сек
Дата кодирования                         : UTC 2015-09-24 04:11:46
Дата пометки                             : UTC 2015-09-24 04:11:46
Программа кодирования                    : Lavf54.63.104

Видео
Идентификатор                            : 1
Формат                                   : AVC
Формат/Информация                        : Advanced Video Codec
Профиль формата                          : Main@L4
Параметр CABAC формата                   : Да
Параметр ReFrames формата                : 1 кадр
Идентификатор кодека                     : avc1
Идентификатор кодека/Информация          : Advanced Video Coding
Продолжительность                        : 3 м. 40 с.
Битрейт                                  : 4203 Кбит/сек
Номинальный битрейт                      : 4496 Кбит/сек
Ширина                                   : 1920 пикселей
Высота                                   : 1080 пикселей
Соотношение сторон                       : 16:9
Режим частоты кадров                     : Постоянный
Частота кадров                           : 25,000 кадров/сек
Цветовое пространство                    : YUV
Субдискретизация насыщенности            : 4:2:0
Битовая глубина                          : 8 бит
Тип развёртки                            : Прогрессивная
Бит/(Пиксели*Кадры)                      : 0.081
Размер потока                            : 110 Мбайт (97%)
Библиотека кодирования                   : x264 core 129
Настройки программы                      : cabac=1 / ref=1 / deblock=1:0:0 / analyse=0x1:0x131 / me=dia / subme=2 / psy=1 / psy_rd=1.00:0.00 / mixed_ref=0 / me_range=16 / chroma_me=1 / trellis=0 / 8x8dct=0 / cqm=0 / deadzone=21,11 / fast_pskip=1 / chroma_qp_offset=0 / threads=2 / lookahead_threads=1 / sliced_threads=0 / nr=0 / decimate=1 / interlaced=0 / bluray_compat=0 / constrained_intra=0 / bframes=0 / weightp=2 / keyint=250 / keyint_min=25 / scenecut=40 / intra_refresh=0 / rc_lookahead=40 / rc=abr / mbtree=1 / bitrate=4496 / ratetol=1.0 / qcomp=0.60 / qpmin=10 / qpmax=51 / qpstep=4 / ip_ratio=1.41 / aq=1:1.00
Дата кодирования                         : UTC 2015-09-24 04:11:46
Дата пометки                             : UTC 2015-09-24 04:11:46

Аудио
Идентификатор                            : 2
Формат                                   : AAC
Формат/Информация                        : Advanced Audio Codec
Профиль формата                          : LC
Идентификатор кодека                     : 40
Продолжительность                        : 3 м. 40 с.
Duration_FirstFrame                      : 70 мс.
Вид битрейта                             : Переменный
Битрейт                                  : 147 Кбит/сек
Максимальный битрейт                     : 176 Кбит/сек
Каналы                                   : 2 канала
Расположение каналов                     : Front: L R
Частота                                  : 44,1 КГц
Метод сжатия                             : С потерями
Размер потока                            : 3,86 Мбайт (3%)
Дата кодирования                         : UTC 2015-09-24 04:11:46
Дата пометки                             : UTC 2015-09-24 04:11:46
Общее
Полное имя                               : E:\VA - Осенний марафон № 194 (Зарубежный Коктейль Танцевальных Новинок)\Culcha Candela ft. Roldan - La Bomba (Official Video).mp4
Формат                                   : MPEG-4
Профиль формата                          : Base Media
Идентификатор кодека                     : isom
Размер файла                             : 129 Мбайт
Продолжительность                        : 3 м. 45 с.
Режим общего битрейта                    : Переменный
Общий поток                              : 4799 Кбит/сек
Дата кодирования                         : UTC 2015-08-28 05:40:20
Дата пометки                             : UTC 2015-08-28 05:40:20
Программа кодирования                    : Lavf54.63.104

Видео
Идентификатор                            : 1
Формат                                   : AVC
Формат/Информация                        : Advanced Video Codec
Профиль формата                          : Main@L4
Параметр CABAC формата                   : Да
Параметр ReFrames формата                : 1 кадр
Идентификатор кодека                     : avc1
Идентификатор кодека/Информация          : Advanced Video Coding
Продолжительность                        : 3 м. 45 с.
Битрейт                                  : 4496 Кбит/сек
Ширина                                   : 1920 пикселей
Высота                                   : 1080 пикселей
Соотношение сторон                       : 16:9
Режим частоты кадров                     : Постоянный
Частота кадров                           : 25,000 кадров/сек
Цветовое пространство                    : YUV
Субдискретизация насыщенности            : 4:2:0
Битовая глубина                          : 8 бит
Тип развёртки                            : Прогрессивная
Бит/(Пиксели*Кадры)                      : 0.087
Размер потока                            : 125 Мбайт (97%)
Библиотека кодирования                   : x264 core 129
Настройки программы                      : cabac=1 / ref=1 / deblock=1:0:0 / analyse=0x1:0x131 / me=dia / subme=2 / psy=1 / psy_rd=1.00:0.00 / mixed_ref=0 / me_range=16 / chroma_me=1 / trellis=0 / 8x8dct=0 / cqm=0 / deadzone=21,11 / fast_pskip=1 / chroma_qp_offset=0 / threads=2 / lookahead_threads=1 / sliced_threads=0 / nr=0 / decimate=1 / interlaced=0 / bluray_compat=0 / constrained_intra=0 / bframes=0 / weightp=2 / keyint=250 / keyint_min=25 / scenecut=40 / intra_refresh=0 / rc_lookahead=40 / rc=abr / mbtree=1 / bitrate=4496 / ratetol=1.0 / qcomp=0.60 / qpmin=10 / qpmax=51 / qpstep=4 / ip_ratio=1.41 / aq=1:1.00
Дата кодирования                         : UTC 2015-08-28 05:40:20
Дата пометки                             : UTC 2015-08-28 05:40:20

Аудио
Идентификатор                            : 2
Формат                                   : AAC
Формат/Информация                        : Advanced Audio Codec
Профиль формата                          : LC
Идентификатор кодека                     : 40
Продолжительность                        : 3 м. 45 с.
Duration_FirstFrame                      : 70 мс.
Вид битрейта                             : Переменный
Битрейт                                  : 150 Кбит/сек
Максимальный битрейт                     : 176 Кбит/сек
Каналы                                   : 2 канала
Расположение каналов                     : Front: L R
Частота                                  : 44,1 КГц
Метод сжатия                             : С потерями
Размер потока                            : 4,02 Мбайт (3%)
Дата кодирования                         : UTC 2015-08-28 05:40:20
Дата пометки                             : UTC 2015-08-28 05:40:20
Общее
Полное имя                               : E:\VA - Осенний марафон № 194 (Зарубежный Коктейль Танцевальных Новинок)\David Guetta & Showtek ft. Magic! & Sonny Wilson - Sun Goes Down (Official Video).mp4
Формат                                   : MPEG-4
Профиль формата                          : Base Media
Идентификатор кодека                     : isom
Размер файла                             : 109 Мбайт
Продолжительность                        : 3 м. 14 с.
Режим общего битрейта                    : Переменный
Общий поток                              : 4699 Кбит/сек
Дата кодирования                         : UTC 2015-09-25 08:14:05
Дата пометки                             : UTC 2015-09-25 08:14:05
Программа кодирования                    : Lavf54.63.104

Видео
Идентификатор                            : 1
Формат                                   : AVC
Формат/Информация                        : Advanced Video Codec
Профиль формата                          : Main@L4
Параметр CABAC формата                   : Да
Параметр ReFrames формата                : 1 кадр
Идентификатор кодека                     : avc1
Идентификатор кодека/Информация          : Advanced Video Coding
Продолжительность                        : 3 м. 14 с.
Битрейт                                  : 4496 Кбит/сек
Ширина                                   : 1920 пикселей
Высота                                   : 1080 пикселей
Соотношение сторон                       : 16:9
Режим частоты кадров                     : Постоянный
Частота кадров                           : 25,000 кадров/сек
Цветовое пространство                    : YUV
Субдискретизация насыщенности            : 4:2:0
Битовая глубина                          : 8 бит
Тип развёртки                            : Прогрессивная
Бит/(Пиксели*Кадры)                      : 0.087
Размер потока                            : 106 Мбайт (97%)
Библиотека кодирования                   : x264 core 129
Настройки программы                      : cabac=1 / ref=1 / deblock=1:0:0 / analyse=0x1:0x131 / me=dia / subme=2 / psy=1 / psy_rd=1.00:0.00 / mixed_ref=0 / me_range=16 / chroma_me=1 / trellis=0 / 8x8dct=0 / cqm=0 / deadzone=21,11 / fast_pskip=1 / chroma_qp_offset=0 / threads=2 / lookahead_threads=1 / sliced_threads=0 / nr=0 / decimate=1 / interlaced=0 / bluray_compat=0 / constrained_intra=0 / bframes=0 / weightp=2 / keyint=250 / keyint_min=25 / scenecut=40 / intra_refresh=0 / rc_lookahead=40 / rc=abr / mbtree=1 / bitrate=4496 / ratetol=1.0 / qcomp=0.60 / qpmin=10 / qpmax=51 / qpstep=4 / ip_ratio=1.41 / aq=1:1.00
Дата кодирования                         : UTC 2015-09-25 08:14:05
Дата пометки                             : UTC 2015-09-25 08:14:05

Аудио
Идентификатор                            : 2
Формат                                   : AAC
Формат/Информация                        : Advanced Audio Codec
Профиль формата                          : LC
Идентификатор кодека                     : 40
Продолжительность                        : 3 м. 14 с.
Duration_FirstFrame                      : 70 мс.
Вид битрейта                             : Переменный
Битрейт                                  : 152 Кбит/сек
Максимальный битрейт                     : 176 Кбит/сек
Каналы                                   : 2 канала
Расположение каналов                     : Front: L R
Частота                                  : 44,1 КГц
Метод сжатия                             : С потерями
Размер потока                            : 3,53 Мбайт (3%)
Дата кодирования                         : UTC 2015-09-25 08:14:05
Дата пометки                             : UTC 2015-09-25 08:14:05
Общее
Полное имя                               : E:\VA - Осенний марафон № 194 (Зарубежный Коктейль Танцевальных Новинок)\Emin ft. Nile Rodgers - Boomerang (Official Video).mp4
Формат                                   : MPEG-4
Профиль формата                          : Base Media
Идентификатор кодека                     : isom
Размер файла                             : 95,1 Мбайт
Продолжительность                        : 2 м. 59 с.
Режим общего битрейта                    : Переменный
Общий поток                              : 4446 Кбит/сек
Дата кодирования                         : UTC 2015-09-25 07:35:31
Дата пометки                             : UTC 2015-09-25 07:35:31
Программа кодирования                    : Lavf54.63.104

Видео
Идентификатор                            : 1
Формат                                   : AVC
Формат/Информация                        : Advanced Video Codec
Профиль формата                          : Main@L4
Параметр CABAC формата                   : Да
Параметр ReFrames формата                : 1 кадр
Идентификатор кодека                     : avc1
Идентификатор кодека/Информация          : Advanced Video Coding
Продолжительность                        : 2 м. 59 с.
Битрейт                                  : 4496 Кбит/сек
Ширина                                   : 1920 пикселей
Высота                                   : 1080 пикселей
Соотношение сторон                       : 16:9
Режим частоты кадров                     : Постоянный
Частота кадров                           : 25,000 кадров/сек
Цветовое пространство                    : YUV
Субдискретизация насыщенности            : 4:2:0
Битовая глубина                          : 8 бит
Тип развёртки                            : Прогрессивная
Бит/(Пиксели*Кадры)                      : 0.087
Размер потока                            : 91,9 Мбайт (97%)
Библиотека кодирования                   : x264 core 129
Настройки программы                      : cabac=1 / ref=1 / deblock=1:0:0 / analyse=0x1:0x131 / me=dia / subme=2 / psy=1 / psy_rd=1.00:0.00 / mixed_ref=0 / me_range=16 / chroma_me=1 / trellis=0 / 8x8dct=0 / cqm=0 / deadzone=21,11 / fast_pskip=1 / chroma_qp_offset=0 / threads=2 / lookahead_threads=1 / sliced_threads=0 / nr=0 / decimate=1 / interlaced=0 / bluray_compat=0 / constrained_intra=0 / bframes=0 / weightp=2 / keyint=250 / keyint_min=25 / scenecut=40 / intra_refresh=0 / rc_lookahead=40 / rc=abr / mbtree=1 / bitrate=4496 / ratetol=1.0 / qcomp=0.60 / qpmin=10 / qpmax=51 / qpstep=4 / ip_ratio=1.41 / aq=1:1.00
Дата кодирования                         : UTC 2015-09-25 07:35:31
Дата пометки                             : UTC 2015-09-25 07:35:31

Аудио
Идентификатор                            : 2
Формат                                   : AAC
Формат/Информация                        : Advanced Audio Codec
Профиль формата                          : LC
Идентификатор кодека                     : 40
Продолжительность                        : 2 м. 59 с.
Duration_FirstFrame                      : 70 мс.
Вид битрейта                             : Переменный
Битрейт                                  : 148 Кбит/сек
Максимальный битрейт                     : 176 Кбит/сек
Каналы                                   : 2 канала
Расположение каналов                     : Front: L R
Частота                                  : 44,1 КГц
Метод сжатия                             : С потерями
Размер потока                            : 3,17 Мбайт (3%)
Дата кодирования                         : UTC 2015-09-25 07:35:31
Дата пометки                             : UTC 2015-09-25 07:35:31
Общее
Полное имя                               : E:\VA - Осенний марафон № 194 (Зарубежный Коктейль Танцевальных Новинок)\Fanny Lu - El Perfume (Official Video).mp4
Формат                                   : MPEG-4
Профиль формата                          : Base Media
Идентификатор кодека                     : isom
Размер файла                             : 176 Мбайт
Продолжительность                        : 5 м. 17 с.
Режим общего битрейта                    : Переменный
Общий поток                              : 4664 Кбит/сек
Дата кодирования                         : UTC 2015-09-12 07:32:31
Дата пометки                             : UTC 2015-09-12 07:32:31
Программа кодирования                    : Lavf54.63.104

Видео
Идентификатор                            : 1
Формат                                   : AVC
Формат/Информация                        : Advanced Video Codec
Профиль формата                          : Main@L4
Параметр CABAC формата                   : Да
Параметр ReFrames формата                : 1 кадр
Идентификатор кодека                     : avc1
Идентификатор кодека/Информация          : Advanced Video Coding
Продолжительность                        : 5 м. 17 с.
Битрейт                                  : 4496 Кбит/сек
Ширина                                   : 1920 пикселей
Высота                                   : 1080 пикселей
Соотношение сторон                       : 16:9
Режим частоты кадров                     : Постоянный
Частота кадров                           : 25,000 кадров/сек
Цветовое пространство                    : YUV
Субдискретизация насыщенности            : 4:2:0
Битовая глубина                          : 8 бит
Тип развёртки                            : Прогрессивная
Бит/(Пиксели*Кадры)                      : 0.087
Размер потока                            : 171 Мбайт (97%)
Библиотека кодирования                   : x264 core 129
Настройки программы                      : cabac=1 / ref=1 / deblock=1:0:0 / analyse=0x1:0x131 / me=dia / subme=2 / psy=1 / psy_rd=1.00:0.00 / mixed_ref=0 / me_range=16 / chroma_me=1 / trellis=0 / 8x8dct=0 / cqm=0 / deadzone=21,11 / fast_pskip=1 / chroma_qp_offset=0 / threads=2 / lookahead_threads=1 / sliced_threads=0 / nr=0 / decimate=1 / interlaced=0 / bluray_compat=0 / constrained_intra=0 / bframes=0 / weightp=2 / keyint=250 / keyint_min=25 / scenecut=40 / intra_refresh=0 / rc_lookahead=40 / rc=abr / mbtree=1 / bitrate=4496 / ratetol=1.0 / qcomp=0.60 / qpmin=10 / qpmax=51 / qpstep=4 / ip_ratio=1.41 / aq=1:1.00
Дата кодирования                         : UTC 2015-09-12 07:32:31
Дата пометки                             : UTC 2015-09-12 07:32:31

Аудио
Идентификатор                            : 2
Формат                                   : AAC
Формат/Информация                        : Advanced Audio Codec
Профиль формата                          : LC
Идентификатор кодека                     : 40
Продолжительность                        : 5 м. 17 с.
Duration_FirstFrame                      : 70 мс.
Вид битрейта                             : Переменный
Битрейт                                  : 150 Кбит/сек
Максимальный битрейт                     : 176 Кбит/сек
Каналы                                   : 2 канала
Расположение каналов                     : Front: L R
Частота                                  : 44,1 КГц
Метод сжатия                             : С потерями
Размер потока                            : 5,69 Мбайт (3%)
Дата кодирования                         : UTC 2015-09-12 07:32:31
Дата пометки                             : UTC 2015-09-12 07:32:31
Общее
Полное имя                               : E:\VA - Осенний марафон № 194 (Зарубежный Коктейль Танцевальных Новинок)\Flo Rida - My House (Official Video).mp4
Формат                                   : MPEG-4
Профиль формата                          : Base Media
Идентификатор кодека                     : isom
Размер файла                             : 107 Мбайт
Продолжительность                        : 3 м. 16 с.
Режим общего битрейта                    : Переменный
Общий поток                              : 4587 Кбит/сек
Дата кодирования                         : UTC 2015-09-24 07:32:14
Дата пометки                             : UTC 2015-09-24 07:32:14
Программа кодирования                    : Lavf54.63.104

Видео
Идентификатор                            : 1
Формат                                   : AVC
Формат/Информация                        : Advanced Video Codec
Профиль формата                          : Main@L4
Параметр CABAC формата                   : Да
Параметр ReFrames формата                : 1 кадр
Идентификатор кодека                     : avc1
Идентификатор кодека/Информация          : Advanced Video Coding
Продолжительность                        : 3 м. 16 с.
Битрейт                                  : 4496 Кбит/сек
Ширина                                   : 1920 пикселей
Высота                                   : 1080 пикселей
Соотношение сторон                       : 16:9
Режим частоты кадров                     : Постоянный
Частота кадров                           : 25,000 кадров/сек
Цветовое пространство                    : YUV
Субдискретизация насыщенности            : 4:2:0
Битовая глубина                          : 8 бит
Тип развёртки                            : Прогрессивная
Бит/(Пиксели*Кадры)                      : 0.087
Размер потока                            : 104 Мбайт (97%)
Библиотека кодирования                   : x264 core 129
Настройки программы                      : cabac=1 / ref=1 / deblock=1:0:0 / analyse=0x1:0x131 / me=dia / subme=2 / psy=1 / psy_rd=1.00:0.00 / mixed_ref=0 / me_range=16 / chroma_me=1 / trellis=0 / 8x8dct=0 / cqm=0 / deadzone=21,11 / fast_pskip=1 / chroma_qp_offset=0 / threads=2 / lookahead_threads=1 / sliced_threads=0 / nr=0 / decimate=1 / interlaced=0 / bluray_compat=0 / constrained_intra=0 / bframes=0 / weightp=2 / keyint=250 / keyint_min=25 / scenecut=40 / intra_refresh=0 / rc_lookahead=40 / rc=abr / mbtree=1 / bitrate=4496 / ratetol=1.0 / qcomp=0.60 / qpmin=10 / qpmax=51 / qpstep=4 / ip_ratio=1.41 / aq=1:1.00
Дата кодирования                         : UTC 2015-09-24 07:32:14
Дата пометки                             : UTC 2015-09-24 07:32:14

Аудио
Идентификатор                            : 2
Формат                                   : AAC
Формат/Информация                        : Advanced Audio Codec
Профиль формата                          : LC
Идентификатор кодека                     : 40
Продолжительность                        : 3 м. 16 с.
Duration_FirstFrame                      : 70 мс.
Вид битрейта                             : Переменный
Битрейт                                  : 148 Кбит/сек
Максимальный битрейт                     : 176 Кбит/сек
Каналы                                   : 2 канала
Расположение каналов                     : Front: L R
Частота                                  : 44,1 КГц
Метод сжатия                             : С потерями
Размер потока                            : 3,47 Мбайт (3%)
Дата кодирования                         : UTC 2015-09-24 07:32:14
Дата пометки                             : UTC 2015-09-24 07:32:14
Общее
Полное имя                               : E:\VA - Осенний марафон № 194 (Зарубежный Коктейль Танцевальных Новинок)\Geo Da Silva & Jack Mazzoni - Bailando Conga (Official Video).mp4
Формат                                   : MPEG-4
Профиль формата                          : Base Media
Идентификатор кодека                     : isom
Размер файла                             : 123 Мбайт
Продолжительность                        : 3 м. 43 с.
Режим общего битрейта                    : Переменный
Общий поток                              : 4634 Кбит/сек
Дата кодирования                         : UTC 2015-09-26 07:14:30
Дата пометки                             : UTC 2015-09-26 07:14:30
Программа кодирования                    : Lavf54.63.104

Видео
Идентификатор                            : 1
Формат                                   : AVC
Формат/Информация                        : Advanced Video Codec
Профиль формата                          : Main@L4
Параметр CABAC формата                   : Да
Параметр ReFrames формата                : 1 кадр
Идентификатор кодека                     : avc1
Идентификатор кодека/Информация          : Advanced Video Coding
Продолжительность                        : 3 м. 43 с.
Битрейт                                  : 4496 Кбит/сек
Ширина                                   : 1920 пикселей
Высота                                   : 1080 пикселей
Соотношение сторон                       : 16:9
Режим частоты кадров                     : Постоянный
Частота кадров                           : 25,000 кадров/сек
Цветовое пространство                    : YUV
Субдискретизация насыщенности            : 4:2:0
Битовая глубина                          : 8 бит
Тип развёртки                            : Прогрессивная
Бит/(Пиксели*Кадры)                      : 0.087
Размер потока                            : 119 Мбайт (97%)
Библиотека кодирования                   : x264 core 129
Настройки программы                      : cabac=1 / ref=1 / deblock=1:0:0 / analyse=0x1:0x131 / me=dia / subme=2 / psy=1 / psy_rd=1.00:0.00 / mixed_ref=0 / me_range=16 / chroma_me=1 / trellis=0 / 8x8dct=0 / cqm=0 / deadzone=21,11 / fast_pskip=1 / chroma_qp_offset=0 / threads=2 / lookahead_threads=1 / sliced_threads=0 / nr=0 / decimate=1 / interlaced=0 / bluray_compat=0 / constrained_intra=0 / bframes=0 / weightp=2 / keyint=250 / keyint_min=25 / scenecut=40 / intra_refresh=0 / rc_lookahead=40 / rc=abr / mbtree=1 / bitrate=4496 / ratetol=1.0 / qcomp=0.60 / qpmin=10 / qpmax=51 / qpstep=4 / ip_ratio=1.41 / aq=1:1.00
Дата кодирования                         : UTC 2015-09-26 07:14:30
Дата пометки                             : UTC 2015-09-26 07:14:30

Аудио
Идентификатор                            : 2
Формат                                   : AAC
Формат/Информация                        : Advanced Audio Codec
Профиль формата                          : LC
Идентификатор кодека                     : 40
Продолжительность                        : 3 м. 43 с.
Duration_FirstFrame                      : 70 мс.
Вид битрейта                             : Переменный
Битрейт                                  : 152 Кбит/сек
Максимальный битрейт                     : 176 Кбит/сек
Каналы                                   : 2 канала
Расположение каналов                     : Front: L R
Частота                                  : 44,1 КГц
Метод сжатия                             : С потерями
Размер потока                            : 4,04 Мбайт (3%)
Дата кодирования                         : UTC 2015-09-26 07:14:30
Дата пометки                             : UTC 2015-09-26 07:14:30
Общее
Полное имя                               : E:\VA - Осенний марафон № 194 (Зарубежный Коктейль Танцевальных Новинок)\Iyaz - Alive ft. Nash of Hot Chelle Rae (Official Video).mp4
Формат                                   : MPEG-4
Профиль формата                          : Base Media
Идентификатор кодека                     : isom
Размер файла                             : 120 Мбайт
Продолжительность                        : 3 м. 40 с.
Режим общего битрейта                    : Переменный
Общий поток                              : 4546 Кбит/сек
Дата кодирования                         : UTC 2015-09-15 19:22:14
Дата пометки                             : UTC 2015-09-15 19:22:14
Программа кодирования                    : Lavf54.63.104

Видео
Идентификатор                            : 1
Формат                                   : AVC
Формат/Информация                        : Advanced Video Codec
Профиль формата                          : Main@L4
Параметр CABAC формата                   : Да
Параметр ReFrames формата                : 1 кадр
Идентификатор кодека                     : avc1
Идентификатор кодека/Информация          : Advanced Video Coding
Продолжительность                        : 3 м. 40 с.
Битрейт                                  : 4496 Кбит/сек
Ширина                                   : 1920 пикселей
Высота                                   : 1080 пикселей
Соотношение сторон                       : 16:9
Режим частоты кадров                     : Постоянный
Частота кадров                           : 25,000 кадров/сек
Цветовое пространство                    : YUV
Субдискретизация насыщенности            : 4:2:0
Битовая глубина                          : 8 бит
Тип развёртки                            : Прогрессивная
Бит/(Пиксели*Кадры)                      : 0.087
Размер потока                            : 116 Мбайт (97%)
Библиотека кодирования                   : x264 core 129
Настройки программы                      : cabac=1 / ref=1 / deblock=1:0:0 / analyse=0x1:0x131 / me=dia / subme=2 / psy=1 / psy_rd=1.00:0.00 / mixed_ref=0 / me_range=16 / chroma_me=1 / trellis=0 / 8x8dct=0 / cqm=0 / deadzone=21,11 / fast_pskip=1 / chroma_qp_offset=0 / threads=2 / lookahead_threads=1 / sliced_threads=0 / nr=0 / decimate=1 / interlaced=0 / bluray_compat=0 / constrained_intra=0 / bframes=0 / weightp=2 / keyint=250 / keyint_min=25 / scenecut=40 / intra_refresh=0 / rc_lookahead=40 / rc=abr / mbtree=1 / bitrate=4496 / ratetol=1.0 / qcomp=0.60 / qpmin=10 / qpmax=51 / qpstep=4 / ip_ratio=1.41 / aq=1:1.00
Дата кодирования                         : UTC 2015-09-15 19:22:14
Дата пометки                             : UTC 2015-09-15 19:22:14

Аудио
Идентификатор                            : 2
Формат                                   : AAC
Формат/Информация                        : Advanced Audio Codec
Профиль формата                          : LC
Идентификатор кодека                     : 40
Продолжительность                        : 3 м. 40 с.
Duration_FirstFrame                      : 70 мс.
Вид битрейта                             : Переменный
Битрейт                                  : 148 Кбит/сек
Максимальный битрейт                     : 176 Кбит/сек
Каналы                                   : 2 канала
Расположение каналов                     : Front: L R
Частота                                  : 44,1 КГц
Метод сжатия                             : С потерями
Размер потока                            : 3,89 Мбайт (3%)
Дата кодирования                         : UTC 2015-09-15 19:22:14
Дата пометки                             : UTC 2015-09-15 19:22:14
Общее
Полное имя                               : E:\VA - Осенний марафон № 194 (Зарубежный Коктейль Танцевальных Новинок)\Jackson ft. James Yuill - Love Love Love (Zwette Radio Edit) (Official Video).mp4
Формат                                   : MPEG-4
Профиль формата                          : Base Media
Идентификатор кодека                     : isom
Размер файла                             : 122 Мбайт
Продолжительность                        : 3 м. 43 с.
Режим общего битрейта                    : Переменный
Общий поток                              : 4585 Кбит/сек
Дата кодирования                         : UTC 2015-08-27 04:02:58
Дата пометки                             : UTC 2015-08-27 04:02:58
Программа кодирования                    : Lavf54.63.104

Видео
Идентификатор                            : 1
Формат                                   : AVC
Формат/Информация                        : Advanced Video Codec
Профиль формата                          : Main@L4
Параметр CABAC формата                   : Да
Параметр ReFrames формата                : 1 кадр
Идентификатор кодека                     : avc1
Идентификатор кодека/Информация          : Advanced Video Coding
Продолжительность                        : 3 м. 43 с.
Битрейт                                  : 4496 Кбит/сек
Ширина                                   : 1920 пикселей
Высота                                   : 1080 пикселей
Соотношение сторон                       : 16:9
Режим частоты кадров                     : Постоянный
Частота кадров                           : 25,000 кадров/сек
Цветовое пространство                    : YUV
Субдискретизация насыщенности            : 4:2:0
Битовая глубина                          : 8 бит
Тип развёртки                            : Прогрессивная
Бит/(Пиксели*Кадры)                      : 0.087
Размер потока                            : 118 Мбайт (97%)
Библиотека кодирования                   : x264 core 129
Настройки программы                      : cabac=1 / ref=1 / deblock=1:0:0 / analyse=0x1:0x131 / me=dia / subme=2 / psy=1 / psy_rd=1.00:0.00 / mixed_ref=0 / me_range=16 / chroma_me=1 / trellis=0 / 8x8dct=0 / cqm=0 / deadzone=21,11 / fast_pskip=1 / chroma_qp_offset=0 / threads=2 / lookahead_threads=1 / sliced_threads=0 / nr=0 / decimate=1 / interlaced=0 / bluray_compat=0 / constrained_intra=0 / bframes=0 / weightp=2 / keyint=250 / keyint_min=25 / scenecut=40 / intra_refresh=0 / rc_lookahead=40 / rc=abr / mbtree=1 / bitrate=4496 / ratetol=1.0 / qcomp=0.60 / qpmin=10 / qpmax=51 / qpstep=4 / ip_ratio=1.41 / aq=1:1.00
Дата кодирования                         : UTC 2015-08-27 04:02:58
Дата пометки                             : UTC 2015-08-27 04:02:58

Аудио
Идентификатор                            : 2
Формат                                   : AAC
Формат/Информация                        : Advanced Audio Codec
Профиль формата                          : LC
Идентификатор кодека                     : 40
Продолжительность                        : 3 м. 43 с.
Duration_FirstFrame                      : 70 мс.
Вид битрейта                             : Переменный
Битрейт                                  : 151 Кбит/сек
Максимальный битрейт                     : 176 Кбит/сек
Каналы                                   : 2 канала
Расположение каналов                     : Front: L R
Частота                                  : 44,1 КГц
Метод сжатия                             : С потерями
Размер потока                            : 4,04 Мбайт (3%)
Дата кодирования                         : UTC 2015-08-27 04:02:58
Дата пометки                             : UTC 2015-08-27 04:02:58
Общее
Полное имя                               : E:\VA - Осенний марафон № 194 (Зарубежный Коктейль Танцевальных Новинок)\James Hersey - Coming Over (filous Remix) (Official Video).mp4
Формат                                   : MPEG-4
Профиль формата                          : Base Media
Идентификатор кодека                     : isom
Размер файла                             : 112 Мбайт
Продолжительность                        : 3 м. 27 с.
Режим общего битрейта                    : Переменный
Общий поток                              : 4517 Кбит/сек
Дата кодирования                         : UTC 2015-09-21 20:11:10
Дата пометки                             : UTC 2015-09-21 20:11:10
Программа кодирования                    : Lavf54.63.104

Видео
Идентификатор                            : 1
Формат                                   : AVC
Формат/Информация                        : Advanced Video Codec
Профиль формата                          : Main@L4
Параметр CABAC формата                   : Да
Параметр ReFrames формата                : 1 кадр
Идентификатор кодека                     : avc1
Идентификатор кодека/Информация          : Advanced Video Coding
Продолжительность                        : 3 м. 27 с.
Битрейт                                  : 4496 Кбит/сек
Ширина                                   : 1920 пикселей
Высота                                   : 1080 пикселей
Соотношение сторон                       : 16:9
Режим частоты кадров                     : Постоянный
Частота кадров                           : 25,000 кадров/сек
Цветовое пространство                    : YUV
Субдискретизация насыщенности            : 4:2:0
Битовая глубина                          : 8 бит
Тип развёртки                            : Прогрессивная
Бит/(Пиксели*Кадры)                      : 0.087
Размер потока                            : 108 Мбайт (97%)
Библиотека кодирования                   : x264 core 129
Настройки программы                      : cabac=1 / ref=1 / deblock=1:0:0 / analyse=0x1:0x131 / me=dia / subme=2 / psy=1 / psy_rd=1.00:0.00 / mixed_ref=0 / me_range=16 / chroma_me=1 / trellis=0 / 8x8dct=0 / cqm=0 / deadzone=21,11 / fast_pskip=1 / chroma_qp_offset=0 / threads=2 / lookahead_threads=1 / sliced_threads=0 / nr=0 / decimate=1 / interlaced=0 / bluray_compat=0 / constrained_intra=0 / bframes=0 / weightp=2 / keyint=250 / keyint_min=25 / scenecut=40 / intra_refresh=0 / rc_lookahead=40 / rc=abr / mbtree=1 / bitrate=4496 / ratetol=1.0 / qcomp=0.60 / qpmin=10 / qpmax=51 / qpstep=4 / ip_ratio=1.41 / aq=1:1.00
Дата кодирования                         : UTC 2015-09-21 20:11:10
Дата пометки                             : UTC 2015-09-21 20:11:10

Аудио
Идентификатор                            : 2
Формат                                   : AAC
Формат/Информация                        : Advanced Audio Codec
Профиль формата                          : LC
Идентификатор кодека                     : 40
Продолжительность                        : 3 м. 27 с.
Duration_FirstFrame                      : 70 мс.
Вид битрейта                             : Переменный
Битрейт                                  : 152 Кбит/сек
Максимальный битрейт                     : 176 Кбит/сек
Каналы                                   : 2 канала
Расположение каналов                     : Front: L R
Частота                                  : 44,1 КГц
Метод сжатия                             : С потерями
Размер потока                            : 3,76 Мбайт (3%)
Дата кодирования                         : UTC 2015-09-21 20:11:10
Дата пометки                             : UTC 2015-09-21 20:11:10
Общее
Полное имя                               : E:\VA - Осенний марафон № 194 (Зарубежный Коктейль Танцевальных Новинок)\Jesse & Joy - Ecos de Amor (Official Video).mp4
Формат                                   : MPEG-4
Профиль формата                          : Base Media
Идентификатор кодека                     : isom
Размер файла                             : 111 Мбайт
Продолжительность                        : 3 м. 33 с.
Режим общего битрейта                    : Переменный
Общий поток                              : 4378 Кбит/сек
Дата кодирования                         : UTC 2015-09-24 06:05:44
Дата пометки                             : UTC 2015-09-24 06:05:44
Программа кодирования                    : Lavf54.63.104

Видео
Идентификатор                            : 1
Формат                                   : AVC
Формат/Информация                        : Advanced Video Codec
Профиль формата                          : Main@L4
Параметр CABAC формата                   : Да
Параметр ReFrames формата                : 1 кадр
Идентификатор кодека                     : avc1
Идентификатор кодека/Информация          : Advanced Video Coding
Продолжительность                        : 3 м. 33 с.
Битрейт                                  : 4220 Кбит/сек
Номинальный битрейт                      : 4496 Кбит/сек
Ширина                                   : 1920 пикселей
Высота                                   : 1080 пикселей
Соотношение сторон                       : 16:9
Режим частоты кадров                     : Постоянный
Частота кадров                           : 25,000 кадров/сек
Цветовое пространство                    : YUV
Субдискретизация насыщенности            : 4:2:0
Битовая глубина                          : 8 бит
Тип развёртки                            : Прогрессивная
Бит/(Пиксели*Кадры)                      : 0.081
Размер потока                            : 107 Мбайт (96%)
Библиотека кодирования                   : x264 core 129
Настройки программы                      : cabac=1 / ref=1 / deblock=1:0:0 / analyse=0x1:0x131 / me=dia / subme=2 / psy=1 / psy_rd=1.00:0.00 / mixed_ref=0 / me_range=16 / chroma_me=1 / trellis=0 / 8x8dct=0 / cqm=0 / deadzone=21,11 / fast_pskip=1 / chroma_qp_offset=0 / threads=2 / lookahead_threads=1 / sliced_threads=0 / nr=0 / decimate=1 / interlaced=0 / bluray_compat=0 / constrained_intra=0 / bframes=0 / weightp=2 / keyint=250 / keyint_min=25 / scenecut=40 / intra_refresh=0 / rc_lookahead=40 / rc=abr / mbtree=1 / bitrate=4496 / ratetol=1.0 / qcomp=0.60 / qpmin=10 / qpmax=51 / qpstep=4 / ip_ratio=1.41 / aq=1:1.00
Дата кодирования                         : UTC 2015-09-24 06:05:44
Дата пометки                             : UTC 2015-09-24 06:05:44

Аудио
Идентификатор                            : 2
Формат                                   : AAC
Формат/Информация                        : Advanced Audio Codec
Профиль формата                          : LC
Идентификатор кодека                     : 40
Продолжительность                        : 3 м. 33 с.
Duration_FirstFrame                      : 70 мс.
Вид битрейта                             : Переменный
Битрейт                                  : 152 Кбит/сек
Максимальный битрейт                     : 176 Кбит/сек
Каналы                                   : 2 канала
Расположение каналов                     : Front: L R
Частота                                  : 44,1 КГц
Метод сжатия                             : С потерями
Размер потока                            : 3,87 Мбайт (3%)
Дата кодирования                         : UTC 2015-09-24 06:05:44
Дата пометки                             : UTC 2015-09-24 06:05:44
Общее
Полное имя                               : E:\VA - Осенний марафон № 194 (Зарубежный Коктейль Танцевальных Новинок)\Kate Ryan - Runaway (Smalltown Boy) (Official Video).mp4
Формат                                   : MPEG-4
Профиль формата                          : Base Media
Идентификатор кодека                     : isom
Размер файла                             : 112 Мбайт
Продолжительность                        : 3 м. 23 с.
Режим общего битрейта                    : Переменный
Общий поток                              : 4610 Кбит/сек
Дата кодирования                         : UTC 2015-09-26 09:12:23
Дата пометки                             : UTC 2015-09-26 09:12:23
Программа кодирования                    : Lavf54.63.104

Видео
Идентификатор                            : 1
Формат                                   : AVC
Формат/Информация                        : Advanced Video Codec
Профиль формата                          : Main@L4
Параметр CABAC формата                   : Да
Параметр ReFrames формата                : 1 кадр
Идентификатор кодека                     : avc1
Идентификатор кодека/Информация          : Advanced Video Coding
Продолжительность                        : 3 м. 23 с.
Битрейт                                  : 4496 Кбит/сек
Ширина                                   : 1920 пикселей
Высота                                   : 1080 пикселей
Соотношение сторон                       : 16:9
Режим частоты кадров                     : Постоянный
Частота кадров                           : 25,000 кадров/сек
Цветовое пространство                    : YUV
Субдискретизация насыщенности            : 4:2:0
Битовая глубина                          : 8 бит
Тип развёртки                            : Прогрессивная
Бит/(Пиксели*Кадры)                      : 0.087
Размер потока                            : 108 Мбайт (97%)
Библиотека кодирования                   : x264 core 129
Настройки программы                      : cabac=1 / ref=1 / deblock=1:0:0 / analyse=0x1:0x131 / me=dia / subme=2 / psy=1 / psy_rd=1.00:0.00 / mixed_ref=0 / me_range=16 / chroma_me=1 / trellis=0 / 8x8dct=0 / cqm=0 / deadzone=21,11 / fast_pskip=1 / chroma_qp_offset=0 / threads=2 / lookahead_threads=1 / sliced_threads=0 / nr=0 / decimate=1 / interlaced=0 / bluray_compat=0 / constrained_intra=0 / bframes=0 / weightp=2 / keyint=250 / keyint_min=25 / scenecut=40 / intra_refresh=0 / rc_lookahead=40 / rc=abr / mbtree=1 / bitrate=4496 / ratetol=1.0 / qcomp=0.60 / qpmin=10 / qpmax=51 / qpstep=4 / ip_ratio=1.41 / aq=1:1.00
Дата кодирования                         : UTC 2015-09-26 09:12:23
Дата пометки                             : UTC 2015-09-26 09:12:23

Аудио
Идентификатор                            : 2
Формат                                   : AAC
Формат/Информация                        : Advanced Audio Codec
Профиль формата                          : LC
Идентификатор кодека                     : 40
Продолжительность                        : 3 м. 23 с.
Duration_FirstFrame                      : 70 мс.
Вид битрейта                             : Переменный
Битрейт                                  : 152 Кбит/сек
Максимальный битрейт                     : 176 Кбит/сек
Каналы                                   : 2 канала
Расположение каналов                     : Front: L R
Частота                                  : 44,1 КГц
Метод сжатия                             : С потерями
Размер потока                            : 3,68 Мбайт (3%)
Дата кодирования                         : UTC 2015-09-26 09:12:23
Дата пометки                             : UTC 2015-09-26 09:12:23
Общее
Полное имя                               : E:\VA - Осенний марафон № 194 (Зарубежный Коктейль Танцевальных Новинок)\Lipstick Gypsy - Infatuation (Official Video).mp4
Формат                                   : MPEG-4
Профиль формата                          : Base Media
Идентификатор кодека                     : isom
Размер файла                             : 133 Мбайт
Продолжительность                        : 3 м. 59 с.
Режим общего битрейта                    : Переменный
Общий поток                              : 4667 Кбит/сек
Дата кодирования                         : UTC 2015-09-20 07:57:07
Дата пометки                             : UTC 2015-09-20 07:57:07
Программа кодирования                    : Lavf54.63.104

Видео
Идентификатор                            : 1
Формат                                   : AVC
Формат/Информация                        : Advanced Video Codec
Профиль формата                          : Main@L4
Параметр CABAC формата                   : Да
Параметр ReFrames формата                : 1 кадр
Идентификатор кодека                     : avc1
Идентификатор кодека/Информация          : Advanced Video Coding
Продолжительность                        : 3 м. 59 с.
Битрейт                                  : 4496 Кбит/сек
Ширина                                   : 1920 пикселей
Высота                                   : 1080 пикселей
Соотношение сторон                       : 16:9
Режим частоты кадров                     : Постоянный
Частота кадров                           : 25,000 кадров/сек
Цветовое пространство                    : YUV
Субдискретизация насыщенности            : 4:2:0
Битовая глубина                          : 8 бит
Тип развёртки                            : Прогрессивная
Бит/(Пиксели*Кадры)                      : 0.087
Размер потока                            : 129 Мбайт (97%)
Библиотека кодирования                   : x264 core 129
Настройки программы                      : cabac=1 / ref=1 / deblock=1:0:0 / analyse=0x1:0x131 / me=dia / subme=2 / psy=1 / psy_rd=1.00:0.00 / mixed_ref=0 / me_range=16 / chroma_me=1 / trellis=0 / 8x8dct=0 / cqm=0 / deadzone=21,11 / fast_pskip=1 / chroma_qp_offset=0 / threads=2 / lookahead_threads=1 / sliced_threads=0 / nr=0 / decimate=1 / interlaced=0 / bluray_compat=0 / constrained_intra=0 / bframes=0 / weightp=2 / keyint=250 / keyint_min=25 / scenecut=40 / intra_refresh=0 / rc_lookahead=40 / rc=abr / mbtree=1 / bitrate=4496 / ratetol=1.0 / qcomp=0.60 / qpmin=10 / qpmax=51 / qpstep=4 / ip_ratio=1.41 / aq=1:1.00
Дата кодирования                         : UTC 2015-09-20 07:57:07
Дата пометки                             : UTC 2015-09-20 07:57:07

Аудио
Идентификатор                            : 2
Формат                                   : AAC
Формат/Информация                        : Advanced Audio Codec
Профиль формата                          : LC
Идентификатор кодека                     : 40
Продолжительность                        : 3 м. 59 с.
Duration_FirstFrame                      : 70 мс.
Вид битрейта                             : Переменный
Битрейт                                  : 151 Кбит/сек
Максимальный битрейт                     : 176 Кбит/сек
Каналы                                   : 2 канала
Расположение каналов                     : Front: L R
Частота                                  : 44,1 КГц
Метод сжатия                             : С потерями
Размер потока                            : 4,32 Мбайт (3%)
Дата кодирования                         : UTC 2015-09-20 07:57:07
Дата пометки                             : UTC 2015-09-20 07:57:07
Общее
Полное имя                               : E:\VA - Осенний марафон № 194 (Зарубежный Коктейль Танцевальных Новинок)\Margaret - Dance For 2 (Official Video).mp4
Формат                                   : MPEG-4
Профиль формата                          : Base Media
Идентификатор кодека                     : isom
Размер файла                             : 102 Мбайт
Продолжительность                        : 3 м. 5 с.
Режим общего битрейта                    : Переменный
Общий поток                              : 4614 Кбит/сек
Дата кодирования                         : UTC 2015-09-25 13:57:01
Дата пометки                             : UTC 2015-09-25 13:57:01
Программа кодирования                    : Lavf54.63.104

Видео
Идентификатор                            : 1
Формат                                   : AVC
Формат/Информация                        : Advanced Video Codec
Профиль формата                          : Main@L4
Параметр CABAC формата                   : Да
Параметр ReFrames формата                : 1 кадр
Идентификатор кодека                     : avc1
Идентификатор кодека/Информация          : Advanced Video Coding
Продолжительность                        : 3 м. 5 с.
Битрейт                                  : 4496 Кбит/сек
Ширина                                   : 1920 пикселей
Высота                                   : 1080 пикселей
Соотношение сторон                       : 16:9
Режим частоты кадров                     : Постоянный
Частота кадров                           : 25,000 кадров/сек
Цветовое пространство                    : YUV
Субдискретизация насыщенности            : 4:2:0
Битовая глубина                          : 8 бит
Тип развёртки                            : Прогрессивная
Бит/(Пиксели*Кадры)                      : 0.087
Размер потока                            : 98,8 Мбайт (97%)
Библиотека кодирования                   : x264 core 129
Настройки программы                      : cabac=1 / ref=1 / deblock=1:0:0 / analyse=0x1:0x131 / me=dia / subme=2 / psy=1 / psy_rd=1.00:0.00 / mixed_ref=0 / me_range=16 / chroma_me=1 / trellis=0 / 8x8dct=0 / cqm=0 / deadzone=21,11 / fast_pskip=1 / chroma_qp_offset=0 / threads=2 / lookahead_threads=1 / sliced_threads=0 / nr=0 / decimate=1 / interlaced=0 / bluray_compat=0 / constrained_intra=0 / bframes=0 / weightp=2 / keyint=250 / keyint_min=25 / scenecut=40 / intra_refresh=0 / rc_lookahead=40 / rc=abr / mbtree=1 / bitrate=4496 / ratetol=1.0 / qcomp=0.60 / qpmin=10 / qpmax=51 / qpstep=4 / ip_ratio=1.41 / aq=1:1.00
Дата кодирования                         : UTC 2015-09-25 13:57:01
Дата пометки                             : UTC 2015-09-25 13:57:01

Аудио
Идентификатор                            : 2
Формат                                   : AAC
Формат/Информация                        : Advanced Audio Codec
Профиль формата                          : LC
Идентификатор кодека                     : 40
Продолжительность                        : 3 м. 5 с.
Duration_FirstFrame                      : 70 мс.
Вид битрейта                             : Переменный
Битрейт                                  : 152 Кбит/сек
Максимальный битрейт                     : 176 Кбит/сек
Каналы                                   : 2 канала
Расположение каналов                     : Front: L R
Частота                                  : 44,1 КГц
Метод сжатия                             : С потерями
Размер потока                            : 3,36 Мбайт (3%)
Дата кодирования                         : UTC 2015-09-25 13:57:01
Дата пометки                             : UTC 2015-09-25 13:57:01
Общее
Полное имя                               : E:\VA - Осенний марафон № 194 (Зарубежный Коктейль Танцевальных Новинок)\Milania - Made Of Steel (Official Video).mp4
Формат                                   : MPEG-4
Профиль формата                          : Base Media
Идентификатор кодека                     : isom
Размер файла                             : 108 Мбайт
Продолжительность                        : 3 м. 16 с.
Режим общего битрейта                    : Переменный
Общий поток                              : 4637 Кбит/сек
Дата кодирования                         : UTC 2015-09-26 06:00:47
Дата пометки                             : UTC 2015-09-26 06:00:47
Программа кодирования                    : Lavf54.63.104

Видео
Идентификатор                            : 1
Формат                                   : AVC
Формат/Информация                        : Advanced Video Codec
Профиль формата                          : Main@L4
Параметр CABAC формата                   : Да
Параметр ReFrames формата                : 1 кадр
Идентификатор кодека                     : avc1
Идентификатор кодека/Информация          : Advanced Video Coding
Продолжительность                        : 3 м. 16 с.
Битрейт                                  : 4496 Кбит/сек
Ширина                                   : 1920 пикселей
Высота                                   : 1080 пикселей
Соотношение сторон                       : 16:9
Режим частоты кадров                     : Постоянный
Частота кадров                           : 25,000 кадров/сек
Цветовое пространство                    : YUV
Субдискретизация насыщенности            : 4:2:0
Битовая глубина                          : 8 бит
Тип развёртки                            : Прогрессивная
Бит/(Пиксели*Кадры)                      : 0.087
Размер потока                            : 105 Мбайт (97%)
Библиотека кодирования                   : x264 core 129
Настройки программы                      : cabac=1 / ref=1 / deblock=1:0:0 / analyse=0x1:0x131 / me=dia / subme=2 / psy=1 / psy_rd=1.00:0.00 / mixed_ref=0 / me_range=16 / chroma_me=1 / trellis=0 / 8x8dct=0 / cqm=0 / deadzone=21,11 / fast_pskip=1 / chroma_qp_offset=0 / threads=2 / lookahead_threads=1 / sliced_threads=0 / nr=0 / decimate=1 / interlaced=0 / bluray_compat=0 / constrained_intra=0 / bframes=0 / weightp=2 / keyint=250 / keyint_min=25 / scenecut=40 / intra_refresh=0 / rc_lookahead=40 / rc=abr / mbtree=1 / bitrate=4496 / ratetol=1.0 / qcomp=0.60 / qpmin=10 / qpmax=51 / qpstep=4 / ip_ratio=1.41 / aq=1:1.00
Дата кодирования                         : UTC 2015-09-26 06:00:47
Дата пометки                             : UTC 2015-09-26 06:00:47

Аудио
Идентификатор                            : 2
Формат                                   : AAC
Формат/Информация                        : Advanced Audio Codec
Профиль формата                          : LC
Идентификатор кодека                     : 40
Продолжительность                        : 3 м. 16 с.
Duration_FirstFrame                      : 70 мс.
Вид битрейта                             : Переменный
Битрейт                                  : 151 Кбит/сек
Максимальный битрейт                     : 176 Кбит/сек
Каналы                                   : 2 канала
Расположение каналов                     : Front: L R
Частота                                  : 44,1 КГц
Метод сжатия                             : С потерями
Размер потока                            : 3,54 Мбайт (3%)
Дата кодирования                         : UTC 2015-09-26 06:00:47
Дата пометки                             : UTC 2015-09-26 06:00:47
Общее
Полное имя                               : E:\VA - Осенний марафон № 194 (Зарубежный Коктейль Танцевальных Новинок)\Nelly ft. Jeremih - The Fix (Official Video).mp4
Формат                                   : MPEG-4
Профиль формата                          : Base Media
Идентификатор кодека                     : isom
Размер файла                             : 104 Мбайт
Продолжительность                        : 3 м. 13 с.
Режим общего битрейта                    : Переменный
Общий поток                              : 4512 Кбит/сек
Дата кодирования                         : UTC 2015-09-24 16:48:41
Дата пометки                             : UTC 2015-09-24 16:48:41
Программа кодирования                    : Lavf54.63.104

Видео
Идентификатор                            : 1
Формат                                   : AVC
Формат/Информация                        : Advanced Video Codec
Профиль формата                          : Main@L4
Параметр CABAC формата                   : Да
Параметр ReFrames формата                : 1 кадр
Идентификатор кодека                     : avc1
Идентификатор кодека/Информация          : Advanced Video Coding
Продолжительность                        : 3 м. 13 с.
Битрейт                                  : 4496 Кбит/сек
Ширина                                   : 1920 пикселей
Высота                                   : 1080 пикселей
Соотношение сторон                       : 16:9
Режим частоты кадров                     : Постоянный
Частота кадров                           : 25,000 кадров/сек
Цветовое пространство                    : YUV
Субдискретизация насыщенности            : 4:2:0
Битовая глубина                          : 8 бит
Тип развёртки                            : Прогрессивная
Бит/(Пиксели*Кадры)                      : 0.087
Размер потока                            : 100 Мбайт (97%)
Библиотека кодирования                   : x264 core 129
Настройки программы                      : cabac=1 / ref=1 / deblock=1:0:0 / analyse=0x1:0x131 / me=dia / subme=2 / psy=1 / psy_rd=1.00:0.00 / mixed_ref=0 / me_range=16 / chroma_me=1 / trellis=0 / 8x8dct=0 / cqm=0 / deadzone=21,11 / fast_pskip=1 / chroma_qp_offset=0 / threads=2 / lookahead_threads=1 / sliced_threads=0 / nr=0 / decimate=1 / interlaced=0 / bluray_compat=0 / constrained_intra=0 / bframes=0 / weightp=2 / keyint=250 / keyint_min=25 / scenecut=40 / intra_refresh=0 / rc_lookahead=40 / rc=abr / mbtree=1 / bitrate=4496 / ratetol=1.0 / qcomp=0.60 / qpmin=10 / qpmax=51 / qpstep=4 / ip_ratio=1.41 / aq=1:1.00
Дата кодирования                         : UTC 2015-09-24 16:48:41
Дата пометки                             : UTC 2015-09-24 16:48:41

Аудио
Идентификатор                            : 2
Формат                                   : AAC
Формат/Информация                        : Advanced Audio Codec
Профиль формата                          : LC
Идентификатор кодека                     : 40
Продолжительность                        : 3 м. 13 с.
Duration_FirstFrame                      : 70 мс.
Вид битрейта                             : Переменный
Битрейт                                  : 150 Кбит/сек
Максимальный битрейт                     : 176 Кбит/сек
Каналы                                   : 2 канала
Расположение каналов                     : Front: L R
Частота                                  : 44,1 КГц
Метод сжатия                             : С потерями
Размер потока                            : 3,46 Мбайт (3%)
Дата кодирования                         : UTC 2015-09-24 16:48:41
Дата пометки                             : UTC 2015-09-24 16:48:41
Общее
Полное имя                               : E:\VA - Осенний марафон № 194 (Зарубежный Коктейль Танцевальных Новинок)\Nick Carter - I Will Wait (Official Video).mp4
Формат                                   : MPEG-4
Профиль формата                          : Base Media
Идентификатор кодека                     : isom
Размер файла                             : 118 Мбайт
Продолжительность                        : 3 м. 29 с.
Режим общего битрейта                    : Переменный
Общий поток                              : 4710 Кбит/сек
Дата кодирования                         : UTC 2015-09-24 09:34:50
Дата пометки                             : UTC 2015-09-24 09:34:50
Программа кодирования                    : Lavf54.63.104

Видео
Идентификатор                            : 1
Формат                                   : AVC
Формат/Информация                        : Advanced Video Codec
Профиль формата                          : Main@L4
Параметр CABAC формата                   : Да
Параметр ReFrames формата                : 1 кадр
Идентификатор кодека                     : avc1
Идентификатор кодека/Информация          : Advanced Video Coding
Продолжительность                        : 3 м. 29 с.
Битрейт                                  : 4496 Кбит/сек
Ширина                                   : 1920 пикселей
Высота                                   : 1080 пикселей
Соотношение сторон                       : 16:9
Режим частоты кадров                     : Постоянный
Частота кадров                           : 25,000 кадров/сек
Цветовое пространство                    : YUV
Субдискретизация насыщенности            : 4:2:0
Битовая глубина                          : 8 бит
Тип развёртки                            : Прогрессивная
Бит/(Пиксели*Кадры)                      : 0.087
Размер потока                            : 114 Мбайт (97%)
Библиотека кодирования                   : x264 core 129
Настройки программы                      : cabac=1 / ref=1 / deblock=1:0:0 / analyse=0x1:0x131 / me=dia / subme=2 / psy=1 / psy_rd=1.00:0.00 / mixed_ref=0 / me_range=16 / chroma_me=1 / trellis=0 / 8x8dct=0 / cqm=0 / deadzone=21,11 / fast_pskip=1 / chroma_qp_offset=0 / threads=2 / lookahead_threads=1 / sliced_threads=0 / nr=0 / decimate=1 / interlaced=0 / bluray_compat=0 / constrained_intra=0 / bframes=0 / weightp=2 / keyint=250 / keyint_min=25 / scenecut=40 / intra_refresh=0 / rc_lookahead=40 / rc=abr / mbtree=1 / bitrate=4496 / ratetol=1.0 / qcomp=0.60 / qpmin=10 / qpmax=51 / qpstep=4 / ip_ratio=1.41 / aq=1:1.00
Дата кодирования                         : UTC 2015-09-24 09:34:50
Дата пометки                             : UTC 2015-09-24 09:34:50

Аудио
Идентификатор                            : 2
Формат                                   : AAC
Формат/Информация                        : Advanced Audio Codec
Профиль формата                          : LC
Идентификатор кодека                     : 40
Продолжительность                        : 3 м. 29 с.
Duration_FirstFrame                      : 70 мс.
Вид битрейта                             : Переменный
Битрейт                                  : 147 Кбит/сек
Максимальный битрейт                     : 176 Кбит/сек
Каналы                                   : 2 канала
Расположение каналов                     : Front: L R
Частота                                  : 44,1 КГц
Метод сжатия                             : С потерями
Размер потока                            : 3,68 Мбайт (3%)
Дата кодирования                         : UTC 2015-09-24 09:34:50
Дата пометки                             : UTC 2015-09-24 09:34:50
Общее
Полное имя                               : E:\VA - Осенний марафон № 194 (Зарубежный Коктейль Танцевальных Новинок)\Scooter – Riot (360° Live Video) (Official Video).mp4
Формат                                   : MPEG-4
Профиль формата                          : Base Media
Идентификатор кодека                     : isom
Размер файла                             : 278 Мбайт
Продолжительность                        : 8 м. 20 с.
Режим общего битрейта                    : Переменный
Общий поток                              : 4659 Кбит/сек
Дата кодирования                         : UTC 2015-09-13 08:10:06
Дата пометки                             : UTC 2015-09-13 08:10:06
Программа кодирования                    : Lavf54.63.104

Видео
Идентификатор                            : 1
Формат                                   : AVC
Формат/Информация                        : Advanced Video Codec
Профиль формата                          : Main@L4
Параметр CABAC формата                   : Да
Параметр ReFrames формата                : 1 кадр
Идентификатор кодека                     : avc1
Идентификатор кодека/Информация          : Advanced Video Coding
Продолжительность                        : 8 м. 20 с.
Битрейт                                  : 4496 Кбит/сек
Ширина                                   : 1920 пикселей
Высота                                   : 1080 пикселей
Соотношение сторон                       : 16:9
Режим частоты кадров                     : Постоянный
Частота кадров                           : 25,000 кадров/сек
Цветовое пространство                    : YUV
Субдискретизация насыщенности            : 4:2:0
Битовая глубина                          : 8 бит
Тип развёртки                            : Прогрессивная
Бит/(Пиксели*Кадры)                      : 0.087
Размер потока                            : 269 Мбайт (97%)
Библиотека кодирования                   : x264 core 129
Настройки программы                      : cabac=1 / ref=1 / deblock=1:0:0 / analyse=0x1:0x131 / me=dia / subme=2 / psy=1 / psy_rd=1.00:0.00 / mixed_ref=0 / me_range=16 / chroma_me=1 / trellis=0 / 8x8dct=0 / cqm=0 / deadzone=21,11 / fast_pskip=1 / chroma_qp_offset=0 / threads=2 / lookahead_threads=1 / sliced_threads=0 / nr=0 / decimate=1 / interlaced=0 / bluray_compat=0 / constrained_intra=0 / bframes=0 / weightp=2 / keyint=250 / keyint_min=25 / scenecut=40 / intra_refresh=0 / rc_lookahead=40 / rc=abr / mbtree=1 / bitrate=4496 / ratetol=1.0 / qcomp=0.60 / qpmin=10 / qpmax=51 / qpstep=4 / ip_ratio=1.41 / aq=1:1.00
Дата кодирования                         : UTC 2015-09-13 08:10:06
Дата пометки                             : UTC 2015-09-13 08:10:06

Аудио
Идентификатор                            : 2
Формат                                   : AAC
Формат/Информация                        : Advanced Audio Codec
Профиль формата                          : LC
Идентификатор кодека                     : 40
Продолжительность                        : 8 м. 20 с.
Duration_FirstFrame                      : 70 мс.
Вид битрейта                             : Переменный
Битрейт                                  : 149 Кбит/сек
Максимальный битрейт                     : 176 Кбит/сек
Каналы                                   : 2 канала
Расположение каналов                     : Front: L R
Частота                                  : 44,1 КГц
Метод сжатия                             : С потерями
Размер потока                            : 8,90 Мбайт (3%)
Дата кодирования                         : UTC 2015-09-13 08:10:06
Дата пометки                             : UTC 2015-09-13 08:10:06
Общее
Полное имя                               : E:\VA - Осенний марафон № 194 (Зарубежный Коктейль Танцевальных Новинок)\Seven Lions - Falling Away (Lyric Video) (Official Video).mp4
Формат                                   : MPEG-4
Профиль формата                          : Base Media
Идентификатор кодека                     : isom
Размер файла                             : 129 Мбайт
Продолжительность                        : 4 м. 0 с.
Режим общего битрейта                    : Переменный
Общий поток                              : 4512 Кбит/сек
Дата кодирования                         : UTC 2015-09-20 06:16:00
Дата пометки                             : UTC 2015-09-20 06:16:00
Программа кодирования                    : Lavf54.63.104

Видео
Идентификатор                            : 1
Формат                                   : AVC
Формат/Информация                        : Advanced Video Codec
Профиль формата                          : Main@L4
Параметр CABAC формата                   : Да
Параметр ReFrames формата                : 1 кадр
Идентификатор кодека                     : avc1
Идентификатор кодека/Информация          : Advanced Video Coding
Продолжительность                        : 4 м. 0 с.
Битрейт                                  : 4496 Кбит/сек
Ширина                                   : 1920 пикселей
Высота                                   : 1080 пикселей
Соотношение сторон                       : 16:9
Режим частоты кадров                     : Постоянный
Частота кадров                           : 25,000 кадров/сек
Цветовое пространство                    : YUV
Субдискретизация насыщенности            : 4:2:0
Битовая глубина                          : 8 бит
Тип развёртки                            : Прогрессивная
Бит/(Пиксели*Кадры)                      : 0.087
Размер потока                            : 125 Мбайт (97%)
Библиотека кодирования                   : x264 core 129
Настройки программы                      : cabac=1 / ref=1 / deblock=1:0:0 / analyse=0x1:0x131 / me=dia / subme=2 / psy=1 / psy_rd=1.00:0.00 / mixed_ref=0 / me_range=16 / chroma_me=1 / trellis=0 / 8x8dct=0 / cqm=0 / deadzone=21,11 / fast_pskip=1 / chroma_qp_offset=0 / threads=2 / lookahead_threads=1 / sliced_threads=0 / nr=0 / decimate=1 / interlaced=0 / bluray_compat=0 / constrained_intra=0 / bframes=0 / weightp=2 / keyint=250 / keyint_min=25 / scenecut=40 / intra_refresh=0 / rc_lookahead=40 / rc=abr / mbtree=1 / bitrate=4496 / ratetol=1.0 / qcomp=0.60 / qpmin=10 / qpmax=51 / qpstep=4 / ip_ratio=1.41 / aq=1:1.00
Дата кодирования                         : UTC 2015-09-20 06:16:00
Дата пометки                             : UTC 2015-09-20 06:16:00

Аудио
Идентификатор                            : 2
Формат                                   : AAC
Формат/Информация                        : Advanced Audio Codec
Профиль формата                          : LC
Идентификатор кодека                     : 40
Продолжительность                        : 4 м. 0 с.
Duration_FirstFrame                      : 70 мс.
Вид битрейта                             : Переменный
Битрейт                                  : 150 Кбит/сек
Максимальный битрейт                     : 176 Кбит/сек
Каналы                                   : 2 канала
Расположение каналов                     : Front: L R
Частота                                  : 44,1 КГц
Метод сжатия                             : С потерями
Размер потока                            : 4,30 Мбайт (3%)
Дата кодирования                         : UTC 2015-09-20 06:16:00
Дата пометки                             : UTC 2015-09-20 06:16:00
Общее
Полное имя                               : E:\VA - Осенний марафон № 194 (Зарубежный Коктейль Танцевальных Новинок)\Sofia Carson - Rotten to the Core (Official Video).mp4
Формат                                   : MPEG-4
Профиль формата                          : Base Media
Идентификатор кодека                     : isom
Размер файла                             : 118 Мбайт
Продолжительность                        : 3 м. 38 с.
Режим общего битрейта                    : Переменный
Общий поток                              : 4552 Кбит/сек
Дата кодирования                         : UTC 2015-08-24 05:06:08
Дата пометки                             : UTC 2015-08-24 05:06:08
Программа кодирования                    : Lavf54.63.104

Видео
Идентификатор                            : 1
Формат                                   : AVC
Формат/Информация                        : Advanced Video Codec
Профиль формата                          : Main@L4
Параметр CABAC формата                   : Да
Параметр ReFrames формата                : 1 кадр
Идентификатор кодека                     : avc1
Идентификатор кодека/Информация          : Advanced Video Coding
Продолжительность                        : 3 м. 38 с.
Битрейт                                  : 4496 Кбит/сек
Ширина                                   : 1920 пикселей
Высота                                   : 1080 пикселей
Соотношение сторон                       : 16:9
Режим частоты кадров                     : Постоянный
Частота кадров                           : 25,000 кадров/сек
Цветовое пространство                    : YUV
Субдискретизация насыщенности            : 4:2:0
Битовая глубина                          : 8 бит
Тип развёртки                            : Прогрессивная
Бит/(Пиксели*Кадры)                      : 0.087
Размер потока                            : 114 Мбайт (97%)
Библиотека кодирования                   : x264 core 129
Настройки программы                      : cabac=1 / ref=1 / deblock=1:0:0 / analyse=0x1:0x131 / me=dia / subme=2 / psy=1 / psy_rd=1.00:0.00 / mixed_ref=0 / me_range=16 / chroma_me=1 / trellis=0 / 8x8dct=0 / cqm=0 / deadzone=21,11 / fast_pskip=1 / chroma_qp_offset=0 / threads=2 / lookahead_threads=1 / sliced_threads=0 / nr=0 / decimate=1 / interlaced=0 / bluray_compat=0 / constrained_intra=0 / bframes=0 / weightp=2 / keyint=250 / keyint_min=25 / scenecut=40 / intra_refresh=0 / rc_lookahead=40 / rc=abr / mbtree=1 / bitrate=4496 / ratetol=1.0 / qcomp=0.60 / qpmin=10 / qpmax=51 / qpstep=4 / ip_ratio=1.41 / aq=1:1.00
Дата кодирования                         : UTC 2015-08-24 05:06:08
Дата пометки                             : UTC 2015-08-24 05:06:08

Аудио
Идентификатор                            : 2
Формат                                   : AAC
Формат/Информация                        : Advanced Audio Codec
Профиль формата                          : LC
Идентификатор кодека                     : 40
Продолжительность                        : 3 м. 38 с.
Duration_FirstFrame                      : 70 мс.
Вид битрейта                             : Переменный
Битрейт                                  : 144 Кбит/сек
Максимальный битрейт                     : 176 Кбит/сек
Каналы                                   : 2 канала
Расположение каналов                     : Front: L R
Частота                                  : 44,1 КГц
Метод сжатия                             : С потерями
Размер потока                            : 3,80 Мбайт (3%)
Дата кодирования                         : UTC 2015-08-24 05:06:08
Дата пометки                             : UTC 2015-08-24 05:06:08
Общее
Полное имя                               : E:\VA - Осенний марафон № 194 (Зарубежный Коктейль Танцевальных Новинок)\Tiësto & Don Diablo ft. Thomas Troelsen - Chemicals (Official Video).mp4
Формат                                   : MPEG-4
Профиль формата                          : Base Media
Идентификатор кодека                     : isom
Размер файла                             : 130 Мбайт
Продолжительность                        : 3 м. 40 с.
Режим общего битрейта                    : Переменный
Общий поток                              : 4972 Кбит/сек
Дата кодирования                         : UTC 2015-09-26 06:34:00
Дата пометки                             : UTC 2015-09-26 06:34:00
Программа кодирования                    : Lavf54.63.104

Видео
Идентификатор                            : 1
Формат                                   : AVC
Формат/Информация                        : Advanced Video Codec
Профиль формата                          : Main@L4
Параметр CABAC формата                   : Да
Параметр ReFrames формата                : 1 кадр
Идентификатор кодека                     : avc1
Идентификатор кодека/Информация          : Advanced Video Coding
Продолжительность                        : 3 м. 40 с.
Битрейт                                  : 4815 Кбит/сек
Номинальный битрейт                      : 4496 Кбит/сек
Ширина                                   : 1920 пикселей
Высота                                   : 1080 пикселей
Соотношение сторон                       : 16:9
Режим частоты кадров                     : Постоянный
Частота кадров                           : 25,000 кадров/сек
Цветовое пространство                    : YUV
Субдискретизация насыщенности            : 4:2:0
Битовая глубина                          : 8 бит
Тип развёртки                            : Прогрессивная
Бит/(Пиксели*Кадры)                      : 0.093
Размер потока                            : 126 Мбайт (97%)
Библиотека кодирования                   : x264 core 129
Настройки программы                      : cabac=1 / ref=1 / deblock=1:0:0 / analyse=0x1:0x131 / me=dia / subme=2 / psy=1 / psy_rd=1.00:0.00 / mixed_ref=0 / me_range=16 / chroma_me=1 / trellis=0 / 8x8dct=0 / cqm=0 / deadzone=21,11 / fast_pskip=1 / chroma_qp_offset=0 / threads=2 / lookahead_threads=1 / sliced_threads=0 / nr=0 / decimate=1 / interlaced=0 / bluray_compat=0 / constrained_intra=0 / bframes=0 / weightp=2 / keyint=250 / keyint_min=25 / scenecut=40 / intra_refresh=0 / rc_lookahead=40 / rc=abr / mbtree=1 / bitrate=4496 / ratetol=1.0 / qcomp=0.60 / qpmin=10 / qpmax=51 / qpstep=4 / ip_ratio=1.41 / aq=1:1.00
Дата кодирования                         : UTC 2015-09-26 06:34:00
Дата пометки                             : UTC 2015-09-26 06:34:00

Аудио
Идентификатор                            : 2
Формат                                   : AAC
Формат/Информация                        : Advanced Audio Codec
Профиль формата                          : LC
Идентификатор кодека                     : 40
Продолжительность                        : 3 м. 40 с.
Duration_FirstFrame                      : 70 мс.
Вид битрейта                             : Переменный
Битрейт                                  : 152 Кбит/сек
Максимальный битрейт                     : 176 Кбит/сек
Каналы                                   : 2 канала
Расположение каналов                     : Front: L R
Частота                                  : 44,1 КГц
Метод сжатия                             : С потерями
Размер потока                            : 3,99 Мбайт (3%)
Дата кодирования                         : UTC 2015-09-26 06:34:00
Дата пометки                             : UTC 2015-09-26 06:34:00

Скриншоты



Хорошего настроения и


Время раздачи: 24/7 - до 5 скачавших, далее по возможности.
 
Не забывайте говорить Спасибо. Не уходите с раздачи!   
Торрент: Зарегистрирован [27 сен 2015, 14:18] Скачать торрент
Скачать торрент
[ Размер 19.29 КБ / Просмотров 14 ]
Статус:
Проверен
 
.torrent скачан: 0 раз
Хэш: b3b5bd27edf567644df0dd6335989210468b6189
Размер: 3.24 ГБ (3 478 563 456 байт)
Стать Автором раздачи
 
 
Раздал: 0 байт
Скачал: 0 байт
Ратио: Inf.
Сообщения: 188877
Зарегистрирован: 14 июн 2014, 20:46


  • Похожие торренты
    Ответы
    Просмотры
    Последнее сообщение

Вернуться в Музыкальные клипы (транзит)

Ресурс не предоставляет электронные версии произведений, а занимается лишь коллекционированием и каталогизацией ссылок, присылаемых и публикуемых на форуме нашими читателями. Если вы являетесь правообладателем какого-либо представленного материала и не желаете чтобы ссылка на него находилась в нашем каталоге, свяжитесь с нами и мы незамедлительно удалим её. Файлы для обмена на трекере предоставлены пользователями сайта, и администрация не несёт ответственности за их содержание. Просьба не заливать файлы, защищенные авторскими правами, а также файлы нелегального содержания!
cron