Крылья России. Легендарные самолеты (2015) IPTVRip (2 сезон, 7 серий из 7)

 
 Статистика раздачи 
Размер: 3.76 ГБ   |  Зарегистрирован: 18 сен 2015, 14:22   |   .torrent скачан: 5 раз
Сидеров: 5  [ 0 байт/сек ]     Личеров: 0  [ 0 байт/сек ]  
  

Крылья России. Легендарные самолеты (2015) IPTVRip (2 сезон, 7 серий из 7)

Сообщение Thelver1947 » 18 сен 2015, 14:22

Крылья России. Легендарные самолеты (2015) IPTVRip (2 сезон, 7 серий из 7)

Телекомпания: Россия, ОАО «ТРК ВС РФ «ЗВЕЗДА»
Жанр: Документальный, авиация, история

Описание:
Документальный сериал из цикла о легендарной советской и российской авиационной технике и людях, чей целью в жизни стало создание лучших самолетов и вертолетов. Сериал расскажет об истории создания, испытаниях и боевого применения и эксплуатации этих уникальных крылатых машин. В него вошли материалы летных испытаний, интервью с летчиками-испытателями, историками авиации, военными летчиками.

Продолжительность: 7 х ~ 00:37:51
Качество видео: IPTVRip

Видео: Xvid, 720x400, ~1805 kbps
Аудио: AC3, 2 ch, 192 kbps, CBR
1. Истребитель И-16. Участник семи войн
В далёкие тридцатые годы этот самолёт был самым узнаваемым в Советском Союзе и обладал многократным титулом «первый». Первый скоростной истребитель. Первый массовый истребитель моноплан. Первый серийный боевой самолёт с убирающимся шасси. Истребители И-16 первыми приняли бой с фашистами в небе Мадрида. Огнём встретили врага над Брестом. Таранили немецкие «Юнкерсы» в небе Москвы. И-16 с доблестью прошли через семь войн и в боях заслужили право называться легендарными.

2. Штурмовик Ил-2
В фильме рассказывается о самолёте Победы штурмовике Ил-2. О том, какие предпосылки послужили его появлению, и как ход войны влиял на его развитие и совершенствование. Также рассказано о разнообразном вооружении этого самолёта. В фильм вошли интервью с ведущими историками авиации и лётчиками.

3. Истребитель Ла-5
В фильме рассказывается о легендарном истребителе Ла-5 конструкции Семёна Лавочкина. Об истории его создания, совершенствования и боевого применения. О лётчиках, воевавших на нём. Также в фильме представлен его предшественник истребитель ЛаГГ-3 и вершина его развития Ла-7. В фильм вошли интервью с ведущими историками авиации и лётчиками.

4. Истребители «Як»
В фильме рассказывается о семействе знаменитых истребителей «Як» периода Великой Отечественной войны: Як-1, Як-7, Як-9 и Як-3. Показана история их создания, развития и боевого применения. В фильм вошли интервью с ведущими историками авиации и лётчиками.

5. Ан-2. Большая легенда малой авиации
Удивительная судьба Ан-2 не раз подтверждала, что он достоин такого высокого звания. Пожалуй, лучше всего ему подошло бы слово «самый». И не только потому, что это самый большой в мире одномоторный поршневой биплан. Гораздо важнее, что Ан-2 – самый универсальный самолёт в истории авиации. Неслучайно он производится уже почти 70 лет! На его бортах красовались опознавательные знаки более 50 государств. Ан-2 побывал практически во всех точках нашей планеты.

6. Ту-144. Устремлённый в будущее
Ту-144 - первый в мире сверхзвуковой пассажирский лайнер. Он взлетел раньше англо-французского собрата - «Конкорда», он открыл новую эпоху в мировой гражданской авиации. Создание Ту-144 вывело отечественную авиационную науку на новые рубежи. Для его производства в авиастроении были применены новые материалы и технологии, которые затронули и смежные отрасли промышленности. Ту-144 стал предметом гордости всей страны, но так и не стал массовым самолётом для перевозок. Он опередил своё время. Однако научный и технологический задел, приобретённый при его создании, еще не раз будет использован в создании новых самолётов - как гражданского, так и военного назначения.

7. «Илья Муромец». Крылатый богатырь
Самолёт «Илья Муромец» впервые поднялся в небо 1913-м году и стал первым в мире боевым многомоторным самолётом. Появившись, он в разы превзошёл своих предшественников.
Создателем этого воздушного гиганта был выдающийся русский авиаконструктор Игорь Иванович Сикорский. В годы Первой Мировой «Муромцы» послужили базой для формирования «Эскадры воздушных кораблей» - прообраза современной стратегической бомбардировочной авиации. Сегодня - в память об этом самолёте - один из сверхзвуковых ракетоносцев Ту-160 также несёт на своём борту имя былинного богатыря.
Код:
Код: Выделить всё
Легендарные.самолеты.(2.сезон).2015.XviD.IPTVRip.alf62\Легендарные.самолеты.(02.серия).Ил-2.2015.XviD.IPTVRip.alf62.avi
Формат                                   : AVI
Формат/Информация                        : Audio Video Interleave
Размер файла                             : 544 Мбайт
Продолжительность                        : 37 м.
Общий поток                              : 2007 Кбит/сек
Библиотека кодирования                   : Boilsoft Joiner build 2411/release

Видео
Идентификатор                            : 0
Формат                                   : MPEG-4 Visual
Профиль формата                          : Advanced Simple@L5
Параметр BVOP формата                    : 2
Параметр QPel формата                    : Нет
Параметр GMC формата                     : Без точки перехода
Параметр матрицы формата                 : Default (H.263)
Идентификатор кодека                     : XVID
Идентификатор кодека/Подсказка           : XviD
Продолжительность                        : 37 м.
Битрейт                                  : 1805 Кбит/сек
Ширина                                   : 720 пикселей
Высота                                   : 400 пикселей
Соотношение сторон                       : 16:9
Частота кадров                           : 25,000 кадров/сек
Цветовое пространство                    : YUV
Субдискретизация насыщенности            : 4:2:0
Битовая глубина                          : 8 бит
Тип развёртки                            : Прогрессивная
Метод сжатия                             : С потерями
Бит/(Пиксели*Кадры)                      : 0.251
Размер потока                            : 489 Мбайт (90%)
Библиотека кодирования                   : XviD 73

Аудио
Идентификатор                            : 1
Формат                                   : AC-3
Формат/Информация                        : Audio Coding 3
Расширение режима                        : CM (complete main)
Параметр Endianness формата              : Big
Идентификатор кодека                     : 2000
Продолжительность                        : 37 м.
Вид битрейта                             : Постоянный
Битрейт                                  : 192 Кбит/сек
Каналы                                   : 2 канала
Расположение каналов                     : Front: L R
Частота                                  : 48,0 КГц
Битовая глубина                          : 16 бит
Метод сжатия                             : С потерями
Размер потока                            : 52,0 Мбайт (10%)
Выравнивание                             : Разделение по промежуткам
Продолжительность промежутка             : 40  мс. (1,00 видеокадр)
Время предзагрузки промежутка            : 500  мс.

Скриншоты:












Время раздачи: 24/7 (круглосуточно)
Авторство релиза - alf62
 
Не забывайте говорить Спасибо. Не уходите с раздачи!   
Торрент: Зарегистрирован [18 сен 2015, 14:22] Для скачивания .torrent
необходима регистрация
Или скачать с помощью
MediaGet
Статус:
Проверен
 
.torrent скачан: 5 раз
Хэш: 912de0304a797d0d6cb6d6c7b4614b014f7e1eb3
Размер: 3.76 ГБ (4 034 697 216 байт)
Стать Автором раздачи
 
 
Раздал: 690.52 МБ
Скачал: 0 байт
Ратио: Seed.
Сообщения: 218210
Зарегистрирован: 14 июн 2014, 21:11


Вернуться в Крылья России

Ресурс не предоставляет электронные версии произведений, а занимается лишь коллекционированием и каталогизацией ссылок, присылаемых и публикуемых на форуме нашими читателями. Если вы являетесь правообладателем какого-либо представленного материала и не желаете чтобы ссылка на него находилась в нашем каталоге, свяжитесь с нами и мы незамедлительно удалим её. Файлы для обмена на трекере предоставлены пользователями сайта, и администрация не несёт ответственности за их содержание. Просьба не заливать файлы, защищенные авторскими правами, а также файлы нелегального содержания!
cron