Крылья России. Легендарные самолеты (2015) IPTVRip (2 сезон, 4 серии из ??) (Обновляемая)

 
 Статистика раздачи 
Размер: 2.13 ГБ   |  Зарегистрирован: 14 сен 2015, 01:23   |   .torrent скачан: 0 раз
Сидеров: 1  [ 0 байт/сек ]     Личеров: 0  [ 0 байт/сек ]  
  

Крылья России. Легендарные самолеты (2015) IPTVRip (2 сезон, 4 серии из ??) (Обновляемая)

Сообщение Thistoll » 14 сен 2015, 01:23

Крылья России. Легендарные самолеты (2015) IPTVRip (2 сезон, 4 серии из ??)

Телекомпания: Россия, ОАО «ТРК ВС РФ «ЗВЕЗДА»
Жанр: Документальный, авиация, история

Описание:
Документальный сериал из цикла о легендарной советской и российской авиационной технике и людях, чей целью в жизни стало создание лучших самолетов и вертолетов. Сериал расскажет об истории создания, испытаниях и боевого применения и эксплуатации этих уникальных крылатых машин. В него вошли материалы летных испытаний, интервью с летчиками-испытателями, историками авиации, военными летчиками.

Продолжительность: 4 х ~ 00:37:51
Качество видео: IPTVRip

Видео: Xvid, 720x400, ~1805 kbps
Аудио: AC3, 2 ch, 192 kbps, CBR
1. Истребитель И-16. Участник семи войн
В далёкие тридцатые годы этот самолёт был самым узнаваемым в Советском Союзе и обладал многократным титулом «первый». Первый скоростной истребитель. Первый массовый истребитель моноплан. Первый серийный боевой самолёт с убирающимся шасси. Истребители И-16 первыми приняли бой с фашистами в небе Мадрида. Огнём встретили врага над Брестом. Таранили немецкие «Юнкерсы» в небе Москвы. И-16 с доблестью прошли через семь войн и в боях заслужили право называться легендарными.

2. Штурмовик Ил-2
В фильме рассказывается о самолёте Победы штурмовике Ил-2. О том, какие предпосылки послужили его появлению, и как ход войны влиял на его развитие и совершенствование. Также рассказано о разнообразном вооружении этого самолёта. В фильм вошли интервью с ведущими историками авиации и лётчиками.

3. Истребитель Ла-5
В фильме рассказывается о легендарном истребителе Ла-5 конструкции Семёна Лавочкина. Об истории его создания, совершенствования и боевого применения. О лётчиках, воевавших на нём. Также в фильме представлен его предшественник истребитель ЛаГГ-3 и вершина его развития Ла-7. В фильм вошли интервью с ведущими историками авиации и лётчиками.

4. Истребители «Як»

5. Ан-2. Большая легенда малой авиации
Удивительная судьба Ан-2 не раз подтверждала, что он достоин такого высокого звания. Пожалуй, лучше всего ему подошло бы слово «самый». И не только потому, что это самый большой в мире одномоторный поршневой биплан. Гораздо важнее, что Ан-2 – самый универсальный самолёт в истории авиации. Неслучайно он производится уже почти 70 лет! На его бортах красовались опознавательные знаки более 50 государств. Ан-2 побывал практически во всех точках нашей планеты.

6. Ту-144. Устремлённый в будущее

7. «Илья Муромец». Крылатый богатырь
Код:
Код: Выделить всё
Легендарные.самолеты.(2.сезон).2015.XviD.IPTVRip.alf62\Легендарные.самолеты.(02.серия).Ил-2.2015.XviD.IPTVRip.alf62.avi
Формат                                   : AVI
Формат/Информация                        : Audio Video Interleave
Размер файла                             : 544 Мбайт
Продолжительность                        : 37 м.
Общий поток                              : 2007 Кбит/сек
Библиотека кодирования                   : Boilsoft Joiner build 2411/release

Видео
Идентификатор                            : 0
Формат                                   : MPEG-4 Visual
Профиль формата                          : Advanced [email protected]
Параметр BVOP формата                    : 2
Параметр QPel формата                    : Нет
Параметр GMC формата                     : Без точки перехода
Параметр матрицы формата                 : Default (H.263)
Идентификатор кодека                     : XVID
Идентификатор кодека/Подсказка           : XviD
Продолжительность                        : 37 м.
Битрейт                                  : 1805 Кбит/сек
Ширина                                   : 720 пикселей
Высота                                   : 400 пикселей
Соотношение сторон                       : 16:9
Частота кадров                           : 25,000 кадров/сек
Цветовое пространство                    : YUV
Субдискретизация насыщенности            : 4:2:0
Битовая глубина                          : 8 бит
Тип развёртки                            : Прогрессивная
Метод сжатия                             : С потерями
Бит/(Пиксели*Кадры)                      : 0.251
Размер потока                            : 489 Мбайт (90%)
Библиотека кодирования                   : XviD 73

Аудио
Идентификатор                            : 1
Формат                                   : AC-3
Формат/Информация                        : Audio Coding 3
Расширение режима                        : CM (complete main)
Параметр Endianness формата              : Big
Идентификатор кодека                     : 2000
Продолжительность                        : 37 м.
Вид битрейта                             : Постоянный
Битрейт                                  : 192 Кбит/сек
Каналы                                   : 2 канала
Расположение каналов                     : Front: L R
Частота                                  : 48,0 КГц
Битовая глубина                          : 16 бит
Метод сжатия                             : С потерями
Размер потока                            : 52,0 Мбайт (10%)
Выравнивание                             : Разделение по промежуткам
Продолжительность промежутка             : 40  мс. (1,00 видеокадр)
Время предзагрузки промежутка            : 500  мс.
Внимание! Раздача ведётся путём добавления новых серий Раздача ведётся путём добавления новых серий; при каждом добавлении создаётся новый торрент. Чтобы начать докачку новой серии, пользователям необходимо сделать следующее:
- Остановить скачивание.
- Удалить старый торрент у себя из клиента (старые серии удалять не надо).
- Скачать новый торрент и запустить его у себя в клиенте вместо старого, при этом указать клиенту путь в старую папку куда и должно происходить скачивание новых серий.
Ваш клиент при этом должен произвести хеширование (проверку) старой папки (если не производит сам - помогите ему сделать это), и будет докачивать только те серии которых у вас ещё нет. Старые серии при этом не удаляются, а продолжают раздаваться!
Если вы уже удалили старые серии, то предотвратить повторную закачку старых серий можно, отжав галочку в соответствующих местах при запуске нового торрента. По возможности, желательно не удалять старые серии как можно дольше, чтобы релизер не столько продолжал раздавать старые серии, а смог сконцентрироваться на новых. [/spoiler]
Скриншоты:












Время раздачи: 24/7 (круглосуточно)
Авторство релиза - alf62
 
Не забывайте говорить Спасибо. Не уходите с раздачи!   
Торрент: Зарегистрирован [14 сен 2015, 01:23] Для скачивания .torrent
необходима регистрация
Или скачать с помощью
MediaGet
Статус:
Проверен
 
.torrent скачан: 0 раз
Хэш: 1719cd3847279a72a524527079dcb49a6bbd87bb
Размер: 2.13 ГБ (2 290 276 352 байт)
Стать Автором раздачи
 
 
Раздал: 6.67 ГБ
Скачал: 302.5 МБ
Ратио: 22.576
Сообщения: 374198
Зарегистрирован: 17 апр 2014, 11:05


  • Похожие торренты
    Ответы
    Просмотры
    Последнее сообщение

Вернуться в Крылья России

Кто сейчас на конференции

Сейчас эту тему просматривают: нет зарегистрированных пользователей и гости: 1

Ресурс не предоставляет электронные версии произведений, а занимается лишь коллекционированием и каталогизацией ссылок, присылаемых и публикуемых на форуме нашими читателями. Если вы являетесь правообладателем какого-либо представленного материала и не желаете чтобы ссылка на него находилась в нашем каталоге, свяжитесь с нами и мы незамедлительно удалим её. Файлы для обмена на трекере предоставлены пользователями сайта, и администрация не несёт ответственности за их содержание. Просьба не заливать файлы, защищенные авторскими правами, а также файлы нелегального содержания!