Профессия - репортер.Идеальная жертва (Эфир 19.02.2011) [2011 г., Документальный, SATRemux]

 
 Статистика раздачи 
Размер: 811.71 МБ   |  Зарегистрирован: 10 сен 2015, 04:53   |   .torrent скачан: 0 раз
Сидеров: 1  [ 0 байт/сек ]     Личеров: 0  [ 0 байт/сек ]  
  

Профессия - репортер.Идеальная жертва (Эфир 19.02.2011) [2011 г., Документальный, SATRemux]

Сообщение bagouser » 10 сен 2015, 04:53

Профессия - репортер. Идеальная жертва(Эфир 19.02.2011)

Год выпуска: 2011
Жанр: Документальный
Продолжительность: 00:25:34

Описание: "Профессия-репортер" - это цикл телевизионных репортажей на актуальные темы современного мира. Это интересный, острый социальный или экстремальный репортаж. В каждом еженедельном репортаже заложен свой конфликт, актуальность и проблематика. Каждый корреспондент программы - уникален и преподносит свою, индивидуальную точку зрения на ту или иную проблему, событие или явление. Если в Вашем городе, регионе или стране происходят важные события или необычные явления, если это остро и актуально, пишите нам, и мы обязательно приедем к Вам.

В этой программе: Так нагло нас еще никто не обманывал!
Они думали, что берут кредит, а оказалось: отдают собственные квартиры! Новые бездомные — их уже сотни, а следующим можете стать Вы!
«Идеальная жертва» — фильм Александра Зиненко.


Релиз:

Качество: SATRemux
Формат: MPEG
Видео кодек: MPEG2
Аудио кодек: MPEG1 Layer 2
Видео: MPEG2 Video 720x576 (4:3) 25.00fps 4 157 Kbps
Аудио: MPEG Audio 48000Hz stereo 192 Кбит/сек
Complete name : F:\TORENTRAZDACHI\Профессия - репортер.Идеальная жертва_DVB by CLIPMAN.mpg
Format : MPEG-PS
File size : 812 MiB
Duration : 25mn 34s
Overall bit rate : 4 437 Kbps

Video
ID : 224 (0xE0)
Format : MPEG Video
Format version : Version 2
Format profile : Main@Main
Format settings, BVOP : No
Format settings, Matrix : Default
Duration : 25mn 34s
Bit rate mode : Variable
Bit rate : 4 157 Kbps
Nominal bit rate : 15.0 Mbps
Width : 720 pixels
Height : 576 pixels
Display aspect ratio : 4:3
Frame rate : 25.000 fps
Standard : PAL
Color space : YUV
Chroma subsampling : 4:2:0
Bit depth : 8 bits
Bits/(Pixel*Frame) : 0.401
Stream size : 760 MiB (94%)

Audio
ID : 192 (0xC0)
Format : MPEG Audio
Format version : Version 1
Format profile : Layer 2
Duration : 25mn 34s
Bit rate mode : Constant
Bit rate : 192 Kbps
Channel(s) : 2 channels
Sampling rate : 48.0 KHz
Stream size : 35.1 MiB (4%)
 
Не забывайте говорить Спасибо. Не уходите с раздачи!   
Торрент: Зарегистрирован [10 сен 2015, 04:53] Для скачивания .torrent
необходима регистрация
Или скачать с помощью
MediaGet
Статус:
Проверен
 
.torrent скачан: 0 раз
Хэш: bc659fc821212b38cc7e1306efc61c4cabdd9d16
Размер: 811.71 МБ (851 134 464 байт)
Стать Автором раздачи
 
Аватара пользователя
 
Раздал: 3.37 ТБ
Скачал: 401.96 ГБ
Ратио: 8.587
Сообщения: 468458
Зарегистрирован: 20 янв 2011, 21:15


  • Похожие торренты
    Ответы
    Просмотры
    Последнее сообщение

Вернуться в Русские сенсации / Программа Максимум / Профессия репортёр/Украинские сенсации

Кто сейчас на конференции

Сейчас эту тему просматривают: нет зарегистрированных пользователей и гости: 1

Ресурс не предоставляет электронные версии произведений, а занимается лишь коллекционированием и каталогизацией ссылок, присылаемых и публикуемых на форуме нашими читателями. Если вы являетесь правообладателем какого-либо представленного материала и не желаете чтобы ссылка на него находилась в нашем каталоге, свяжитесь с нами и мы незамедлительно удалим её. Файлы для обмена на трекере предоставлены пользователями сайта, и администрация не несёт ответственности за их содержание. Просьба не заливать файлы, защищенные авторскими правами, а также файлы нелегального содержания!