Профессия - репортер.Реальные пацаны (Эфир 2006.12.09) [2006 г., Документальный, SATRemux]

 
 Статистика раздачи 
Размер: 648.16 МБ   |  Зарегистрирован: 09 сен 2015, 03:47   |   .torrent скачан: 0 раз
Сидеров: 1  [ 0 байт/сек ]     Личеров: 0  [ 0 байт/сек ]  
  

Профессия - репортер.Реальные пацаны (Эфир 2006.12.09) [2006 г., Документальный, SATRemux]

Сообщение bagouser » 09 сен 2015, 03:47

Профессия - репортер. Реальные пацаны (Эфир 2006.12.09)

Год выпуска: 2006
Жанр: Документальный
Продолжительность: 00:20:25

Описание: "Профессия-репортер" - это цикл телевизионных репортажей на актуальные темы современного мира. Это интересный, острый социальный или экстремальный репортаж. В каждом еженедельном репортаже заложен свой конфликт, актуальность и проблематика. Каждый корреспондент программы - уникален и преподносит свою, индивидуальную точку зрения на ту или иную проблему, событие или явление. Если в Вашем городе, регионе или стране происходят важные события или необычные явления, если это остро и актуально, пишите нам, и мы обязательно приедем к Вам.

В этой программе: Не говори «гоп», пока не нарвался на них.
Гопники. Современные босяки или псы городских окраин?
Улицы подбитых фонарей и тайны знаменитого движения люберов. Как Люберцы закалили молодёжных вожаков?
И кем стал знаменитый доктор Любер?
«РЕАЛЬНЫЕ ПАЦАНЫ» — фильм Андрея Лошака. «Профессия- репортёр». В субботу в 19.25 на НТВ.


Релиз:

Качество: SATRemux
Формат: MPEG
Видео кодек: MPEG2
Аудио кодек: MPEG1 Layer 2
Видео: MPEG2 Video 720x576 (4:3) 25.00fps 4 157 Kbps
Аудио: MPEG Audio 48000Hz stereo 192 Кбит/сек
Complete name : F:\TORENTRAZDACHI\Профессия - репортер.Реальные пацаны_DVB by CLIPMAN.mpg
Format : MPEG-PS
File size : 648 MiB
Duration : 20mn 25s
Overall bit rate : 4 437 Kbps

Video
ID : 224 (0xE0)
Format : MPEG Video
Format version : Version 2
Format profile : Main@Main
Format settings, BVOP : No
Format settings, Matrix : Default
Duration : 20mn 25s
Bit rate mode : Variable
Bit rate : 4 156 Kbps
Nominal bit rate : 15.0 Mbps
Width : 720 pixels
Height : 576 pixels
Display aspect ratio : 4:3
Frame rate : 25.000 fps
Standard : PAL
Color space : YUV
Chroma subsampling : 4:2:0
Bit depth : 8 bits
Bits/(Pixel*Frame) : 0.401
Stream size : 607 MiB (94%)

Audio
ID : 192 (0xC0)
Format : MPEG Audio
Format version : Version 1
Format profile : Layer 2
Duration : 20mn 25s
Bit rate mode : Constant
Bit rate : 192 Kbps
Channel(s) : 2 channels
Sampling rate : 48.0 KHz
Stream size : 28.0 MiB (4%)
 
Не забывайте говорить Спасибо. Не уходите с раздачи!   
Торрент: Зарегистрирован [09 сен 2015, 03:47] Для скачивания .torrent
необходима регистрация
Или скачать с помощью
MediaGet
Статус:
Проверен
 
.torrent скачан: 0 раз
Хэш: a38138ab1b05372045156b72df4f34ccd1a8fcbe
Размер: 648.16 МБ (679 649 280 байт)
Стать Автором раздачи
 
Аватара пользователя
 
Раздал: 3.77 ТБ
Скачал: 406.3 ГБ
Ратио: 9.496
Сообщения: 468702
Зарегистрирован: 20 янв 2011, 21:15


  • Похожие торренты
    Ответы
    Просмотры
    Последнее сообщение

Вернуться в Русские сенсации / Программа Максимум / Профессия репортёр/Украинские сенсации

Ресурс не предоставляет электронные версии произведений, а занимается лишь коллекционированием и каталогизацией ссылок, присылаемых и публикуемых на форуме нашими читателями. Если вы являетесь правообладателем какого-либо представленного материала и не желаете чтобы ссылка на него находилась в нашем каталоге, свяжитесь с нами и мы незамедлительно удалим её. Файлы для обмена на трекере предоставлены пользователями сайта, и администрация не несёт ответственности за их содержание. Просьба не заливать файлы, защищенные авторскими правами, а также файлы нелегального содержания!