Русские сенсации.Врата сумрака (Эфир от 26.03.2011) [2011, Информационный детектив, SATRemux]

 
 Статистика раздачи 
Размер: 1.43 ГБ   |  Зарегистрирован: 09 сен 2015, 03:45   |   .torrent скачан: 0 раз
Сидеров: 1  [ 0 байт/сек ]     Личеров: 0  [ 0 байт/сек ]  
  

Русские сенсации.Врата сумрака (Эфир от 26.03.2011) [2011, Информационный детектив, SATRemux]

Сообщение bagouser » 09 сен 2015, 03:45

Русские сенсации.Врата сумрака (Эфир от 26.03.2011)

Год выпуска: 2011
Страна: Россия
Жанр: Информационный детектив
Продолжительность: 00:45:58

Описание: Программа "Русские сенсации" - это еженедельное документальное приложение к "Программе Максимум". Созданная в лучших традициях расследовательской журналистики, программа развивает и углубляет этот жанр, затрагивая темы, о которых раньше никогда не рассказывало отечественное ТВ. Большинство фильмов - уникальные разработки, слишком громкие и масштабные для еженедельной "Программы Максимум". Другие темы продолжают лучшие расследования "Программы Максимум", расширяя их до уровня общенациональной проблемы. Проект "Русские сенсации" сохраняет все особенности стиля "Программы Максимум": актуальность, репортажность, активную работу репортера на месте расследования. Даже в случае с историческими детективами, делается упор на репортажную составляющую, а не на хронику (если только речь не об уникальной хронике). В каждом выпуске мы стремимся найти свой поворот темы, уникальных свидетелей, эксклюзивную информацию, которая раньше хранилась только под грифом "секретно". Программа носит подзаголовок - "информационный детектив", и это значит, что в программе будет максимум сенсаций, максимум неизвестных фактов, максимум разоблачений и зритель просто не сможет оторваться от экрана. В ближайших планах - громкие расследования о русской мафии за рубежом, тайнах масонской ложи России, неизвестных покушениях на первых лиц российского государства и знаменитых сектантах отечественной эстрады. Авторы фильмов - в прошлом самые известные журналисты "Программы "Максимум": Алексей Егоров, Павел Селин, Алексей Кудашов.

В этом выпуске: Кумиры в плену у ночных кошмаров.
Почему призрак Ванги преследует Татьяну Буланову?
Кому в империи сна служит Борис Гребенщиков?
Правда ли, что сон Регины Дубовицкой рождает чудовищ?
Вещие сны и знамения с того света…
От кого народные артисты прячутся под одеялом?


Релиз:

Качество : SATRemux
Формат: MPG
Видео кодек: MPEG2
Аудио кодек: MPEG1 Layer 2
Видео: MPEG2 Video 720x576 (4:3) 25.00fps 4 157 Kbps
Аудио: MPEG Audio 48000Hz stereo 192 Кбит/сек
Complete name : F:\TORENTRAZDACHI\Русские сенсации.Врата сумрака_DVB by CLIPMAN.mpg
Format : MPEG-PS
File size : 1.43 GiB
Duration : 45mn 58s
Overall bit rate : 4 437 Kbps

Video
ID : 224 (0xE0)
Format : MPEG Video
Format version : Version 2
Format profile : Main@Main
Format settings, BVOP : No
Format settings, Matrix : Default
Format settings, GOP : M=1, N=14
Duration : 45mn 58s
Bit rate mode : Variable
Bit rate : 4 157 Kbps
Nominal bit rate : 15.0 Mbps
Width : 720 pixels
Height : 576 pixels
Display aspect ratio : 4:3
Frame rate : 25.000 fps
Standard : PAL
Color space : YUV
Chroma subsampling : 4:2:0
Bit depth : 8 bits
Scan type : Progressive
Scan order : Top Field First
Bits/(Pixel*Frame) : 0.401
Stream size : 1.34 GiB (94%)

Audio
ID : 192 (0xC0)
Format : MPEG Audio
Format version : Version 1
Format profile : Layer 2
Duration : 45mn 58s
Bit rate mode : Constant
Bit rate : 192 Kbps
Channel(s) : 2 channels
Sampling rate : 48.0 KHz
Stream size : 63.1 MiB (4%)
 
Не забывайте говорить Спасибо. Не уходите с раздачи!   
Торрент: Зарегистрирован [09 сен 2015, 03:45] Для скачивания .torrent
необходима регистрация
Или скачать с помощью
MediaGet
Статус:
Проверен
 
.torrent скачан: 0 раз
Хэш: 9a1feb97145e30921ccd3352c7bbeea95fb8d116
Размер: 1.43 ГБ (1 530 347 520 байт)
Стать Автором раздачи
 
Аватара пользователя
 
Раздал: 3.77 ТБ
Скачал: 406.3 ГБ
Ратио: 9.496
Сообщения: 468463
Зарегистрирован: 20 янв 2011, 21:15


  • Похожие торренты
    Ответы
    Просмотры
    Последнее сообщение

Вернуться в Русские сенсации / Программа Максимум / Профессия репортёр/Украинские сенсации

Ресурс не предоставляет электронные версии произведений, а занимается лишь коллекционированием и каталогизацией ссылок, присылаемых и публикуемых на форуме нашими читателями. Если вы являетесь правообладателем какого-либо представленного материала и не желаете чтобы ссылка на него находилась в нашем каталоге, свяжитесь с нами и мы незамедлительно удалим её. Файлы для обмена на трекере предоставлены пользователями сайта, и администрация не несёт ответственности за их содержание. Просьба не заливать файлы, защищенные авторскими правами, а также файлы нелегального содержания!