Alicia Keys - Live! on YouTube [2009 г., Soul, R'n'B, DVDRip-AVC]

 
 Статистика раздачи 
Размер: 728.93 МБ   |  Зарегистрирован: 08 сен 2015, 21:21   |   .torrent скачан: 0 раз
Сидеров: 1  [ 0 байт/сек ]     Личеров: 0  [ 0 байт/сек ]  
  

Alicia Keys - Live! on YouTube [2009 г., Soul, R'n'B, DVDRip-AVC]

Сообщение bagouser » 08 сен 2015, 21:21

Alicia Keys - Live! on YouTube

Страна: USA
Жанр: Soul, R'n'B
Продолжительность: 01:14:29
Год выпуска: 2009 г.
Описание: Выступление звезды R & B Alicia Keys в Нью-Йорке в честь Всемирного дня борьбы со СПИДом.

Треклист: 01 Love is blind
02 Karma
03 You don't know my name
04 Doesn't mean anything
05 Wreckless love
06 Diary
07 Distance and time
08 If I ain't got you
09 Superwoman
10 Trying sleeping with a broken heart
11 Like you'll never see me again
12 Fallin'
13 No one
14 Empire state of mind
15 Empire state of mind (feat Jay-Z)

Источник: собственный рип; DVD5
Разбивка на главы: Есть!
Качество: DVDRip
Контейнер: MKV
Видео кодек: H.264
Аудио кодек: AC3
Видео: MPEG4 (H264) 1002x576@704x576 (16:9) 25.00fps 1 117 Kbps
Аудио: Dolby AC3 48000Hz stereo 224 Kbps
General
Unique ID : 253996849138641658698405391860181348235 (0xBF1603855B5091268FB2B597CBD9AF8B)
Complete name : Alicia Keys Live On Youtube 2009.mkv
Format : Matroska
File size : 729 MiB
Duration : 1h 14mn
Overall bit rate : 1 368 Kbps
Encoded date : UTC 2011-04-07 17:58:34
Writing application : mkvmerge v4.6.0 ('Still Crazy After All These Years') built on Mar 10 2011 02:50:32
Writing library : libebml v1.2.0 + libmatroska v1.1.0

Video
ID : 1
Format : AVC
Format/Info : Advanced Video Codec
Format profile : High@L4.1
Format settings, CABAC : Yes
Format settings, ReFrames : 16 frames
Format settings, GOP : M=1, N=3
Codec ID : V_MPEG4/ISO/AVC
Duration : 1h 14mn
Bit rate : 1 117 Kbps
Width : 704 pixels
Height : 576 pixels
Display aspect ratio : 16:9
Frame rate : 25.000 fps
Standard : PAL
Color space : YUV
Chroma subsampling : 4:2:0
Bit depth : 8 bits
Scan type : Progressive
Bits/(Pixel*Frame) : 0.110
Stream size : 595 MiB (82%)
Writing library : x264 core 114 r1913 5fd3dce
Encoding settings : cabac=1 / ref=16 / deblock=1:0:0 / analyse=0x3:0x133 / me=umh / subme=10 / psy=1 / psy_rd=1.00:0.00 / mixed_ref=1 / me_range=24 / chroma_me=1 / trellis=2 / 8x8dct=1 / cqm=0 / deadzone=21,11 / fast_pskip=1 / chroma_qp_offset=-2 / threads=3 / sliced_threads=0 / nr=0 / decimate=1 / interlaced=0 / constrained_intra=0 / bframes=8 / b_pyramid=2 / b_adapt=2 / b_bias=0 / direct=3 / weightb=1 / open_gop=0 / weightp=2 / keyint=250 / keyint_min=25 / scenecut=40 / intra_refresh=0 / rc_lookahead=60 / rc=crf / mbtree=1 / crf=20.0 / qcomp=0.60 / qpmin=0 / qpmax=69 / qpstep=4 / vbv_maxrate=17500 / vbv_bufsize=14000 / crf_max=0.0 / nal_hrd=none / ip_ratio=1.40 / aq=1:1.00
Language : English

Audio
ID : 2
Format : AC-3
Format/Info : Audio Coding 3
Mode extension : CM (complete main)
Codec ID : A_AC3
Duration : 1h 14mn
Bit rate mode : Constant
Bit rate : 224 Kbps
Channel(s) : 2 channels
Channel positions : Front: L R
Sampling rate : 48.0 KHz
Bit depth : 16 bits
Compression mode : Lossy
Stream size : 119 MiB (16%)

Menu
00:00:00.000 : en:Love is blind
00:05:24.160 : en:Karma
00:08:19.560 : en:You don't know my name
00:13:35.680 : en:Doesn't mean anything
00:17:40.760 : en:Wreckless love
00:21:45.920 : en:Diary
00:27:42.680 : en:Distance and time
00:33:20.760 : en:If I ain't got you
00:37:49.520 : en:Superwoman
00:43:21.920 : en:Trying sleeping with a broken heart
00:49:55.720 : en:Like you'll never see me again
00:54:46.880 : en:Fallin'
00:59:21.680 : en:No one
01:05:47.080 : en:Empire state of mind
01:08:12.440 : en:Empire state of mind (feat Jay-Z)
 
Не забывайте говорить Спасибо. Не уходите с раздачи!   
Торрент: Зарегистрирован [08 сен 2015, 21:21] Скачать торрент
Скачать торрент
[ Размер 14.73 КБ / Просмотров 23 ]
Статус:
Проверен
 
.torrent скачан: 0 раз
Хэш: a0e23c9f72f49dc4aae86cbc57b7296e91a2e3a6
Размер: 728.93 МБ (764 339 368 байт)
Стать Автором раздачи
 
Аватара пользователя
 
Раздал: 3.77 ТБ
Скачал: 406.3 ГБ
Ратио: 9.496
Сообщения: 468705
Зарегистрирован: 20 янв 2011, 21:15


Re: Alicia Keys - Live! on YouTube [2009 г., Soul, R'n'B, DVDRip-AVC]

Сообщение gordonhobs@zoho.com » 26 ноя 2018, 23:04

Thanks a lot!
 
Раздал: 200 ГБ
Скачал: 0 байт
Ратио: Seed.
Сообщения: 1
Зарегистрирован: 02 ноя 2018, 23:05


  • Похожие торренты
    Ответы
    Просмотры
    Последнее сообщение

Вернуться в Зарубежный R'n'B (Видео)

Ресурс не предоставляет электронные версии произведений, а занимается лишь коллекционированием и каталогизацией ссылок, присылаемых и публикуемых на форуме нашими читателями. Если вы являетесь правообладателем какого-либо представленного материала и не желаете чтобы ссылка на него находилась в нашем каталоге, свяжитесь с нами и мы незамедлительно удалим её. Файлы для обмена на трекере предоставлены пользователями сайта, и администрация не несёт ответственности за их содержание. Просьба не заливать файлы, защищенные авторскими правами, а также файлы нелегального содержания!