Аляска Кид / Alaska Kid [S01] (1993) DVDRip | P2

 
 Статистика раздачи 
Размер: 7.73 ГБ   |  Зарегистрирован: 06 сен 2015, 02:36   |   .torrent скачан: 32 раз
Сидеров: 38  [ 0 байт/сек ]     Личеров: 36  [ 0 байт/сек ]  
  

Аляска Кид / Alaska Kid [S01] (1993) DVDRip | P2

Сообщение ExaByte » 06 сен 2015, 02:36

Информация о фильме
Название: Аляска Кид
Оригинальное название: Alaska Kid
Год выхода: 1993
Жанр: Сериал, приключения, комедия
Режиссер: Джеймс Хилл / James Hill

О фильме: Фильм создан по мотивам произведений Джека Лондона. Он рассказывает о приключениях журналиста-авантюриста Кристофера Белью по прозвищу Аляска Кид на Клондайке во времена «золотой лихорадки». Это было опасное приключение еще на стадии съемок. Результат - крепкий, драматичный сериал о сильных людях. Джек Лондон - гений...



Страна: Германия, Польша, Россия
Студия: CCC Filmkunst GmbH, Zespol Filmowy "Zodiak", Останкино, Союзкиносервис
Продолжительность: 13 х 00:52:00
Перевод: Профессиональный (двухголосый, закадровый)

Файл
Формат: avi
Качество: DVDRip
Видео: XviD, 688x528, 25fps, 1500kbps
Аудио: MPEG Layer 3, 2ch, 44100Hz, 128kbps



General
Complete name : Alaska.Kid.1993.P2.DVDRip.8400.13serii\03.avi
Format : AVI
Format/Info : Audio Video Interleave
File size : 610 MiB
Duration : 52mn 6s
Overall bit rate : 1 637 Kbps
Writing application : VirtualDubMod 1.5.10.2 (build 2540/release)
Writing library : VirtualDubMod build 2540/release

Video
ID : 0
Format : MPEG-4 Visual
Format profile : Advanced Simple@L5
Format settings, BVOP : 2
Format settings, QPel : No
Format settings, GMC : No warppoints
Format settings, Matrix : Default (H.263)
Muxing mode : Packed bitstream
Codec ID : XVID
Codec ID/Hint : XviD
Duration : 52mn 6s
Bit rate : 1 500 Kbps
Width : 688 pixels
Height : 528 pixels
Display aspect ratio : 1.210
Original display aspect ratio : 4:3
Frame rate : 25.000 fps
Color space : YUV
Chroma subsampling : 4:2:0
Bit depth : 8 bits
Scan type : Progressive
Compression mode : Lossy
Bits/(Pixel*Frame) : 0.165
Stream size : 559 MiB (92%)
Writing library : XviD 1.0.2 (UTC 2004-08-29)

Audio
ID : 1
Format : MPEG Audio
Format version : Version 1
Format profile : Layer 3
Mode : Joint stereo
Mode extension : MS Stereo
Codec ID : 55
Codec ID/Hint : MP3
Duration : 52mn 6s
Bit rate mode : Constant
Bit rate : 128 Kbps
Channel(s) : 2 channels
Sampling rate : 44.1 KHz
Compression mode : Lossy
Stream size : 47.7 MiB (8%)
Alignment : Split accross interleaves
Interleave, duration : 40 ms (1.00 video frame)
Interleave, preload duration : 500 ms
Writing library : LAME3.96

01 - Золотая лихорадка
02 - Погребенные заживо
03 - Девичий костер
04 - Чудо любви
05 - Штурм Скво Крик
06 - Судебный процесс по делу Кида
07 - Король рулетки
08 - Наменые убийцы
09 - Поединок века
10 - Большие гонки
11 - Смертельный покер
12 - Яичный переполох
13 - Поединок в поднебесье


 
Не забывайте говорить Спасибо. Не уходите с раздачи!   
Торрент: Зарегистрирован [06 сен 2015, 02:36] Для скачивания .torrent
необходима регистрация
Или скачать с помощью
MediaGet
Статус:
Проверен
 
.torrent скачан: 32 раз
Хэш: 77ffcab3c95fdc6cc754c353e1d02705687702ea
Размер: 7.73 ГБ (8 294 868 396 байт)
Стать Автором раздачи
 
 
Раздал: 2.54 ГБ
Скачал: 0 байт
Ратио: Seed.
Сообщения: 236702
Зарегистрирован: 05 июл 2013, 10:11


  • Похожие торренты
    Ответы
    Просмотры
    Последнее сообщение

Вернуться в Сериалы

Ресурс не предоставляет электронные версии произведений, а занимается лишь коллекционированием и каталогизацией ссылок, присылаемых и публикуемых на форуме нашими читателями. Если вы являетесь правообладателем какого-либо представленного материала и не желаете чтобы ссылка на него находилась в нашем каталоге, свяжитесь с нами и мы незамедлительно удалим её. Файлы для обмена на трекере предоставлены пользователями сайта, и администрация не несёт ответственности за их содержание. Просьба не заливать файлы, защищенные авторскими правами, а также файлы нелегального содержания!
cron